<?xml version="1.0" standalone="no"?>
<!DOCTYPE svg PUBLIC "-//W3C//DTD SVG 1.1//EN" "http://www.w3.org/Graphics/SVG/1.1/DTD/svg11.dtd" >
<svg>
<metadata>
Created by FontForge 20090622 at Thu Sep 19 10:47:11 2019
 By deploy user
Copyright 2011 The Montserrat Project Authors (https://github.com/JulietaUla/Montserrat)
</metadata>
<defs>
<font id="Montserrat-Bold" horiz-adv-x="0" >
  <font-face 
    font-family="Montserrat"
    font-weight="700"
    font-stretch="normal"
    units-per-em="1000"
    panose-1="0 0 8 0 0 0 0 0 0 0"
    ascent="800"
    descent="-200"
    x-height="538"
    cap-height="700"
    bbox="-882 -266 1679 1076"
    underline-thickness="50"
    underline-position="-50"
    unicode-range="U+000D-U+FB02"
  />
<missing-glyph horiz-adv-x="587" 
d="M40 700h507v-700h-507v700zM467 70v560h-347v-560h347z" />
    <glyph glyph-name="fi" unicode="fi" horiz-adv-x="768" 
d="M243 526h138v-120h-134v-406h-156v406h-83v120h83v24q0 92 54.5 146t153.5 54q35 0 66.5 -7.5t52.5 -21.5l-41 -113q-27 19 -63 19q-71 0 -71 -78v-23zM539 538h156v-538h-156v538zM547 638q-27 25 -27 62t27 62t70 25t70 -24t27 -60q0 -39 -27 -64.5t-70 -25.5t-70 25z
" />
    <glyph glyph-name="fl" unicode="fl" horiz-adv-x="688" 
d="M243 526h138v-120h-134v-406h-156v406h-83v120h83v24q0 92 54.5 146t153.5 54q35 0 66.5 -7.5t52.5 -21.5l-41 -113q-27 19 -63 19q-71 0 -71 -78v-23zM459 742h156v-742h-156v742z" />
    <glyph glyph-name=".notdef" horiz-adv-x="587" 
d="M40 700h507v-700h-507v700zM467 70v560h-347v-560h347z" />
    <glyph glyph-name="NULL" 
 />
    <glyph glyph-name="NULL" 
 />
    <glyph glyph-name="nonmarkingreturn" unicode="&#xd;" horiz-adv-x="283" 
 />
    <glyph glyph-name="space" unicode=" " horiz-adv-x="283" 
 />
    <glyph glyph-name="A" unicode="A" horiz-adv-x="766" 
d="M544 150h-325l-62 -150h-166l312 700h160l313 -700h-170zM493 273l-111 268l-111 -268h222z" />
    <glyph glyph-name="Aacute" unicode="&#xc1;" horiz-adv-x="766" 
d="M544 150h-325l-62 -150h-166l312 700h160l313 -700h-170zM493 273l-111 268l-111 -268h222zM427 901h168l-181 -144h-122z" />
    <glyph glyph-name="Abreve" unicode="&#x102;" horiz-adv-x="766" 
d="M544 150h-325l-62 -150h-166l312 700h160l313 -700h-170zM493 273l-111 268l-111 -268h222zM253 790q-51 41 -54 111h98q1 -32 25.5 -51.5t60.5 -19.5t60.5 19.5t25.5 51.5h98q-3 -70 -54 -111t-130 -41t-130 41z" />
    <glyph glyph-name="uni1EAE" unicode="&#x1eae;" horiz-adv-x="766" 
d="M544 150h-325l-62 -150h-166l312 700h160l313 -700h-170zM493 273l-111 268l-111 -268h222zM254.5 782q-50.5 33 -55.5 89h94q3 -21 28 -34t62 -13t62 13t28 34h94q-5 -56 -55.5 -89t-128.5 -33t-128.5 33zM408 1022h159l-157 -121h-113z" />
    <glyph glyph-name="uni1EB6" unicode="&#x1eb6;" horiz-adv-x="766" 
d="M544 150h-325l-62 -150h-166l312 700h160l313 -700h-170zM493 273l-111 268l-111 -268h222zM333.5 -191.5q-19.5 18.5 -19.5 48.5t19.5 50t49.5 20q29 0 49 -20t20 -50t-19.5 -48.5t-49.5 -18.5t-49.5 18.5zM253 790q-51 41 -54 111h98q1 -32 25.5 -51.5t60.5 -19.5
t60.5 19.5t25.5 51.5h98q-3 -70 -54 -111t-130 -41t-130 41z" />
    <glyph glyph-name="uni1EB0" unicode="&#x1eb0;" horiz-adv-x="766" 
d="M544 150h-325l-62 -150h-166l312 700h160l313 -700h-170zM493 273l-111 268l-111 -268h222zM254.5 782q-50.5 33 -55.5 89h94q3 -21 28 -34t62 -13t62 13t28 34h94q-5 -56 -55.5 -89t-128.5 -33t-128.5 33zM200 1022h159l110 -121h-112z" />
    <glyph glyph-name="uni1EB2" unicode="&#x1eb2;" horiz-adv-x="766" 
d="M544 150h-325l-62 -150h-166l312 700h160l313 -700h-170zM493 273l-111 268l-111 -268h222zM254.5 782q-50.5 33 -55.5 89h94q3 -21 28 -34t62 -13t62 13t28 34h94q-5 -56 -55.5 -89t-128.5 -33t-128.5 33zM370 910q37 18 37 42q0 13 -9.5 21t-24.5 8q-21 0 -44 -12
l-26 48q34 22 83 22q42 0 67 -21.5t25 -57.5q0 -29 -19.5 -52t-50.5 -35z" />
    <glyph glyph-name="uni1EB4" unicode="&#x1eb4;" horiz-adv-x="766" 
d="M544 150h-325l-62 -150h-166l312 700h160l313 -700h-170zM493 273l-111 268l-111 -268h222zM254.5 782q-50.5 33 -55.5 89h94q3 -21 28 -34t62 -13t62 13t28 34h94q-5 -56 -55.5 -89t-128.5 -33t-128.5 33zM409 907.5q-21 8.5 -46 24.5q-12 7 -23.5 13t-20.5 6
q-20 0 -31 -12t-13 -34h-80q1 60 31.5 92.5t84.5 32.5q26 0 44.5 -8t46.5 -24q16 -10 26.5 -15t20.5 -5q20 0 31 12.5t13 32.5h78q-1 -58 -31 -91t-83 -33q-27 0 -48 8.5z" />
    <glyph glyph-name="uni01CD" unicode="&#x1cd;" horiz-adv-x="766" 
d="M544 150h-325l-62 -150h-166l312 700h160l313 -700h-170zM493 273l-111 268l-111 -268h222zM584 901l-132 -144h-138l-132 144h114l87 -75l87 75h114z" />
    <glyph glyph-name="Acircumflex" unicode="&#xc2;" horiz-adv-x="766" 
d="M544 150h-325l-62 -150h-166l312 700h160l313 -700h-170zM493 273l-111 268l-111 -268h222zM470 757l-87 76l-87 -76h-114l132 144h138l132 -144h-114z" />
    <glyph glyph-name="uni1EA4" unicode="&#x1ea4;" horiz-adv-x="766" 
d="M544 150h-325l-62 -150h-166l312 700h160l313 -700h-170zM493 273l-111 268l-111 -268h222zM469 757l-86 57l-86 -57h-115l133 114h136l133 -114h-115zM614 974h159l-157 -121h-113z" />
    <glyph glyph-name="uni1EAC" unicode="&#x1eac;" horiz-adv-x="766" 
d="M544 150h-325l-62 -150h-166l312 700h160l313 -700h-170zM493 273l-111 268l-111 -268h222zM333.5 -191.5q-19.5 18.5 -19.5 48.5t19.5 50t49.5 20q29 0 49 -20t20 -50t-19.5 -48.5t-49.5 -18.5t-49.5 18.5zM470 757l-87 76l-87 -76h-114l132 144h138l132 -144h-114z" />
    <glyph glyph-name="uni1EA6" unicode="&#x1ea6;" horiz-adv-x="766" 
d="M544 150h-325l-62 -150h-166l312 700h160l313 -700h-170zM493 273l-111 268l-111 -268h222zM469 757l-86 57l-86 -57h-115l133 114h136l133 -114h-115zM406 974h159l110 -121h-112z" />
    <glyph glyph-name="uni1EA8" unicode="&#x1ea8;" horiz-adv-x="766" 
d="M544 150h-325l-62 -150h-166l312 700h160l313 -700h-170zM493 273l-111 268l-111 -268h222zM469 757l-86 57l-86 -57h-115l133 114h136l133 -114h-115zM523 871q37 18 37 42q0 13 -9.5 21t-24.5 8q-21 0 -44 -12l-26 48q34 22 83 22q42 0 67 -21.5t25 -57.5
q0 -29 -19.5 -52t-50.5 -35z" />
    <glyph glyph-name="uni1EAA" unicode="&#x1eaa;" horiz-adv-x="766" 
d="M544 150h-325l-62 -150h-166l312 700h160l313 -700h-170zM493 273l-111 268l-111 -268h222zM469 757l-86 57l-86 -57h-115l133 114h136l133 -114h-115zM409 914.5q-21 8.5 -46 24.5q-12 7 -23.5 13t-20.5 6q-20 0 -31 -12t-13 -34h-80q1 60 31.5 92.5t84.5 32.5
q26 0 44.5 -8t46.5 -24q16 -10 26.5 -15t20.5 -5q20 0 31 12.5t13 32.5h78q-1 -58 -31 -91t-83 -33q-27 0 -48 8.5z" />
    <glyph glyph-name="uni0200" unicode="&#x200;" horiz-adv-x="766" 
d="M544 150h-325l-62 -150h-166l312 700h160l313 -700h-170zM493 273l-111 268l-111 -268h222zM121 901h146l72 -144h-114zM323 901h146l72 -144h-114z" />
    <glyph glyph-name="Adieresis" unicode="&#xc4;" horiz-adv-x="766" 
d="M544 150h-325l-62 -150h-166l312 700h160l313 -700h-170zM493 273l-111 268l-111 -268h222zM232 781.5q-20 19.5 -20 49.5t20 49.5t50 19.5t49.5 -19.5t19.5 -49.5t-19.5 -49.5t-49.5 -19.5t-50 19.5zM434.5 781.5q-19.5 19.5 -19.5 49.5t19.5 49.5t49.5 19.5t50 -19.5
t20 -49.5t-20 -49.5t-50 -19.5t-49.5 19.5z" />
    <glyph glyph-name="uni1EA0" unicode="&#x1ea0;" horiz-adv-x="766" 
d="M544 150h-325l-62 -150h-166l312 700h160l313 -700h-170zM493 273l-111 268l-111 -268h222zM333.5 -191.5q-19.5 18.5 -19.5 48.5t19.5 50t49.5 20q29 0 49 -20t20 -50t-19.5 -48.5t-49.5 -18.5t-49.5 18.5z" />
    <glyph glyph-name="Agrave" unicode="&#xc0;" horiz-adv-x="766" 
d="M544 150h-325l-62 -150h-166l312 700h160l313 -700h-170zM493 273l-111 268l-111 -268h222zM171 901h168l135 -144h-122z" />
    <glyph glyph-name="uni1EA2" unicode="&#x1ea2;" horiz-adv-x="766" 
d="M544 150h-325l-62 -150h-166l312 700h160l313 -700h-170zM493 273l-111 268l-111 -268h222zM364 799q28 13 39.5 28t11.5 33q0 19 -13 30.5t-34 11.5q-30 0 -59 -19l-32 63q43 34 108 34q53 0 86.5 -29.5t33.5 -77.5q0 -84 -92 -126z" />
    <glyph glyph-name="uni0202" unicode="&#x202;" horiz-adv-x="766" 
d="M544 150h-325l-62 -150h-166l312 700h160l313 -700h-170zM493 273l-111 268l-111 -268h222zM253 868q51 41 130 41t130 -41t54 -111h-98q-1 32 -25.5 51.5t-60.5 19.5t-60.5 -19.5t-25.5 -51.5h-98q3 70 54 111z" />
    <glyph glyph-name="Amacron" unicode="&#x100;" horiz-adv-x="766" 
d="M544 150h-325l-62 -150h-166l312 700h160l313 -700h-170zM493 273l-111 268l-111 -268h222zM198 873h370v-88h-370v88z" />
    <glyph glyph-name="Aogonek" unicode="&#x104;" horiz-adv-x="766" 
d="M544 150h-325l-62 -150h-166l312 700h160l313 -700h-170zM493 273l-111 268l-111 -268h222zM597 -201.5q-37 30.5 -37 81.5q0 49 38.5 91t115.5 70l62 -41q-63 -28 -90 -53.5t-27 -53.5q0 -21 15.5 -33.5t41.5 -12.5q34 0 61 15l22 -71q-19 -10 -46 -16.5t-55 -6.5
q-64 0 -101 30.5z" />
    <glyph glyph-name="Aring" unicode="&#xc5;" horiz-adv-x="766" 
d="M544 150h-325l-62 -150h-166l312 700h160l313 -700h-170zM493 273l-111 268l-111 -268h222zM294.5 789q-35.5 35 -35.5 86t35.5 86t87.5 35q53 0 89 -35t36 -86t-36 -86t-89 -35q-52 0 -87.5 35zM425.5 831.5q17.5 17.5 17.5 43.5t-17.5 43.5t-43.5 17.5
q-25 0 -42.5 -17.5t-17.5 -43.5t17 -43.5t43 -17.5t43.5 17.5z" />
    <glyph glyph-name="Aringacute" unicode="&#x1fa;" horiz-adv-x="766" 
d="M544 150h-325l-62 -150h-166l312 700h160l313 -700h-170zM493 273l-111 268l-111 -268h222zM490 938q17 -29 17 -63q0 -51 -36 -86t-89 -35q-52 0 -87.5 35t-35.5 86t35.5 86t87.5 35q25 0 52 -10l87 90l77 -60zM425.5 831.5q17.5 17.5 17.5 43.5t-17.5 43.5t-43.5 17.5
q-25 0 -42.5 -17.5t-17.5 -43.5t17 -43.5t43 -17.5t43.5 17.5z" />
    <glyph glyph-name="Atilde" unicode="&#xc3;" horiz-adv-x="766" 
d="M544 150h-325l-62 -150h-166l312 700h160l313 -700h-170zM493 273l-111 268l-111 -268h222zM410.5 764.5q-20.5 10.5 -45.5 28.5q-16 12 -26.5 18t-20.5 6q-21 0 -34 -14.5t-14 -41.5h-79q2 67 33.5 106.5t83.5 39.5q26 0 46.5 -10.5t46.5 -29.5q16 -12 26.5 -18t20.5 -6
q20 0 33.5 14.5t14.5 39.5h79q-2 -65 -33.5 -104t-83.5 -39q-27 0 -47.5 10.5z" />
    <glyph glyph-name="AE" unicode="&#xc6;" horiz-adv-x="1080" 
d="M1034 130v-130h-542v150h-253l-82 -150h-166l395 700h635v-130h-368v-152h326v-126h-326v-162h381zM492 273v297h-23l-163 -297h186z" />
    <glyph glyph-name="AEacute" unicode="&#x1fc;" horiz-adv-x="1080" 
d="M1034 130v-130h-542v150h-253l-82 -150h-166l395 700h635v-130h-368v-152h326v-126h-326v-162h381zM492 273v297h-23l-163 -297h186zM616 901h168l-181 -144h-122z" />
    <glyph glyph-name="B" unicode="B" horiz-adv-x="765" 
d="M691 300.5q34 -44.5 34 -109.5q0 -92 -71.5 -141.5t-208.5 -49.5h-362v700h342q128 0 196.5 -49t68.5 -133q0 -51 -24.5 -91t-68.5 -63q60 -19 94 -63.5zM244 578v-165h161q60 0 91 21t31 62t-31 61.5t-91 20.5h-161zM529.5 143q32.5 21 32.5 65q0 87 -129 87h-189v-173
h189q64 0 96.5 21z" />
    <glyph glyph-name="C" unicode="C" horiz-adv-x="733" 
d="M224.5 34.5q-86.5 46.5 -136 129t-49.5 186.5t49.5 186.5t136 129t194.5 46.5q91 0 164.5 -32t123.5 -92l-104 -96q-71 82 -176 82q-65 0 -116 -28.5t-79.5 -79.5t-28.5 -116t28.5 -116t79.5 -79.5t116 -28.5q105 0 176 83l104 -96q-50 -61 -124 -93t-165 -32
q-107 0 -193.5 46.5z" />
    <glyph glyph-name="Cacute" unicode="&#x106;" horiz-adv-x="733" 
d="M224.5 34.5q-86.5 46.5 -136 129t-49.5 186.5t49.5 186.5t136 129t194.5 46.5q91 0 164.5 -32t123.5 -92l-104 -96q-71 82 -176 82q-65 0 -116 -28.5t-79.5 -79.5t-28.5 -116t28.5 -116t79.5 -79.5t116 -28.5q105 0 176 83l104 -96q-50 -61 -124 -93t-165 -32
q-107 0 -193.5 46.5zM458 901h168l-181 -144h-122z" />
    <glyph glyph-name="Ccaron" unicode="&#x10c;" horiz-adv-x="733" 
d="M224.5 34.5q-86.5 46.5 -136 129t-49.5 186.5t49.5 186.5t136 129t194.5 46.5q91 0 164.5 -32t123.5 -92l-104 -96q-71 82 -176 82q-65 0 -116 -28.5t-79.5 -79.5t-28.5 -116t28.5 -116t79.5 -79.5t116 -28.5q105 0 176 83l104 -96q-50 -61 -124 -93t-165 -32
q-107 0 -193.5 46.5zM615 901l-132 -144h-138l-132 144h114l87 -75l87 75h114z" />
    <glyph glyph-name="Ccedilla" unicode="&#xc7;" horiz-adv-x="733" 
d="M224.5 34.5q-86.5 46.5 -136 129t-49.5 186.5t49.5 186.5t136 129t194.5 46.5q91 0 164.5 -32t123.5 -92l-104 -96q-71 82 -176 82q-65 0 -116 -28.5t-79.5 -79.5t-28.5 -116t28.5 -116t79.5 -79.5t116 -28.5q105 0 176 83l104 -96q-50 -61 -124 -93t-165 -32
q-107 0 -193.5 46.5zM313 -226.5q-25 5.5 -42 15.5l24 67q32 -15 65 -15q52 0 52 32q0 29 -49 29h-34l26 106h83l-14 -58q44 -5 65.5 -27.5t21.5 -55.5q0 -46 -40 -72.5t-107 -26.5q-26 0 -51 5.5z" />
    <glyph glyph-name="uni1E08" unicode="&#x1e08;" horiz-adv-x="733" 
d="M224.5 34.5q-86.5 46.5 -136 129t-49.5 186.5t49.5 186.5t136 129t194.5 46.5q91 0 164.5 -32t123.5 -92l-104 -96q-71 82 -176 82q-65 0 -116 -28.5t-79.5 -79.5t-28.5 -116t28.5 -116t79.5 -79.5t116 -28.5q105 0 176 83l104 -96q-50 -61 -124 -93t-165 -32
q-107 0 -193.5 46.5zM313 -226.5q-25 5.5 -42 15.5l24 67q32 -15 65 -15q52 0 52 32q0 29 -49 29h-34l26 106h83l-14 -58q44 -5 65.5 -27.5t21.5 -55.5q0 -46 -40 -72.5t-107 -26.5q-26 0 -51 5.5zM458 901h168l-181 -144h-122z" />
    <glyph glyph-name="Ccircumflex" unicode="&#x108;" horiz-adv-x="733" 
d="M224.5 34.5q-86.5 46.5 -136 129t-49.5 186.5t49.5 186.5t136 129t194.5 46.5q91 0 164.5 -32t123.5 -92l-104 -96q-71 82 -176 82q-65 0 -116 -28.5t-79.5 -79.5t-28.5 -116t28.5 -116t79.5 -79.5t116 -28.5q105 0 176 83l104 -96q-50 -61 -124 -93t-165 -32
q-107 0 -193.5 46.5zM501 757l-87 76l-87 -76h-114l132 144h138l132 -144h-114z" />
    <glyph glyph-name="Cdotaccent" unicode="&#x10a;" horiz-adv-x="733" 
d="M224.5 34.5q-86.5 46.5 -136 129t-49.5 186.5t49.5 186.5t136 129t194.5 46.5q91 0 164.5 -32t123.5 -92l-104 -96q-71 82 -176 82q-65 0 -116 -28.5t-79.5 -79.5t-28.5 -116t28.5 -116t79.5 -79.5t116 -28.5q105 0 176 83l104 -96q-50 -61 -124 -93t-165 -32
q-107 0 -193.5 46.5zM353.5 786q-23.5 24 -23.5 61q0 36 23.5 60t60.5 24t60.5 -24t23.5 -60q0 -37 -23.5 -61t-60.5 -24t-60.5 24z" />
    <glyph glyph-name="D" unicode="D" horiz-adv-x="826" 
d="M83 700h318q114 0 201.5 -43.5t136 -122.5t48.5 -184t-48.5 -184t-136 -122.5t-201.5 -43.5h-318v700zM393 133q105 0 167.5 58.5t62.5 158.5t-62.5 158.5t-167.5 58.5h-148v-434h148z" />
    <glyph glyph-name="uni01C4" unicode="&#x1c4;" horiz-adv-x="1449" 
d="M83 700h318q114 0 201.5 -43.5t136 -122.5t48.5 -184t-48.5 -184t-136 -122.5t-201.5 -43.5h-318v700zM393 133q105 0 167.5 58.5t62.5 158.5t-62.5 158.5t-167.5 58.5h-148v-434h148zM1427 132v-132h-612v105l384 463h-376v132h589v-105l-383 -463h398zM1322 901
l-132 -144h-138l-132 144h114l87 -75l87 75h114z" />
    <glyph glyph-name="Eth" unicode="&#xd0;" horiz-adv-x="839" 
d="M96 700h318q114 0 201.5 -43.5t136 -122.5t48.5 -184t-48.5 -184t-136 -122.5t-201.5 -43.5h-318v700zM406 133q105 0 167.5 58.5t62.5 158.5t-62.5 158.5t-167.5 58.5h-148v-434h148zM1 410h432v-108h-432v108z" />
    <glyph glyph-name="Dcaron" unicode="&#x10e;" horiz-adv-x="826" 
d="M83 700h318q114 0 201.5 -43.5t136 -122.5t48.5 -184t-48.5 -184t-136 -122.5t-201.5 -43.5h-318v700zM393 133q105 0 167.5 58.5t62.5 158.5t-62.5 158.5t-167.5 58.5h-148v-434h148zM571 900l-132 -144h-138l-132 144h114l87 -75l87 75h114z" />
    <glyph glyph-name="Dcroat" unicode="&#x110;" horiz-adv-x="839" 
d="M96 700h318q114 0 201.5 -43.5t136 -122.5t48.5 -184t-48.5 -184t-136 -122.5t-201.5 -43.5h-318v700zM406 133q105 0 167.5 58.5t62.5 158.5t-62.5 158.5t-167.5 58.5h-148v-434h148zM1 410h432v-108h-432v108z" />
    <glyph glyph-name="uni1E0C" unicode="&#x1e0c;" horiz-adv-x="826" 
d="M83 700h318q114 0 201.5 -43.5t136 -122.5t48.5 -184t-48.5 -184t-136 -122.5t-201.5 -43.5h-318v700zM393 133q105 0 167.5 58.5t62.5 158.5t-62.5 158.5t-167.5 58.5h-148v-434h148zM323.5 -191.5q-19.5 18.5 -19.5 48.5t19.5 50t49.5 20q29 0 49 -20t20 -50
t-19.5 -48.5t-49.5 -18.5t-49.5 18.5z" />
    <glyph glyph-name="uni1E0E" unicode="&#x1e0e;" horiz-adv-x="826" 
d="M83 700h318q114 0 201.5 -43.5t136 -122.5t48.5 -184t-48.5 -184t-136 -122.5t-201.5 -43.5h-318v700zM393 133q105 0 167.5 58.5t62.5 158.5t-62.5 158.5t-167.5 58.5h-148v-434h148zM188 -95h370v-87h-370v87z" />
    <glyph glyph-name="uni01C5" unicode="&#x1c5;" horiz-adv-x="1369" 
d="M83 700h318q114 0 201.5 -43.5t136 -122.5t48.5 -184t-48.5 -184t-136 -122.5t-201.5 -43.5h-318v700zM393 133q105 0 167.5 58.5t62.5 158.5t-62.5 158.5t-167.5 58.5h-148v-434h148zM1341 120v-120h-480v94l274 324h-267v120h464v-94l-274 -324h283zM1302 751
l-132 -144h-138l-132 144h114l87 -75l87 75h114z" />
    <glyph glyph-name="E" unicode="E" horiz-adv-x="671" 
d="M625 130v-130h-542v700h529v-130h-368v-152h325v-126h-325v-162h381z" />
    <glyph glyph-name="Eacute" unicode="&#xc9;" horiz-adv-x="671" 
d="M625 130v-130h-542v700h529v-130h-368v-152h325v-126h-325v-162h381zM392 901h168l-181 -144h-122z" />
    <glyph glyph-name="Ebreve" unicode="&#x114;" horiz-adv-x="671" 
d="M625 130v-130h-542v700h529v-130h-368v-152h325v-126h-325v-162h381zM218 790q-51 41 -54 111h98q1 -32 25.5 -51.5t60.5 -19.5t60.5 19.5t25.5 51.5h98q-3 -70 -54 -111t-130 -41t-130 41z" />
    <glyph glyph-name="Ecaron" unicode="&#x11a;" horiz-adv-x="671" 
d="M625 130v-130h-542v700h529v-130h-368v-152h325v-126h-325v-162h381zM549 901l-132 -144h-138l-132 144h114l87 -75l87 75h114z" />
    <glyph glyph-name="uni1E1C" unicode="&#x1e1c;" horiz-adv-x="671" 
d="M625 130v-130h-542v700h529v-130h-368v-152h325v-126h-325v-162h381zM269 -226.5q-25 5.5 -42 15.5l24 67q32 -15 65 -15q52 0 52 32q0 29 -49 29h-34l26 106h83l-14 -58q44 -5 65.5 -27.5t21.5 -55.5q0 -46 -40 -72.5t-107 -26.5q-26 0 -51 5.5zM218 790q-51 41 -54 111
h98q1 -32 25.5 -51.5t60.5 -19.5t60.5 19.5t25.5 51.5h98q-3 -70 -54 -111t-130 -41t-130 41z" />
    <glyph glyph-name="Ecircumflex" unicode="&#xca;" horiz-adv-x="671" 
d="M625 130v-130h-542v700h529v-130h-368v-152h325v-126h-325v-162h381zM435 757l-87 76l-87 -76h-114l132 144h138l132 -144h-114z" />
    <glyph glyph-name="uni1EBE" unicode="&#x1ebe;" horiz-adv-x="671" 
d="M625 130v-130h-542v700h529v-130h-368v-152h325v-126h-325v-162h381zM434 757l-86 57l-86 -57h-115l133 114h136l133 -114h-115zM579 974h159l-157 -121h-113z" />
    <glyph glyph-name="uni1EC6" unicode="&#x1ec6;" horiz-adv-x="671" 
d="M625 130v-130h-542v700h529v-130h-368v-152h325v-126h-325v-162h381zM303.5 -191.5q-19.5 18.5 -19.5 48.5t19.5 50t49.5 20q29 0 49 -20t20 -50t-19.5 -48.5t-49.5 -18.5t-49.5 18.5zM435 757l-87 76l-87 -76h-114l132 144h138l132 -144h-114z" />
    <glyph glyph-name="uni1EC0" unicode="&#x1ec0;" horiz-adv-x="671" 
d="M625 130v-130h-542v700h529v-130h-368v-152h325v-126h-325v-162h381zM434 757l-86 57l-86 -57h-115l133 114h136l133 -114h-115zM371 974h159l110 -121h-112z" />
    <glyph glyph-name="uni1EC2" unicode="&#x1ec2;" horiz-adv-x="671" 
d="M625 130v-130h-542v700h529v-130h-368v-152h325v-126h-325v-162h381zM434 757l-86 57l-86 -57h-115l133 114h136l133 -114h-115zM488 871q37 18 37 42q0 13 -9.5 21t-24.5 8q-21 0 -44 -12l-26 48q34 22 83 22q42 0 67 -21.5t25 -57.5q0 -29 -19.5 -52t-50.5 -35z" />
    <glyph glyph-name="uni1EC4" unicode="&#x1ec4;" horiz-adv-x="671" 
d="M625 130v-130h-542v700h529v-130h-368v-152h325v-126h-325v-162h381zM434 757l-86 57l-86 -57h-115l133 114h136l133 -114h-115zM374 914.5q-21 8.5 -46 24.5q-12 7 -23.5 13t-20.5 6q-20 0 -31 -12t-13 -34h-80q1 60 31.5 92.5t84.5 32.5q26 0 44.5 -8t46.5 -24
q16 -10 26.5 -15t20.5 -5q20 0 31 12.5t13 32.5h78q-1 -58 -31 -91t-83 -33q-27 0 -48 8.5z" />
    <glyph glyph-name="uni0204" unicode="&#x204;" horiz-adv-x="671" 
d="M625 130v-130h-542v700h529v-130h-368v-152h325v-126h-325v-162h381zM86 901h146l72 -144h-114zM288 901h146l72 -144h-114z" />
    <glyph glyph-name="Edieresis" unicode="&#xcb;" horiz-adv-x="671" 
d="M625 130v-130h-542v700h529v-130h-368v-152h325v-126h-325v-162h381zM197 781.5q-20 19.5 -20 49.5t20 49.5t50 19.5t49.5 -19.5t19.5 -49.5t-19.5 -49.5t-49.5 -19.5t-50 19.5zM399.5 781.5q-19.5 19.5 -19.5 49.5t19.5 49.5t49.5 19.5t50 -19.5t20 -49.5t-20 -49.5
t-50 -19.5t-49.5 19.5z" />
    <glyph glyph-name="Edotaccent" unicode="&#x116;" horiz-adv-x="671" 
d="M625 130v-130h-542v700h529v-130h-368v-152h325v-126h-325v-162h381zM287.5 786q-23.5 24 -23.5 61q0 36 23.5 60t60.5 24t60.5 -24t23.5 -60q0 -37 -23.5 -61t-60.5 -24t-60.5 24z" />
    <glyph glyph-name="uni1EB8" unicode="&#x1eb8;" horiz-adv-x="671" 
d="M625 130v-130h-542v700h529v-130h-368v-152h325v-126h-325v-162h381zM303.5 -191.5q-19.5 18.5 -19.5 48.5t19.5 50t49.5 20q29 0 49 -20t20 -50t-19.5 -48.5t-49.5 -18.5t-49.5 18.5z" />
    <glyph glyph-name="Egrave" unicode="&#xc8;" horiz-adv-x="671" 
d="M625 130v-130h-542v700h529v-130h-368v-152h325v-126h-325v-162h381zM136 901h168l135 -144h-122z" />
    <glyph glyph-name="uni1EBA" unicode="&#x1eba;" horiz-adv-x="671" 
d="M625 130v-130h-542v700h529v-130h-368v-152h325v-126h-325v-162h381zM329 799q28 13 39.5 28t11.5 33q0 19 -13 30.5t-34 11.5q-30 0 -59 -19l-32 63q43 34 108 34q53 0 86.5 -29.5t33.5 -77.5q0 -84 -92 -126z" />
    <glyph glyph-name="uni0206" unicode="&#x206;" horiz-adv-x="671" 
d="M625 130v-130h-542v700h529v-130h-368v-152h325v-126h-325v-162h381zM218 868q51 41 130 41t130 -41t54 -111h-98q-1 32 -25.5 51.5t-60.5 19.5t-60.5 -19.5t-25.5 -51.5h-98q3 70 54 111z" />
    <glyph glyph-name="Emacron" unicode="&#x112;" horiz-adv-x="671" 
d="M625 130v-130h-542v700h529v-130h-368v-152h325v-126h-325v-162h381zM163 873h370v-88h-370v88z" />
    <glyph glyph-name="uni1E16" unicode="&#x1e16;" horiz-adv-x="671" 
d="M625 130v-130h-542v700h529v-130h-368v-152h325v-126h-325v-162h381zM163 856h370v-83h-370v83zM373 1039h159l-157 -121h-113z" />
    <glyph glyph-name="uni1E14" unicode="&#x1e14;" horiz-adv-x="671" 
d="M625 130v-130h-542v700h529v-130h-368v-152h325v-126h-325v-162h381zM163 856h370v-83h-370v83zM165 1039h159l110 -121h-112z" />
    <glyph glyph-name="Eogonek" unicode="&#x118;" horiz-adv-x="671" 
d="M625 130v-130h-542v700h529v-130h-368v-152h325v-126h-325v-162h381zM446 -201.5q-37 30.5 -37 81.5q0 49 38.5 91t115.5 70l62 -41q-63 -28 -90 -53.5t-27 -53.5q0 -21 15.5 -33.5t41.5 -12.5q34 0 61 15l22 -71q-19 -10 -46 -16.5t-55 -6.5q-64 0 -101 30.5z" />
    <glyph glyph-name="uni1EBC" unicode="&#x1ebc;" horiz-adv-x="671" 
d="M625 130v-130h-542v700h529v-130h-368v-152h325v-126h-325v-162h381zM375.5 764.5q-20.5 10.5 -45.5 28.5q-16 12 -26.5 18t-20.5 6q-21 0 -34 -14.5t-14 -41.5h-79q2 67 33.5 106.5t83.5 39.5q26 0 46.5 -10.5t46.5 -29.5q16 -12 26.5 -18t20.5 -6q20 0 33.5 14.5
t14.5 39.5h79q-2 -65 -33.5 -104t-83.5 -39q-27 0 -47.5 10.5z" />
    <glyph glyph-name="uni01B7" unicode="&#x1b7;" horiz-adv-x="638" 
d="M548 348q53 -53 53 -133q0 -62 -33 -113.5t-101 -82.5t-168 -31q-78 0 -152 19.5t-122 54.5l55 125q42 -31 98.5 -48t115.5 -17q67 0 105 24.5t38 67.5q0 42 -35 65t-107 23h-75v105l156 164h-322v129h511v-105l-170 -179q100 -15 153 -68z" />
    <glyph glyph-name="uni01EE" unicode="&#x1ee;" horiz-adv-x="638" 
d="M548 348q53 -53 53 -133q0 -62 -33 -113.5t-101 -82.5t-168 -31q-78 0 -152 19.5t-122 54.5l55 125q42 -31 98.5 -48t115.5 -17q67 0 105 24.5t38 67.5q0 42 -35 65t-107 23h-75v105l156 164h-322v129h511v-105l-170 -179q100 -15 153 -68zM511 901l-132 -144h-138
l-132 144h114l87 -75l87 75h114z" />
    <glyph glyph-name="F" unicode="F" horiz-adv-x="639" 
d="M245 570v-185h324v-130h-324v-255h-162v700h529v-130h-367z" />
    <glyph glyph-name="G" unicode="G" horiz-adv-x="771" 
d="M556 361h148v-284q-57 -43 -132 -66t-151 -23q-109 0 -196 46.5t-136.5 129t-49.5 186.5t49.5 186.5t137.5 129t198 46.5q92 0 167 -31t126 -90l-104 -96q-75 79 -181 79q-67 0 -119 -28t-81 -79t-29 -117q0 -65 29 -116t80.5 -79.5t117.5 -28.5q70 0 126 30v205z" />
    <glyph glyph-name="Gbreve" unicode="&#x11e;" horiz-adv-x="771" 
d="M556 361h148v-284q-57 -43 -132 -66t-151 -23q-109 0 -196 46.5t-136.5 129t-49.5 186.5t49.5 186.5t137.5 129t198 46.5q92 0 167 -31t126 -90l-104 -96q-75 79 -181 79q-67 0 -119 -28t-81 -79t-29 -117q0 -65 29 -116t80.5 -79.5t117.5 -28.5q70 0 126 30v205z
M287 790q-51 41 -54 111h98q1 -32 25.5 -51.5t60.5 -19.5t60.5 19.5t25.5 51.5h98q-3 -70 -54 -111t-130 -41t-130 41z" />
    <glyph glyph-name="Gcaron" unicode="&#x1e6;" horiz-adv-x="771" 
d="M556 361h148v-284q-57 -43 -132 -66t-151 -23q-109 0 -196 46.5t-136.5 129t-49.5 186.5t49.5 186.5t137.5 129t198 46.5q92 0 167 -31t126 -90l-104 -96q-75 79 -181 79q-67 0 -119 -28t-81 -79t-29 -117q0 -65 29 -116t80.5 -79.5t117.5 -28.5q70 0 126 30v205z
M618 901l-132 -144h-138l-132 144h114l87 -75l87 75h114z" />
    <glyph glyph-name="Gcircumflex" unicode="&#x11c;" horiz-adv-x="771" 
d="M556 361h148v-284q-57 -43 -132 -66t-151 -23q-109 0 -196 46.5t-136.5 129t-49.5 186.5t49.5 186.5t137.5 129t198 46.5q92 0 167 -31t126 -90l-104 -96q-75 79 -181 79q-67 0 -119 -28t-81 -79t-29 -117q0 -65 29 -116t80.5 -79.5t117.5 -28.5q70 0 126 30v205z
M504 757l-87 76l-87 -76h-114l132 144h138l132 -144h-114z" />
    <glyph glyph-name="Gcommaaccent" unicode="&#x122;" horiz-adv-x="771" 
d="M556 361h148v-284q-57 -43 -132 -66t-151 -23q-109 0 -196 46.5t-136.5 129t-49.5 186.5t49.5 186.5t137.5 129t198 46.5q92 0 167 -31t126 -90l-104 -96q-75 79 -181 79q-67 0 -119 -28t-81 -79t-29 -117q0 -65 29 -116t80.5 -79.5t117.5 -28.5q70 0 126 30v205z
M457.5 -89.5q18.5 -16.5 18.5 -43.5q0 -31 -18 -65l-35 -68h-73l25 80q-18 6 -27.5 19.5t-9.5 33.5q0 27 18.5 43.5t50.5 16.5t50.5 -16.5z" />
    <glyph glyph-name="Gdotaccent" unicode="&#x120;" horiz-adv-x="771" 
d="M556 361h148v-284q-57 -43 -132 -66t-151 -23q-109 0 -196 46.5t-136.5 129t-49.5 186.5t49.5 186.5t137.5 129t198 46.5q92 0 167 -31t126 -90l-104 -96q-75 79 -181 79q-67 0 -119 -28t-81 -79t-29 -117q0 -65 29 -116t80.5 -79.5t117.5 -28.5q70 0 126 30v205z
M356.5 786q-23.5 24 -23.5 61q0 36 23.5 60t60.5 24t60.5 -24t23.5 -60q0 -37 -23.5 -61t-60.5 -24t-60.5 24z" />
    <glyph glyph-name="uni1E20" unicode="&#x1e20;" horiz-adv-x="771" 
d="M556 361h148v-284q-57 -43 -132 -66t-151 -23q-109 0 -196 46.5t-136.5 129t-49.5 186.5t49.5 186.5t137.5 129t198 46.5q92 0 167 -31t126 -90l-104 -96q-75 79 -181 79q-67 0 -119 -28t-81 -79t-29 -117q0 -65 29 -116t80.5 -79.5t117.5 -28.5q70 0 126 30v205z
M232 873h370v-88h-370v88z" />
    <glyph glyph-name="uni01E4" unicode="&#x1e4;" horiz-adv-x="811" 
d="M556 361h148v-284q-57 -43 -132 -66t-151 -23q-109 0 -196 46.5t-136.5 129t-49.5 186.5t49.5 186.5t137.5 129t198 46.5q92 0 167 -31t126 -90l-104 -96q-75 79 -181 79q-67 0 -119 -28t-81 -79t-29 -117q0 -65 29 -116t80.5 -79.5t117.5 -28.5q70 0 126 30v205z
M393.123 304.747h398.408v-107.144h-398.408v107.144z" />
    <glyph glyph-name="H" unicode="H" horiz-adv-x="808" 
d="M725 700v-700h-162v287h-318v-287h-162v700h162v-276h318v276h162z" />
    <glyph glyph-name="Hbar" unicode="&#x126;" horiz-adv-x="834" 
d="M738 700v-700h-162v287h-318v-287h-162v700h162v-276h318v276h162zM1 618h832v-108h-832v108z" />
    <glyph glyph-name="uni1E2A" unicode="&#x1e2a;" horiz-adv-x="808" 
d="M725 700v-700h-162v287h-318v-287h-162v700h162v-276h318v276h162zM275 -177.5q-51 39.5 -55 103.5h93q1 -30 26.5 -48.5t64.5 -18.5t64.5 18.5t26.5 48.5h93q-4 -64 -55 -103.5t-129 -39.5t-129 39.5z" />
    <glyph glyph-name="uni021E" unicode="&#x21e;" horiz-adv-x="808" 
d="M725 700v-700h-162v287h-318v-287h-162v700h162v-276h318v276h162zM605 901l-132 -144h-138l-132 144h114l87 -75l87 75h114z" />
    <glyph glyph-name="Hcircumflex" unicode="&#x124;" horiz-adv-x="808" 
d="M725 700v-700h-162v287h-318v-287h-162v700h162v-276h318v276h162zM491 757l-87 76l-87 -76h-114l132 144h138l132 -144h-114z" />
    <glyph glyph-name="uni1E24" unicode="&#x1e24;" horiz-adv-x="808" 
d="M725 700v-700h-162v287h-318v-287h-162v700h162v-276h318v276h162zM354.5 -191.5q-19.5 18.5 -19.5 48.5t19.5 50t49.5 20q29 0 49 -20t20 -50t-19.5 -48.5t-49.5 -18.5t-49.5 18.5z" />
    <glyph glyph-name="I" unicode="I" horiz-adv-x="328" 
d="M83 700h162v-700h-162v700z" />
    <glyph glyph-name="IJ" unicode="&#x132;" horiz-adv-x="724" 
d="M181.5 8.5q-68.5 20.5 -120.5 56.5l61 122q46 -31 98.5 -47t103.5 -16q161 0 161 183v393h162v-385q0 -105 -39.5 -178.5t-111.5 -111t-169 -37.5q-77 0 -145.5 20.5zM77 700h162v-378h-162v378z" />
    <glyph glyph-name="Iacute" unicode="&#xcd;" horiz-adv-x="328" 
d="M83 700h162v-700h-162v700zM208 901h168l-181 -144h-122z" />
    <glyph glyph-name="Ibreve" unicode="&#x12c;" horiz-adv-x="328" 
d="M83 700h162v-700h-162v700zM34 790q-51 41 -54 111h98q1 -32 25.5 -51.5t60.5 -19.5t60.5 19.5t25.5 51.5h98q-3 -70 -54 -111t-130 -41t-130 41z" />
    <glyph glyph-name="Icircumflex" unicode="&#xce;" horiz-adv-x="328" 
d="M83 700h162v-700h-162v700zM251 757l-87 76l-87 -76h-114l132 144h138l132 -144h-114z" />
    <glyph glyph-name="uni0208" unicode="&#x208;" horiz-adv-x="328" 
d="M83 700h162v-700h-162v700zM-98 901h146l72 -144h-114zM104 901h146l72 -144h-114z" />
    <glyph glyph-name="Idieresis" unicode="&#xcf;" horiz-adv-x="328" 
d="M83 700h162v-700h-162v700zM13 781.5q-20 19.5 -20 49.5t20 49.5t50 19.5t49.5 -19.5t19.5 -49.5t-19.5 -49.5t-49.5 -19.5t-50 19.5zM215.5 781.5q-19.5 19.5 -19.5 49.5t19.5 49.5t49.5 19.5t50 -19.5t20 -49.5t-20 -49.5t-50 -19.5t-49.5 19.5z" />
    <glyph glyph-name="uni1E2E" unicode="&#x1e2e;" horiz-adv-x="328" 
d="M83 700h162v-700h-162v700zM19 780.5q-19 18.5 -19 47.5q0 28 19 47t47 19q29 0 48 -19t19 -47q0 -29 -19 -47.5t-48 -18.5q-28 0 -47 18.5zM215 780.5q-19 18.5 -19 47.5q0 28 19.5 47t46.5 19q28 0 47 -19t19 -47q0 -29 -19 -47.5t-47 -18.5t-47 18.5zM189 1039h159
l-157 -121h-113z" />
    <glyph glyph-name="Idotaccent" unicode="&#x130;" horiz-adv-x="328" 
d="M83 700h162v-700h-162v700zM103.5 786q-23.5 24 -23.5 61q0 36 23.5 60t60.5 24t60.5 -24t23.5 -60q0 -37 -23.5 -61t-60.5 -24t-60.5 24z" />
    <glyph glyph-name="uni1ECA" unicode="&#x1eca;" horiz-adv-x="328" 
d="M83 700h162v-700h-162v700zM114.5 -191.5q-19.5 18.5 -19.5 48.5t19.5 50t49.5 20q29 0 49 -20t20 -50t-19.5 -48.5t-49.5 -18.5t-49.5 18.5z" />
    <glyph glyph-name="Igrave" unicode="&#xcc;" horiz-adv-x="328" 
d="M83 700h162v-700h-162v700zM-48 901h168l135 -144h-122z" />
    <glyph glyph-name="uni1EC8" unicode="&#x1ec8;" horiz-adv-x="328" 
d="M83 700h162v-700h-162v700zM145 799q28 13 39.5 28t11.5 33q0 19 -13 30.5t-34 11.5q-30 0 -59 -19l-32 63q43 34 108 34q53 0 86.5 -29.5t33.5 -77.5q0 -84 -92 -126z" />
    <glyph glyph-name="uni020A" unicode="&#x20a;" horiz-adv-x="328" 
d="M83 700h162v-700h-162v700zM34 868q51 41 130 41t130 -41t54 -111h-98q-1 32 -25.5 51.5t-60.5 19.5t-60.5 -19.5t-25.5 -51.5h-98q3 70 54 111z" />
    <glyph glyph-name="Imacron" unicode="&#x12a;" horiz-adv-x="328" 
d="M83 700h162v-700h-162v700zM14 873h300v-88h-300v88z" />
    <glyph glyph-name="Iogonek" unicode="&#x12e;" horiz-adv-x="328" 
d="M83 700h162v-700h-162v700zM115 -201.5q-33 30.5 -33 80.5q0 47 29 88.5t86 73.5l48 -41q-36 -29 -50.5 -54.5t-14.5 -51.5q0 -21 12 -34t30 -13t32 10l22 -68q-29 -21 -74 -21q-54 0 -87 30.5z" />
    <glyph glyph-name="Itilde" unicode="&#x128;" horiz-adv-x="328" 
d="M83 700h162v-700h-162v700zM191.5 764.5q-20.5 10.5 -45.5 28.5q-16 12 -26.5 18t-20.5 6q-21 0 -34 -14.5t-14 -41.5h-79q2 67 33.5 106.5t83.5 39.5q26 0 46.5 -10.5t46.5 -29.5q16 -12 26.5 -18t20.5 -6q20 0 33.5 14.5t14.5 39.5h79q-2 -65 -33.5 -104t-83.5 -39
q-27 0 -47.5 10.5z" />
    <glyph glyph-name="J" unicode="J" horiz-adv-x="541" 
d="M81.5 14.5q-59.5 26.5 -97.5 75.5l90 108q57 -77 130 -77q99 0 99 116v333h-246v130h407v-454q0 -129 -64 -193.5t-188 -64.5q-71 0 -130.5 26.5z" />
    <glyph glyph-name="Jcircumflex" unicode="&#x134;" horiz-adv-x="541" 
d="M81.5 14.5q-59.5 26.5 -97.5 75.5l90 108q57 -77 130 -77q99 0 99 116v333h-246v130h407v-454q0 -129 -64 -193.5t-188 -64.5q-71 0 -130.5 26.5zM348 757l-87 76l-87 -76h-114l132 144h138l132 -144h-114z" />
    <glyph glyph-name="K" unicode="K" horiz-adv-x="740" 
d="M338 275l-94 -98v-177h-161v700h161v-327l310 327h180l-290 -312l307 -388h-189z" />
    <glyph glyph-name="uni01E8" unicode="&#x1e8;" horiz-adv-x="740" 
d="M338 275l-94 -98v-177h-161v700h161v-327l310 327h180l-290 -312l307 -388h-189zM580 901l-132 -144h-138l-132 144h114l87 -75l87 75h114z" />
    <glyph glyph-name="Kcommaaccent" unicode="&#x136;" horiz-adv-x="740" 
d="M338 275l-94 -98v-177h-161v700h161v-327l310 327h180l-290 -312l307 -388h-189zM429.5 -89.5q18.5 -16.5 18.5 -43.5q0 -31 -18 -65l-35 -68h-73l25 80q-18 6 -27.5 19.5t-9.5 33.5q0 27 18.5 43.5t50.5 16.5t50.5 -16.5z" />
    <glyph glyph-name="L" unicode="L" horiz-adv-x="604" 
d="M83 700h162v-568h351v-132h-513v700z" />
    <glyph glyph-name="uni01C7" unicode="&#x1c7;" horiz-adv-x="1145" 
d="M83 700h162v-568h351v-132h-513v700zM685.5 14.5q-59.5 26.5 -97.5 75.5l90 108q57 -77 130 -77q99 0 99 116v333h-246v130h407v-454q0 -129 -64 -193.5t-188 -64.5q-71 0 -130.5 26.5z" />
    <glyph glyph-name="Lacute" unicode="&#x139;" horiz-adv-x="604" 
d="M83 700h162v-568h351v-132h-513v700zM208 901h168l-181 -144h-122z" />
    <glyph glyph-name="Lcaron" unicode="&#x13d;" horiz-adv-x="604" 
d="M83 700h162v-568h351v-132h-513v700zM431 741h117l-20 -201h-97v201z" />
    <glyph glyph-name="Lcommaaccent" unicode="&#x13b;" horiz-adv-x="604" 
d="M83 700h162v-568h351v-132h-513v700zM401.5 -89.5q18.5 -16.5 18.5 -43.5q0 -31 -18 -65l-35 -68h-73l25 80q-18 6 -27.5 19.5t-9.5 33.5q0 27 18.5 43.5t50.5 16.5t50.5 -16.5z" />
    <glyph glyph-name="Ldot" unicode="&#x13f;" horiz-adv-x="604" 
d="M83 700h162v-568h351v-132h-513v700zM406 353.5q-24 24.5 -24 62.5t24 62.5t61 24.5t61 -24.5t24 -62.5t-24 -62.5t-61 -24.5t-61 24.5z" />
    <glyph glyph-name="uni1E36" unicode="&#x1e36;" horiz-adv-x="604" 
d="M83 700h162v-568h351v-132h-513v700zM301.5 -191.5q-19.5 18.5 -19.5 48.5t19.5 50t49.5 20q29 0 49 -20t20 -50t-19.5 -48.5t-49.5 -18.5t-49.5 18.5z" />
    <glyph glyph-name="uni01C8" unicode="&#x1c8;" horiz-adv-x="911" 
d="M83 700h162v-568h351v-132h-513v700zM511 -172l42 113q27 -19 66 -19q30 0 47 19.5t17 58.5v538h156v-537q0 -94 -53.5 -148.5t-149.5 -54.5q-82 0 -125 30zM691 638q-27 25 -27 62t27 62t70 25t70 -24t27 -60q0 -39 -27 -64.5t-70 -25.5t-70 25z" />
    <glyph glyph-name="uni1E3A" unicode="&#x1e3a;" horiz-adv-x="604" 
d="M83 700h162v-568h351v-132h-513v700zM166 -95h370v-87h-370v87z" />
    <glyph glyph-name="Lslash" unicode="&#x141;" horiz-adv-x="617" 
d="M96 700h162v-568h351v-132h-513v700zM-14 304l376 282l58 -78l-376 -282z" />
    <glyph glyph-name="M" unicode="M" horiz-adv-x="955" 
d="M720 0l-1 420l-206 -346h-73l-205 337v-411h-152v700h134l262 -435l258 435h133l2 -700h-152z" />
    <glyph glyph-name="uni1E42" unicode="&#x1e42;" horiz-adv-x="955" 
d="M720 0l-1 420l-206 -346h-73l-205 337v-411h-152v700h134l262 -435l258 435h133l2 -700h-152zM427.5 -191.5q-19.5 18.5 -19.5 48.5t19.5 50t49.5 20q29 0 49 -20t20 -50t-19.5 -48.5t-49.5 -18.5t-49.5 18.5z" />
    <glyph glyph-name="N" unicode="N" horiz-adv-x="808" 
d="M725 700v-700h-133l-349 425v-425h-160v700h134l348 -425v425h160z" />
    <glyph glyph-name="uni01CA" unicode="&#x1ca;" horiz-adv-x="1349" 
d="M725 700v-700h-133l-349 425v-425h-160v700h134l348 -425v425h160zM889.5 14.5q-59.5 26.5 -97.5 75.5l90 108q57 -77 130 -77q99 0 99 116v333h-246v130h407v-454q0 -129 -64 -193.5t-188 -64.5q-71 0 -130.5 26.5z" />
    <glyph glyph-name="Nacute" unicode="&#x143;" horiz-adv-x="808" 
d="M725 700v-700h-133l-349 425v-425h-160v700h134l348 -425v425h160zM448 901h168l-181 -144h-122z" />
    <glyph glyph-name="Ncaron" unicode="&#x147;" horiz-adv-x="808" 
d="M725 700v-700h-133l-349 425v-425h-160v700h134l348 -425v425h160zM605 901l-132 -144h-138l-132 144h114l87 -75l87 75h114z" />
    <glyph glyph-name="Ncommaaccent" unicode="&#x145;" horiz-adv-x="808" 
d="M725 700v-700h-133l-349 425v-425h-160v700h134l348 -425v425h160zM454.5 -89.5q18.5 -16.5 18.5 -43.5q0 -31 -18 -65l-35 -68h-73l25 80q-18 6 -27.5 19.5t-9.5 33.5q0 27 18.5 43.5t50.5 16.5t50.5 -16.5z" />
    <glyph glyph-name="uni1E44" unicode="&#x1e44;" horiz-adv-x="808" 
d="M725 700v-700h-133l-349 425v-425h-160v700h134l348 -425v425h160zM343.5 786q-23.5 24 -23.5 61q0 36 23.5 60t60.5 24t60.5 -24t23.5 -60q0 -37 -23.5 -61t-60.5 -24t-60.5 24z" />
    <glyph glyph-name="uni1E46" unicode="&#x1e46;" horiz-adv-x="808" 
d="M725 700v-700h-133l-349 425v-425h-160v700h134l348 -425v425h160zM354.5 -191.5q-19.5 18.5 -19.5 48.5t19.5 50t49.5 20q29 0 49 -20t20 -50t-19.5 -48.5t-49.5 -18.5t-49.5 18.5z" />
    <glyph glyph-name="Eng" unicode="&#x14a;" horiz-adv-x="808" 
d="M725 700v-629q0 -139 -62.5 -206t-186.5 -67q-55 0 -103 16.5t-84 49.5l76 113q43 -46 103 -46q91 0 97 102l-322 392v-425h-160v700h134l348 -425v425h160z" />
    <glyph glyph-name="uni01CB" unicode="&#x1cb;" horiz-adv-x="1115" 
d="M725 700v-700h-133l-349 425v-425h-160v700h134l348 -425v425h160zM715 -172l42 113q27 -19 66 -19q30 0 47 19.5t17 58.5v538h156v-537q0 -94 -53.5 -148.5t-149.5 -54.5q-82 0 -125 30zM895 638q-27 25 -27 62t27 62t70 25t70 -24t27 -60q0 -39 -27 -64.5t-70 -25.5
t-70 25z" />
    <glyph glyph-name="uni1E48" unicode="&#x1e48;" horiz-adv-x="808" 
d="M725 700v-700h-133l-349 425v-425h-160v700h134l348 -425v425h160zM219 -95h370v-87h-370v87z" />
    <glyph glyph-name="Ntilde" unicode="&#xd1;" horiz-adv-x="808" 
d="M725 700v-700h-133l-349 425v-425h-160v700h134l348 -425v425h160zM431.5 764.5q-20.5 10.5 -45.5 28.5q-16 12 -26.5 18t-20.5 6q-21 0 -34 -14.5t-14 -41.5h-79q2 67 33.5 106.5t83.5 39.5q26 0 46.5 -10.5t46.5 -29.5q16 -12 26.5 -18t20.5 -6q20 0 33.5 14.5
t14.5 39.5h79q-2 -65 -33.5 -104t-83.5 -39q-27 0 -47.5 10.5z" />
    <glyph glyph-name="O" unicode="O" horiz-adv-x="844" 
d="M225.5 35q-87.5 47 -137 129.5t-49.5 185.5t49.5 185.5t137 129.5t196.5 47t196 -47t137 -129.5t50 -185.5t-50 -185.5t-137 -129.5t-196 -47t-196.5 47zM534 154.5q50 28.5 78.5 79.5t28.5 116t-28.5 116t-78.5 79.5t-112 28.5t-112 -28.5t-78.5 -79.5t-28.5 -116
t28.5 -116t78.5 -79.5t112 -28.5t112 28.5z" />
    <glyph glyph-name="Oacute" unicode="&#xd3;" horiz-adv-x="844" 
d="M225.5 35q-87.5 47 -137 129.5t-49.5 185.5t49.5 185.5t137 129.5t196.5 47t196 -47t137 -129.5t50 -185.5t-50 -185.5t-137 -129.5t-196 -47t-196.5 47zM534 154.5q50 28.5 78.5 79.5t28.5 116t-28.5 116t-78.5 79.5t-112 28.5t-112 -28.5t-78.5 -79.5t-28.5 -116
t28.5 -116t78.5 -79.5t112 -28.5t112 28.5zM466 901h168l-181 -144h-122z" />
    <glyph glyph-name="Obreve" unicode="&#x14e;" horiz-adv-x="844" 
d="M225.5 35q-87.5 47 -137 129.5t-49.5 185.5t49.5 185.5t137 129.5t196.5 47t196 -47t137 -129.5t50 -185.5t-50 -185.5t-137 -129.5t-196 -47t-196.5 47zM534 154.5q50 28.5 78.5 79.5t28.5 116t-28.5 116t-78.5 79.5t-112 28.5t-112 -28.5t-78.5 -79.5t-28.5 -116
t28.5 -116t78.5 -79.5t112 -28.5t112 28.5zM292 790q-51 41 -54 111h98q1 -32 25.5 -51.5t60.5 -19.5t60.5 19.5t25.5 51.5h98q-3 -70 -54 -111t-130 -41t-130 41z" />
    <glyph glyph-name="Ocircumflex" unicode="&#xd4;" horiz-adv-x="844" 
d="M225.5 35q-87.5 47 -137 129.5t-49.5 185.5t49.5 185.5t137 129.5t196.5 47t196 -47t137 -129.5t50 -185.5t-50 -185.5t-137 -129.5t-196 -47t-196.5 47zM534 154.5q50 28.5 78.5 79.5t28.5 116t-28.5 116t-78.5 79.5t-112 28.5t-112 -28.5t-78.5 -79.5t-28.5 -116
t28.5 -116t78.5 -79.5t112 -28.5t112 28.5zM509 757l-87 76l-87 -76h-114l132 144h138l132 -144h-114z" />
    <glyph glyph-name="uni1ED0" unicode="&#x1ed0;" horiz-adv-x="844" 
d="M225.5 35q-87.5 47 -137 129.5t-49.5 185.5t49.5 185.5t137 129.5t196.5 47t196 -47t137 -129.5t50 -185.5t-50 -185.5t-137 -129.5t-196 -47t-196.5 47zM534 154.5q50 28.5 78.5 79.5t28.5 116t-28.5 116t-78.5 79.5t-112 28.5t-112 -28.5t-78.5 -79.5t-28.5 -116
t28.5 -116t78.5 -79.5t112 -28.5t112 28.5zM508 757l-86 57l-86 -57h-115l133 114h136l133 -114h-115zM653 974h159l-157 -121h-113z" />
    <glyph glyph-name="uni1ED8" unicode="&#x1ed8;" horiz-adv-x="844" 
d="M225.5 35q-87.5 47 -137 129.5t-49.5 185.5t49.5 185.5t137 129.5t196.5 47t196 -47t137 -129.5t50 -185.5t-50 -185.5t-137 -129.5t-196 -47t-196.5 47zM534 154.5q50 28.5 78.5 79.5t28.5 116t-28.5 116t-78.5 79.5t-112 28.5t-112 -28.5t-78.5 -79.5t-28.5 -116
t28.5 -116t78.5 -79.5t112 -28.5t112 28.5zM372.5 -191.5q-19.5 18.5 -19.5 48.5t19.5 50t49.5 20q29 0 49 -20t20 -50t-19.5 -48.5t-49.5 -18.5t-49.5 18.5zM509 757l-87 76l-87 -76h-114l132 144h138l132 -144h-114z" />
    <glyph glyph-name="uni1ED2" unicode="&#x1ed2;" horiz-adv-x="844" 
d="M225.5 35q-87.5 47 -137 129.5t-49.5 185.5t49.5 185.5t137 129.5t196.5 47t196 -47t137 -129.5t50 -185.5t-50 -185.5t-137 -129.5t-196 -47t-196.5 47zM534 154.5q50 28.5 78.5 79.5t28.5 116t-28.5 116t-78.5 79.5t-112 28.5t-112 -28.5t-78.5 -79.5t-28.5 -116
t28.5 -116t78.5 -79.5t112 -28.5t112 28.5zM508 757l-86 57l-86 -57h-115l133 114h136l133 -114h-115zM445 974h159l110 -121h-112z" />
    <glyph glyph-name="uni1ED4" unicode="&#x1ed4;" horiz-adv-x="844" 
d="M225.5 35q-87.5 47 -137 129.5t-49.5 185.5t49.5 185.5t137 129.5t196.5 47t196 -47t137 -129.5t50 -185.5t-50 -185.5t-137 -129.5t-196 -47t-196.5 47zM534 154.5q50 28.5 78.5 79.5t28.5 116t-28.5 116t-78.5 79.5t-112 28.5t-112 -28.5t-78.5 -79.5t-28.5 -116
t28.5 -116t78.5 -79.5t112 -28.5t112 28.5zM508 757l-86 57l-86 -57h-115l133 114h136l133 -114h-115zM562 871q37 18 37 42q0 13 -9.5 21t-24.5 8q-21 0 -44 -12l-26 48q34 22 83 22q42 0 67 -21.5t25 -57.5q0 -29 -19.5 -52t-50.5 -35z" />
    <glyph glyph-name="uni1ED6" unicode="&#x1ed6;" horiz-adv-x="844" 
d="M225.5 35q-87.5 47 -137 129.5t-49.5 185.5t49.5 185.5t137 129.5t196.5 47t196 -47t137 -129.5t50 -185.5t-50 -185.5t-137 -129.5t-196 -47t-196.5 47zM534 154.5q50 28.5 78.5 79.5t28.5 116t-28.5 116t-78.5 79.5t-112 28.5t-112 -28.5t-78.5 -79.5t-28.5 -116
t28.5 -116t78.5 -79.5t112 -28.5t112 28.5zM508 757l-86 57l-86 -57h-115l133 114h136l133 -114h-115zM448 914.5q-21 8.5 -46 24.5q-12 7 -23.5 13t-20.5 6q-20 0 -31 -12t-13 -34h-80q1 60 31.5 92.5t84.5 32.5q26 0 44.5 -8t46.5 -24q16 -10 26.5 -15t20.5 -5
q20 0 31 12.5t13 32.5h78q-1 -58 -31 -91t-83 -33q-27 0 -48 8.5z" />
    <glyph glyph-name="uni020C" unicode="&#x20c;" horiz-adv-x="844" 
d="M225.5 35q-87.5 47 -137 129.5t-49.5 185.5t49.5 185.5t137 129.5t196.5 47t196 -47t137 -129.5t50 -185.5t-50 -185.5t-137 -129.5t-196 -47t-196.5 47zM534 154.5q50 28.5 78.5 79.5t28.5 116t-28.5 116t-78.5 79.5t-112 28.5t-112 -28.5t-78.5 -79.5t-28.5 -116
t28.5 -116t78.5 -79.5t112 -28.5t112 28.5zM160 901h146l72 -144h-114zM362 901h146l72 -144h-114z" />
    <glyph glyph-name="Odieresis" unicode="&#xd6;" horiz-adv-x="844" 
d="M225.5 35q-87.5 47 -137 129.5t-49.5 185.5t49.5 185.5t137 129.5t196.5 47t196 -47t137 -129.5t50 -185.5t-50 -185.5t-137 -129.5t-196 -47t-196.5 47zM534 154.5q50 28.5 78.5 79.5t28.5 116t-28.5 116t-78.5 79.5t-112 28.5t-112 -28.5t-78.5 -79.5t-28.5 -116
t28.5 -116t78.5 -79.5t112 -28.5t112 28.5zM271 781.5q-20 19.5 -20 49.5t20 49.5t50 19.5t49.5 -19.5t19.5 -49.5t-19.5 -49.5t-49.5 -19.5t-50 19.5zM473.5 781.5q-19.5 19.5 -19.5 49.5t19.5 49.5t49.5 19.5t50 -19.5t20 -49.5t-20 -49.5t-50 -19.5t-49.5 19.5z" />
    <glyph glyph-name="uni022A" unicode="&#x22a;" horiz-adv-x="844" 
d="M225.5 35q-87.5 47 -137 129.5t-49.5 185.5t49.5 185.5t137 129.5t196.5 47t196 -47t137 -129.5t50 -185.5t-50 -185.5t-137 -129.5t-196 -47t-196.5 47zM534 154.5q50 28.5 78.5 79.5t28.5 116t-28.5 116t-78.5 79.5t-112 28.5t-112 -28.5t-78.5 -79.5t-28.5 -116
t28.5 -116t78.5 -79.5t112 -28.5t112 28.5zM277 780.5q-19 18.5 -19 47.5q0 28 19 47t47 19q29 0 48 -19t19 -47q0 -29 -19 -47.5t-48 -18.5q-28 0 -47 18.5zM473 780.5q-19 18.5 -19 47.5q0 28 19.5 47t46.5 19q28 0 47 -19t19 -47q0 -29 -19 -47.5t-47 -18.5t-47 18.5z
M237 1017h370v-83h-370v83z" />
    <glyph glyph-name="uni0230" unicode="&#x230;" horiz-adv-x="844" 
d="M225.5 35q-87.5 47 -137 129.5t-49.5 185.5t49.5 185.5t137 129.5t196.5 47t196 -47t137 -129.5t50 -185.5t-50 -185.5t-137 -129.5t-196 -47t-196.5 47zM534 154.5q50 28.5 78.5 79.5t28.5 116t-28.5 116t-78.5 79.5t-112 28.5t-112 -28.5t-78.5 -79.5t-28.5 -116
t28.5 -116t78.5 -79.5t112 -28.5t112 28.5zM372.5 780q-19.5 19 -19.5 49t19.5 49.5t49.5 19.5t49.5 -19.5t19.5 -49.5t-19.5 -49t-49.5 -19t-49.5 19zM237 1024h370v-83h-370v83z" />
    <glyph glyph-name="uni1ECC" unicode="&#x1ecc;" horiz-adv-x="844" 
d="M225.5 35q-87.5 47 -137 129.5t-49.5 185.5t49.5 185.5t137 129.5t196.5 47t196 -47t137 -129.5t50 -185.5t-50 -185.5t-137 -129.5t-196 -47t-196.5 47zM534 154.5q50 28.5 78.5 79.5t28.5 116t-28.5 116t-78.5 79.5t-112 28.5t-112 -28.5t-78.5 -79.5t-28.5 -116
t28.5 -116t78.5 -79.5t112 -28.5t112 28.5zM372.5 -191.5q-19.5 18.5 -19.5 48.5t19.5 50t49.5 20q29 0 49 -20t20 -50t-19.5 -48.5t-49.5 -18.5t-49.5 18.5z" />
    <glyph glyph-name="Ograve" unicode="&#xd2;" horiz-adv-x="844" 
d="M225.5 35q-87.5 47 -137 129.5t-49.5 185.5t49.5 185.5t137 129.5t196.5 47t196 -47t137 -129.5t50 -185.5t-50 -185.5t-137 -129.5t-196 -47t-196.5 47zM534 154.5q50 28.5 78.5 79.5t28.5 116t-28.5 116t-78.5 79.5t-112 28.5t-112 -28.5t-78.5 -79.5t-28.5 -116
t28.5 -116t78.5 -79.5t112 -28.5t112 28.5zM210 901h168l135 -144h-122z" />
    <glyph glyph-name="uni1ECE" unicode="&#x1ece;" horiz-adv-x="844" 
d="M225.5 35q-87.5 47 -137 129.5t-49.5 185.5t49.5 185.5t137 129.5t196.5 47t196 -47t137 -129.5t50 -185.5t-50 -185.5t-137 -129.5t-196 -47t-196.5 47zM534 154.5q50 28.5 78.5 79.5t28.5 116t-28.5 116t-78.5 79.5t-112 28.5t-112 -28.5t-78.5 -79.5t-28.5 -116
t28.5 -116t78.5 -79.5t112 -28.5t112 28.5zM403 799q28 13 39.5 28t11.5 33q0 19 -13 30.5t-34 11.5q-30 0 -59 -19l-32 63q43 34 108 34q53 0 86.5 -29.5t33.5 -77.5q0 -84 -92 -126z" />
    <glyph glyph-name="Ohorn" unicode="&#x1a0;" horiz-adv-x="844" 
d="M773.5 498.5q31.5 -68.5 31.5 -148.5q0 -103 -50 -185.5t-137 -129.5t-196 -47t-196.5 47t-137 129.5t-49.5 185.5t50 185.5t139 129.5t201 47q44 0 110 -8q52 -6 73 -6q39 0 60.5 17t21.5 49q0 31 -20 60l92 34q32 -45 32 -100t-29 -92t-82 -52q55 -47 86.5 -115.5z
M534 154.5q50 28.5 78.5 79.5t28.5 116t-28.5 116t-78.5 79.5t-112 28.5t-112 -28.5t-78.5 -79.5t-28.5 -116t28.5 -116t78.5 -79.5t112 -28.5t112 28.5z" />
    <glyph glyph-name="uni1EDA" unicode="&#x1eda;" horiz-adv-x="844" 
d="M773.5 498.5q31.5 -68.5 31.5 -148.5q0 -103 -50 -185.5t-137 -129.5t-196 -47t-196.5 47t-137 129.5t-49.5 185.5t50 185.5t139 129.5t201 47q44 0 110 -8q52 -6 73 -6q39 0 60.5 17t21.5 49q0 31 -20 60l92 34q32 -45 32 -100t-29 -92t-82 -52q55 -47 86.5 -115.5z
M534 154.5q50 28.5 78.5 79.5t28.5 116t-28.5 116t-78.5 79.5t-112 28.5t-112 -28.5t-78.5 -79.5t-28.5 -116t28.5 -116t78.5 -79.5t112 -28.5t112 28.5zM466 901h168l-181 -144h-122z" />
    <glyph glyph-name="uni1EE2" unicode="&#x1ee2;" horiz-adv-x="844" 
d="M773.5 498.5q31.5 -68.5 31.5 -148.5q0 -103 -50 -185.5t-137 -129.5t-196 -47t-196.5 47t-137 129.5t-49.5 185.5t50 185.5t139 129.5t201 47q44 0 110 -8q52 -6 73 -6q39 0 60.5 17t21.5 49q0 31 -20 60l92 34q32 -45 32 -100t-29 -92t-82 -52q55 -47 86.5 -115.5z
M534 154.5q50 28.5 78.5 79.5t28.5 116t-28.5 116t-78.5 79.5t-112 28.5t-112 -28.5t-78.5 -79.5t-28.5 -116t28.5 -116t78.5 -79.5t112 -28.5t112 28.5zM372.5 -191.5q-19.5 18.5 -19.5 48.5t19.5 50t49.5 20q29 0 49 -20t20 -50t-19.5 -48.5t-49.5 -18.5t-49.5 18.5z" />
    <glyph glyph-name="uni1EDC" unicode="&#x1edc;" horiz-adv-x="844" 
d="M773.5 498.5q31.5 -68.5 31.5 -148.5q0 -103 -50 -185.5t-137 -129.5t-196 -47t-196.5 47t-137 129.5t-49.5 185.5t50 185.5t139 129.5t201 47q44 0 110 -8q52 -6 73 -6q39 0 60.5 17t21.5 49q0 31 -20 60l92 34q32 -45 32 -100t-29 -92t-82 -52q55 -47 86.5 -115.5z
M534 154.5q50 28.5 78.5 79.5t28.5 116t-28.5 116t-78.5 79.5t-112 28.5t-112 -28.5t-78.5 -79.5t-28.5 -116t28.5 -116t78.5 -79.5t112 -28.5t112 28.5zM210 901h168l135 -144h-122z" />
    <glyph glyph-name="uni1EDE" unicode="&#x1ede;" horiz-adv-x="844" 
d="M773.5 498.5q31.5 -68.5 31.5 -148.5q0 -103 -50 -185.5t-137 -129.5t-196 -47t-196.5 47t-137 129.5t-49.5 185.5t50 185.5t139 129.5t201 47q44 0 110 -8q52 -6 73 -6q39 0 60.5 17t21.5 49q0 31 -20 60l92 34q32 -45 32 -100t-29 -92t-82 -52q55 -47 86.5 -115.5z
M534 154.5q50 28.5 78.5 79.5t28.5 116t-28.5 116t-78.5 79.5t-112 28.5t-112 -28.5t-78.5 -79.5t-28.5 -116t28.5 -116t78.5 -79.5t112 -28.5t112 28.5zM403 799q28 13 39.5 28t11.5 33q0 19 -13 30.5t-34 11.5q-30 0 -59 -19l-32 63q43 34 108 34q53 0 86.5 -29.5
t33.5 -77.5q0 -84 -92 -126z" />
    <glyph glyph-name="uni1EE0" unicode="&#x1ee0;" horiz-adv-x="844" 
d="M773.5 498.5q31.5 -68.5 31.5 -148.5q0 -103 -50 -185.5t-137 -129.5t-196 -47t-196.5 47t-137 129.5t-49.5 185.5t50 185.5t139 129.5t201 47q44 0 110 -8q52 -6 73 -6q39 0 60.5 17t21.5 49q0 31 -20 60l92 34q32 -45 32 -100t-29 -92t-82 -52q55 -47 86.5 -115.5z
M534 154.5q50 28.5 78.5 79.5t28.5 116t-28.5 116t-78.5 79.5t-112 28.5t-112 -28.5t-78.5 -79.5t-28.5 -116t28.5 -116t78.5 -79.5t112 -28.5t112 28.5zM449.5 764.5q-20.5 10.5 -45.5 28.5q-16 12 -26.5 18t-20.5 6q-21 0 -34 -14.5t-14 -41.5h-79q2 67 33.5 106.5
t83.5 39.5q26 0 46.5 -10.5t46.5 -29.5q16 -12 26.5 -18t20.5 -6q20 0 33.5 14.5t14.5 39.5h79q-2 -65 -33.5 -104t-83.5 -39q-27 0 -47.5 10.5z" />
    <glyph glyph-name="Ohungarumlaut" unicode="&#x150;" horiz-adv-x="844" 
d="M225.5 35q-87.5 47 -137 129.5t-49.5 185.5t49.5 185.5t137 129.5t196.5 47t196 -47t137 -129.5t50 -185.5t-50 -185.5t-137 -129.5t-196 -47t-196.5 47zM534 154.5q50 28.5 78.5 79.5t28.5 116t-28.5 116t-78.5 79.5t-112 28.5t-112 -28.5t-78.5 -79.5t-28.5 -116
t28.5 -116t78.5 -79.5t112 -28.5t112 28.5zM336 901h146l-104 -144h-114zM538 901h146l-104 -144h-114z" />
    <glyph glyph-name="uni020E" unicode="&#x20e;" horiz-adv-x="844" 
d="M225.5 35q-87.5 47 -137 129.5t-49.5 185.5t49.5 185.5t137 129.5t196.5 47t196 -47t137 -129.5t50 -185.5t-50 -185.5t-137 -129.5t-196 -47t-196.5 47zM534 154.5q50 28.5 78.5 79.5t28.5 116t-28.5 116t-78.5 79.5t-112 28.5t-112 -28.5t-78.5 -79.5t-28.5 -116
t28.5 -116t78.5 -79.5t112 -28.5t112 28.5zM292 868q51 41 130 41t130 -41t54 -111h-98q-1 32 -25.5 51.5t-60.5 19.5t-60.5 -19.5t-25.5 -51.5h-98q3 70 54 111z" />
    <glyph glyph-name="Omacron" unicode="&#x14c;" horiz-adv-x="844" 
d="M225.5 35q-87.5 47 -137 129.5t-49.5 185.5t49.5 185.5t137 129.5t196.5 47t196 -47t137 -129.5t50 -185.5t-50 -185.5t-137 -129.5t-196 -47t-196.5 47zM534 154.5q50 28.5 78.5 79.5t28.5 116t-28.5 116t-78.5 79.5t-112 28.5t-112 -28.5t-78.5 -79.5t-28.5 -116
t28.5 -116t78.5 -79.5t112 -28.5t112 28.5zM237 873h370v-88h-370v88z" />
    <glyph glyph-name="uni1E52" unicode="&#x1e52;" horiz-adv-x="844" 
d="M225.5 35q-87.5 47 -137 129.5t-49.5 185.5t49.5 185.5t137 129.5t196.5 47t196 -47t137 -129.5t50 -185.5t-50 -185.5t-137 -129.5t-196 -47t-196.5 47zM534 154.5q50 28.5 78.5 79.5t28.5 116t-28.5 116t-78.5 79.5t-112 28.5t-112 -28.5t-78.5 -79.5t-28.5 -116
t28.5 -116t78.5 -79.5t112 -28.5t112 28.5zM237 856h370v-83h-370v83zM447 1039h159l-157 -121h-113z" />
    <glyph glyph-name="uni1E50" unicode="&#x1e50;" horiz-adv-x="844" 
d="M225.5 35q-87.5 47 -137 129.5t-49.5 185.5t49.5 185.5t137 129.5t196.5 47t196 -47t137 -129.5t50 -185.5t-50 -185.5t-137 -129.5t-196 -47t-196.5 47zM534 154.5q50 28.5 78.5 79.5t28.5 116t-28.5 116t-78.5 79.5t-112 28.5t-112 -28.5t-78.5 -79.5t-28.5 -116
t28.5 -116t78.5 -79.5t112 -28.5t112 28.5zM237 856h370v-83h-370v83zM239 1039h159l110 -121h-112z" />
    <glyph glyph-name="uni01EA" unicode="&#x1ea;" horiz-adv-x="844" 
d="M438 -44.5q-35 -29.5 -35 -62.5q0 -21 15.5 -33.5t42.5 -12.5q33 0 60 15l23 -71q-19 -10 -46.5 -16.5t-54.5 -6.5q-65 0 -101.5 30.5t-36.5 81.5q0 64 60 112q-95 12 -169 61t-115.5 126t-41.5 171q0 103 50 185.5t137 129.5t196 47t196 -47t137 -129.5t50 -185.5
q0 -85 -34.5 -155.5t-94 -118.5t-134.5 -70q-69 -21 -104 -50.5zM231.5 234q28.5 -51 78.5 -79.5t112 -28.5t112 28.5t78.5 79.5t28.5 116t-28.5 116t-78.5 79.5t-112 28.5t-112 -28.5t-78.5 -79.5t-28.5 -116t28.5 -116z" />
    <glyph glyph-name="Oslash" unicode="&#xd8;" horiz-adv-x="844" 
d="M225.5 35q-87.5 47 -137 129.5t-49.5 185.5t49.5 185.5t137 129.5t196.5 47t196 -47t137 -129.5t50 -185.5t-50 -185.5t-137 -129.5t-196 -47t-196.5 47zM534 154.5q50 28.5 78.5 79.5t28.5 116t-28.5 116t-78.5 79.5t-112 28.5t-112 -28.5t-78.5 -79.5t-28.5 -116
t28.5 -116t78.5 -79.5t112 -28.5t112 28.5zM669 770h105l-598 -840h-105z" />
    <glyph glyph-name="Oslashacute" unicode="&#x1fe;" horiz-adv-x="844" 
d="M225.5 35q-87.5 47 -137 129.5t-49.5 185.5t49.5 185.5t137 129.5t196.5 47t196 -47t137 -129.5t50 -185.5t-50 -185.5t-137 -129.5t-196 -47t-196.5 47zM534 154.5q50 28.5 78.5 79.5t28.5 116t-28.5 116t-78.5 79.5t-112 28.5t-112 -28.5t-78.5 -79.5t-28.5 -116
t28.5 -116t78.5 -79.5t112 -28.5t112 28.5zM669 770h105l-598 -840h-105zM466 901h168l-181 -144h-122z" />
    <glyph glyph-name="Otilde" unicode="&#xd5;" horiz-adv-x="844" 
d="M225.5 35q-87.5 47 -137 129.5t-49.5 185.5t49.5 185.5t137 129.5t196.5 47t196 -47t137 -129.5t50 -185.5t-50 -185.5t-137 -129.5t-196 -47t-196.5 47zM534 154.5q50 28.5 78.5 79.5t28.5 116t-28.5 116t-78.5 79.5t-112 28.5t-112 -28.5t-78.5 -79.5t-28.5 -116
t28.5 -116t78.5 -79.5t112 -28.5t112 28.5zM449.5 764.5q-20.5 10.5 -45.5 28.5q-16 12 -26.5 18t-20.5 6q-21 0 -34 -14.5t-14 -41.5h-79q2 67 33.5 106.5t83.5 39.5q26 0 46.5 -10.5t46.5 -29.5q16 -12 26.5 -18t20.5 -6q20 0 33.5 14.5t14.5 39.5h79q-2 -65 -33.5 -104
t-83.5 -39q-27 0 -47.5 10.5z" />
    <glyph glyph-name="uni1E4C" unicode="&#x1e4c;" horiz-adv-x="844" 
d="M225.5 35q-87.5 47 -137 129.5t-49.5 185.5t49.5 185.5t137 129.5t196.5 47t196 -47t137 -129.5t50 -185.5t-50 -185.5t-137 -129.5t-196 -47t-196.5 47zM534 154.5q50 28.5 78.5 79.5t28.5 116t-28.5 116t-78.5 79.5t-112 28.5t-112 -28.5t-78.5 -79.5t-28.5 -116
t28.5 -116t78.5 -79.5t112 -28.5t112 28.5zM448 763.5q-21 8.5 -46 24.5q-12 7 -23.5 13t-20.5 6q-20 0 -31 -12t-13 -34h-80q1 60 31.5 92.5t84.5 32.5q26 0 44.5 -8t46.5 -24q16 -10 26.5 -15t20.5 -5q20 0 31 12.5t13 32.5h78q-1 -58 -31 -91t-83 -33q-27 0 -48 8.5z
M447 1039h159l-157 -121h-113z" />
    <glyph glyph-name="uni1E4E" unicode="&#x1e4e;" horiz-adv-x="844" 
d="M225.5 35q-87.5 47 -137 129.5t-49.5 185.5t49.5 185.5t137 129.5t196.5 47t196 -47t137 -129.5t50 -185.5t-50 -185.5t-137 -129.5t-196 -47t-196.5 47zM534 154.5q50 28.5 78.5 79.5t28.5 116t-28.5 116t-78.5 79.5t-112 28.5t-112 -28.5t-78.5 -79.5t-28.5 -116
t28.5 -116t78.5 -79.5t112 -28.5t112 28.5zM448 763.5q-21 8.5 -46 24.5q-12 7 -23.5 13t-20.5 6q-20 0 -31 -12t-13 -34h-80q1 60 31.5 92.5t84.5 32.5q26 0 44.5 -8t46.5 -24q16 -10 26.5 -15t20.5 -5q20 0 31 12.5t13 32.5h78q-1 -58 -31 -91t-83 -33q-27 0 -48 8.5z
M277 941.5q-19 18.5 -19 47.5q0 28 19 47t47 19q29 0 48 -19t19 -47q0 -29 -19 -47.5t-48 -18.5q-28 0 -47 18.5zM473 941.5q-19 18.5 -19 47.5q0 28 19.5 47t46.5 19q28 0 47 -19t19 -47q0 -29 -19 -47.5t-47 -18.5t-47 18.5z" />
    <glyph glyph-name="uni022C" unicode="&#x22c;" horiz-adv-x="844" 
d="M225.5 35q-87.5 47 -137 129.5t-49.5 185.5t49.5 185.5t137 129.5t196.5 47t196 -47t137 -129.5t50 -185.5t-50 -185.5t-137 -129.5t-196 -47t-196.5 47zM534 154.5q50 28.5 78.5 79.5t28.5 116t-28.5 116t-78.5 79.5t-112 28.5t-112 -28.5t-78.5 -79.5t-28.5 -116
t28.5 -116t78.5 -79.5t112 -28.5t112 28.5zM448 763.5q-21 8.5 -46 24.5q-12 7 -23.5 13t-20.5 6q-20 0 -31 -12t-13 -34h-80q1 60 31.5 92.5t84.5 32.5q26 0 44.5 -8t46.5 -24q16 -10 26.5 -15t20.5 -5q20 0 31 12.5t13 32.5h78q-1 -58 -31 -91t-83 -33q-27 0 -48 8.5z
M237 1017h370v-83h-370v83z" />
    <glyph glyph-name="OE" unicode="&#x152;" horiz-adv-x="1136" 
d="M1090 130v-130h-665q-114 0 -201.5 43.5t-136 122.5t-48.5 183q0 105 48.5 184.5t136 123t201.5 43.5h652v-130h-368v-152h325v-126h-325v-162h381zM548 133v434h-115q-105 0 -167.5 -58.5t-62.5 -159.5q0 -99 62.5 -157.5t167.5 -58.5h115z" />
    <glyph glyph-name="P" unicode="P" horiz-adv-x="732" 
d="M547.5 669q68.5 -31 105.5 -88t37 -135q0 -77 -37 -134.5t-105.5 -88t-161.5 -30.5h-141v-193h-162v700h303q93 0 161.5 -31zM488 356.5q38 31.5 38 89.5q0 59 -38 90.5t-111 31.5h-132v-243h132q73 0 111 31.5z" />
    <glyph glyph-name="Thorn" unicode="&#xde;" horiz-adv-x="732" 
d="M547.5 592q68.5 -31 105.5 -88t37 -135t-37 -135t-105.5 -88t-161.5 -31h-141v-115h-162v700h162v-77h141q93 0 161.5 -31zM488 278.5q38 31.5 38 90.5t-38 90.5t-111 31.5h-132v-244h132q73 0 111 31.5z" />
    <glyph glyph-name="Q" unicode="Q" horiz-adv-x="844" 
d="M840 -75q-34 -42 -82.5 -64t-106.5 -22q-78 0 -141 33.5t-144 118.5q-95 12 -169.5 61t-116 126.5t-41.5 171.5q0 103 49.5 185.5t137 129.5t196.5 47t196 -47t137 -129.5t50 -185.5q0 -122 -68.5 -214t-181.5 -128q25 -26 48.5 -37.5t50.5 -11.5q65 0 114 52zM231.5 234
q28.5 -51 78.5 -79.5t112 -28.5t112 28.5t78.5 79.5t28.5 116t-28.5 116t-78.5 79.5t-112 28.5t-112 -28.5t-78.5 -79.5t-28.5 -116t28.5 -116z" />
    <glyph glyph-name="R" unicode="R" horiz-adv-x="735" 
d="M529 0l-135 195h-8h-141v-195h-162v700h303q93 0 161.5 -31t105.5 -88t37 -135t-37.5 -134.5t-106.5 -86.5l157 -225h-174zM488 536.5q-38 31.5 -111 31.5h-132v-244h132q73 0 111 32t38 90q0 59 -38 90.5z" />
    <glyph glyph-name="Racute" unicode="&#x154;" horiz-adv-x="735" 
d="M529 0l-135 195h-8h-141v-195h-162v700h303q93 0 161.5 -31t105.5 -88t37 -135t-37.5 -134.5t-106.5 -86.5l157 -225h-174zM488 536.5q-38 31.5 -111 31.5h-132v-244h132q73 0 111 32t38 90q0 59 -38 90.5zM419 901h168l-181 -144h-122z" />
    <glyph glyph-name="Rcaron" unicode="&#x158;" horiz-adv-x="735" 
d="M529 0l-135 195h-8h-141v-195h-162v700h303q93 0 161.5 -31t105.5 -88t37 -135t-37.5 -134.5t-106.5 -86.5l157 -225h-174zM488 536.5q-38 31.5 -111 31.5h-132v-244h132q73 0 111 32t38 90q0 59 -38 90.5zM576 901l-132 -144h-138l-132 144h114l87 -75l87 75h114z" />
    <glyph glyph-name="Rcommaaccent" unicode="&#x156;" horiz-adv-x="735" 
d="M529 0l-135 195h-8h-141v-195h-162v700h303q93 0 161.5 -31t105.5 -88t37 -135t-37.5 -134.5t-106.5 -86.5l157 -225h-174zM488 536.5q-38 31.5 -111 31.5h-132v-244h132q73 0 111 32t38 90q0 59 -38 90.5zM425.5 -89.5q18.5 -16.5 18.5 -43.5q0 -31 -18 -65l-35 -68h-73
l25 80q-18 6 -27.5 19.5t-9.5 33.5q0 27 18.5 43.5t50.5 16.5t50.5 -16.5z" />
    <glyph glyph-name="uni0210" unicode="&#x210;" horiz-adv-x="735" 
d="M529 0l-135 195h-8h-141v-195h-162v700h303q93 0 161.5 -31t105.5 -88t37 -135t-37.5 -134.5t-106.5 -86.5l157 -225h-174zM488 536.5q-38 31.5 -111 31.5h-132v-244h132q73 0 111 32t38 90q0 59 -38 90.5zM113 901h146l72 -144h-114zM315 901h146l72 -144h-114z" />
    <glyph glyph-name="uni1E5A" unicode="&#x1e5a;" horiz-adv-x="735" 
d="M529 0l-135 195h-8h-141v-195h-162v700h303q93 0 161.5 -31t105.5 -88t37 -135t-37.5 -134.5t-106.5 -86.5l157 -225h-174zM488 536.5q-38 31.5 -111 31.5h-132v-244h132q73 0 111 32t38 90q0 59 -38 90.5zM325.5 -191.5q-19.5 18.5 -19.5 48.5t19.5 50t49.5 20
q29 0 49 -20t20 -50t-19.5 -48.5t-49.5 -18.5t-49.5 18.5z" />
    <glyph glyph-name="uni0212" unicode="&#x212;" horiz-adv-x="735" 
d="M529 0l-135 195h-8h-141v-195h-162v700h303q93 0 161.5 -31t105.5 -88t37 -135t-37.5 -134.5t-106.5 -86.5l157 -225h-174zM488 536.5q-38 31.5 -111 31.5h-132v-244h132q73 0 111 32t38 90q0 59 -38 90.5zM245 868q51 41 130 41t130 -41t54 -111h-98q-1 32 -25.5 51.5
t-60.5 19.5t-60.5 -19.5t-25.5 -51.5h-98q3 70 54 111z" />
    <glyph glyph-name="uni1E5E" unicode="&#x1e5e;" horiz-adv-x="735" 
d="M529 0l-135 195h-8h-141v-195h-162v700h303q93 0 161.5 -31t105.5 -88t37 -135t-37.5 -134.5t-106.5 -86.5l157 -225h-174zM488 536.5q-38 31.5 -111 31.5h-132v-244h132q73 0 111 32t38 90q0 59 -38 90.5zM190 -95h370v-87h-370v87z" />
    <glyph glyph-name="S" unicode="S" horiz-adv-x="638" 
d="M152.5 10.5q-77.5 22.5 -124.5 58.5l55 122q45 -33 107 -53t124 -20q69 0 102 20.5t33 54.5q0 25 -19.5 41.5t-50 26.5t-82.5 22q-80 19 -131 38t-87.5 61t-36.5 112q0 61 33 110.5t99.5 78.5t162.5 29q67 0 131 -16t112 -46l-50 -123q-97 55 -194 55q-68 0 -100.5 -22
t-32.5 -58t37.5 -53.5t114.5 -34.5q80 -19 131 -38t87.5 -60t36.5 -111q0 -60 -33.5 -109.5t-100.5 -78.5t-163 -29q-83 0 -160.5 22.5z" />
    <glyph glyph-name="Sacute" unicode="&#x15a;" horiz-adv-x="638" 
d="M152.5 10.5q-77.5 22.5 -124.5 58.5l55 122q45 -33 107 -53t124 -20q69 0 102 20.5t33 54.5q0 25 -19.5 41.5t-50 26.5t-82.5 22q-80 19 -131 38t-87.5 61t-36.5 112q0 61 33 110.5t99.5 78.5t162.5 29q67 0 131 -16t112 -46l-50 -123q-97 55 -194 55q-68 0 -100.5 -22
t-32.5 -58t37.5 -53.5t114.5 -34.5q80 -19 131 -38t87.5 -60t36.5 -111q0 -60 -33.5 -109.5t-100.5 -78.5t-163 -29q-83 0 -160.5 22.5zM369 901h168l-181 -144h-122z" />
    <glyph glyph-name="uni1E64" unicode="&#x1e64;" horiz-adv-x="638" 
d="M152.5 10.5q-77.5 22.5 -124.5 58.5l55 122q45 -33 107 -53t124 -20q69 0 102 20.5t33 54.5q0 25 -19.5 41.5t-50 26.5t-82.5 22q-80 19 -131 38t-87.5 61t-36.5 112q0 61 33 110.5t99.5 78.5t162.5 29q67 0 131 -16t112 -46l-50 -123q-97 55 -194 55q-68 0 -100.5 -22
t-32.5 -58t37.5 -53.5t114.5 -34.5q80 -19 131 -38t87.5 -60t36.5 -111q0 -60 -33.5 -109.5t-100.5 -78.5t-163 -29q-83 0 -160.5 22.5zM350 878h159l-157 -121h-113zM275.5 941q-19.5 19 -19.5 49t19.5 49.5t49.5 19.5t49.5 -19.5t19.5 -49.5t-19.5 -49t-49.5 -19t-49.5 19
z" />
    <glyph glyph-name="uniA78B" unicode="&#xa78b;" horiz-adv-x="297" 
d="M68 700h160l-20 -403h-140v403z" />
    <glyph glyph-name="Scaron" unicode="&#x160;" horiz-adv-x="638" 
d="M152.5 10.5q-77.5 22.5 -124.5 58.5l55 122q45 -33 107 -53t124 -20q69 0 102 20.5t33 54.5q0 25 -19.5 41.5t-50 26.5t-82.5 22q-80 19 -131 38t-87.5 61t-36.5 112q0 61 33 110.5t99.5 78.5t162.5 29q67 0 131 -16t112 -46l-50 -123q-97 55 -194 55q-68 0 -100.5 -22
t-32.5 -58t37.5 -53.5t114.5 -34.5q80 -19 131 -38t87.5 -60t36.5 -111q0 -60 -33.5 -109.5t-100.5 -78.5t-163 -29q-83 0 -160.5 22.5zM526 901l-132 -144h-138l-132 144h114l87 -75l87 75h114z" />
    <glyph glyph-name="uni1E66" unicode="&#x1e66;" horiz-adv-x="638" 
d="M152.5 10.5q-77.5 22.5 -124.5 58.5l55 122q45 -33 107 -53t124 -20q69 0 102 20.5t33 54.5q0 25 -19.5 41.5t-50 26.5t-82.5 22q-80 19 -131 38t-87.5 61t-36.5 112q0 61 33 110.5t99.5 78.5t162.5 29q67 0 131 -16t112 -46l-50 -123q-97 55 -194 55q-68 0 -100.5 -22
t-32.5 -58t37.5 -53.5t114.5 -34.5q80 -19 131 -38t87.5 -60t36.5 -111q0 -60 -33.5 -109.5t-100.5 -78.5t-163 -29q-83 0 -160.5 22.5zM526 871l-133 -114h-136l-133 114h115l86 -57l86 57h115zM275.5 918q-19.5 19 -19.5 49t19.5 49.5t49.5 19.5t49.5 -19.5t19.5 -49.5
t-19.5 -49t-49.5 -19t-49.5 19z" />
    <glyph glyph-name="Scedilla" unicode="&#x15e;" horiz-adv-x="638" 
d="M152.5 10.5q-77.5 22.5 -124.5 58.5l55 122q45 -33 107 -53t124 -20q69 0 102 20.5t33 54.5q0 25 -19.5 41.5t-50 26.5t-82.5 22q-80 19 -131 38t-87.5 61t-36.5 112q0 61 33 110.5t99.5 78.5t162.5 29q67 0 131 -16t112 -46l-50 -123q-97 55 -194 55q-68 0 -100.5 -22
t-32.5 -58t37.5 -53.5t114.5 -34.5q80 -19 131 -38t87.5 -60t36.5 -111q0 -60 -33.5 -109.5t-100.5 -78.5t-163 -29q-83 0 -160.5 22.5zM241 -226.5q-25 5.5 -42 15.5l24 67q32 -15 65 -15q52 0 52 32q0 29 -49 29h-34l26 106h83l-14 -58q44 -5 65.5 -27.5t21.5 -55.5
q0 -46 -40 -72.5t-107 -26.5q-26 0 -51 5.5z" />
    <glyph glyph-name="Scircumflex" unicode="&#x15c;" horiz-adv-x="638" 
d="M152.5 10.5q-77.5 22.5 -124.5 58.5l55 122q45 -33 107 -53t124 -20q69 0 102 20.5t33 54.5q0 25 -19.5 41.5t-50 26.5t-82.5 22q-80 19 -131 38t-87.5 61t-36.5 112q0 61 33 110.5t99.5 78.5t162.5 29q67 0 131 -16t112 -46l-50 -123q-97 55 -194 55q-68 0 -100.5 -22
t-32.5 -58t37.5 -53.5t114.5 -34.5q80 -19 131 -38t87.5 -60t36.5 -111q0 -60 -33.5 -109.5t-100.5 -78.5t-163 -29q-83 0 -160.5 22.5zM412 757l-87 76l-87 -76h-114l132 144h138l132 -144h-114z" />
    <glyph glyph-name="Scommaaccent" unicode="&#x218;" horiz-adv-x="638" 
d="M152.5 10.5q-77.5 22.5 -124.5 58.5l55 122q45 -33 107 -53t124 -20q69 0 102 20.5t33 54.5q0 25 -19.5 41.5t-50 26.5t-82.5 22q-80 19 -131 38t-87.5 61t-36.5 112q0 61 33 110.5t99.5 78.5t162.5 29q67 0 131 -16t112 -46l-50 -123q-97 55 -194 55q-68 0 -100.5 -22
t-32.5 -58t37.5 -53.5t114.5 -34.5q80 -19 131 -38t87.5 -60t36.5 -111q0 -60 -33.5 -109.5t-100.5 -78.5t-163 -29q-83 0 -160.5 22.5zM375.5 -89.5q18.5 -16.5 18.5 -43.5q0 -31 -18 -65l-35 -68h-73l25 80q-18 6 -27.5 19.5t-9.5 33.5q0 27 18.5 43.5t50.5 16.5
t50.5 -16.5z" />
    <glyph glyph-name="uni1E60" unicode="&#x1e60;" horiz-adv-x="638" 
d="M152.5 10.5q-77.5 22.5 -124.5 58.5l55 122q45 -33 107 -53t124 -20q69 0 102 20.5t33 54.5q0 25 -19.5 41.5t-50 26.5t-82.5 22q-80 19 -131 38t-87.5 61t-36.5 112q0 61 33 110.5t99.5 78.5t162.5 29q67 0 131 -16t112 -46l-50 -123q-97 55 -194 55q-68 0 -100.5 -22
t-32.5 -58t37.5 -53.5t114.5 -34.5q80 -19 131 -38t87.5 -60t36.5 -111q0 -60 -33.5 -109.5t-100.5 -78.5t-163 -29q-83 0 -160.5 22.5zM264.5 786q-23.5 24 -23.5 61q0 36 23.5 60t60.5 24t60.5 -24t23.5 -60q0 -37 -23.5 -61t-60.5 -24t-60.5 24z" />
    <glyph glyph-name="uni1E62" unicode="&#x1e62;" horiz-adv-x="638" 
d="M152.5 10.5q-77.5 22.5 -124.5 58.5l55 122q45 -33 107 -53t124 -20q69 0 102 20.5t33 54.5q0 25 -19.5 41.5t-50 26.5t-82.5 22q-80 19 -131 38t-87.5 61t-36.5 112q0 61 33 110.5t99.5 78.5t162.5 29q67 0 131 -16t112 -46l-50 -123q-97 55 -194 55q-68 0 -100.5 -22
t-32.5 -58t37.5 -53.5t114.5 -34.5q80 -19 131 -38t87.5 -60t36.5 -111q0 -60 -33.5 -109.5t-100.5 -78.5t-163 -29q-83 0 -160.5 22.5zM275.5 -191.5q-19.5 18.5 -19.5 48.5t19.5 50t49.5 20q29 0 49 -20t20 -50t-19.5 -48.5t-49.5 -18.5t-49.5 18.5z" />
    <glyph glyph-name="uni1E68" unicode="&#x1e68;" horiz-adv-x="638" 
d="M152.5 10.5q-77.5 22.5 -124.5 58.5l55 122q45 -33 107 -53t124 -20q69 0 102 20.5t33 54.5q0 25 -19.5 41.5t-50 26.5t-82.5 22q-80 19 -131 38t-87.5 61t-36.5 112q0 61 33 110.5t99.5 78.5t162.5 29q67 0 131 -16t112 -46l-50 -123q-97 55 -194 55q-68 0 -100.5 -22
t-32.5 -58t37.5 -53.5t114.5 -34.5q80 -19 131 -38t87.5 -60t36.5 -111q0 -60 -33.5 -109.5t-100.5 -78.5t-163 -29q-83 0 -160.5 22.5zM275.5 -191.5q-19.5 18.5 -19.5 48.5t19.5 50t49.5 20q29 0 49 -20t20 -50t-19.5 -48.5t-49.5 -18.5t-49.5 18.5zM264.5 786
q-23.5 24 -23.5 61q0 36 23.5 60t60.5 24t60.5 -24t23.5 -60q0 -37 -23.5 -61t-60.5 -24t-60.5 24z" />
    <glyph glyph-name="uni1E9E" unicode="&#x1e9e;" horiz-adv-x="779" 
d="M689.5 345.5q50.5 -55.5 50.5 -139.5q0 -68 -34 -117t-92.5 -75t-131.5 -26q-89 0 -151 24l24 128q44 -22 102 -22t88.5 24t30.5 71q0 46 -31 70.5t-87 24.5q-43 0 -74 -11l-28 70l172 199q-49 17 -106 17q-89 0 -136 -50.5t-47 -144.5v-388h-162v392q0 99 40 171
t117.5 111t185.5 39q68 0 136 -17.5t114 -49.5v-98l-113 -130q82 -17 132.5 -72.5z" />
    <glyph glyph-name="uni018F" unicode="&#x18f;" horiz-adv-x="817" 
d="M594 665.5q87 -46.5 135.5 -129t48.5 -185.5q0 -104 -48 -187t-132 -129.5t-189 -46.5q-106 0 -190.5 47t-132 131t-47.5 191v34h573q-8 53 -38 94.5t-76 65t-101 23.5q-56 0 -111 -21.5t-92 -60.5l-97 105q51 52 131 83.5t170 31.5q109 0 196 -46.5zM543.5 161
q52.5 44 66.5 120h-403q14 -77 67 -120.5t135 -43.5t134.5 44z" />
    <glyph glyph-name="T" unicode="T" horiz-adv-x="618" 
d="M228 568h-224v132h610v-132h-224v-568h-162v568z" />
    <glyph glyph-name="Tbar" unicode="&#x166;" horiz-adv-x="618" 
d="M228 568h-224v132h610v-132h-224v-568h-162v568zM93 382h432v-108h-432v108z" />
    <glyph glyph-name="Tcaron" unicode="&#x164;" horiz-adv-x="618" 
d="M228 568h-224v132h610v-132h-224v-568h-162v568zM510 901l-132 -144h-138l-132 144h114l87 -75l87 75h114z" />
    <glyph glyph-name="uni0162" unicode="&#x162;" horiz-adv-x="618" 
d="M228 568h-224v132h610v-132h-224v-568h-162v568zM225 -226.5q-25 5.5 -42 15.5l24 67q32 -15 65 -15q52 0 52 32q0 29 -49 29h-34l26 106h83l-14 -58q44 -5 65.5 -27.5t21.5 -55.5q0 -46 -40 -72.5t-107 -26.5q-26 0 -51 5.5z" />
    <glyph glyph-name="uni021A" unicode="&#x21a;" horiz-adv-x="618" 
d="M228 568h-224v132h610v-132h-224v-568h-162v568zM359.5 -89.5q18.5 -16.5 18.5 -43.5q0 -31 -18 -65l-35 -68h-73l25 80q-18 6 -27.5 19.5t-9.5 33.5q0 27 18.5 43.5t50.5 16.5t50.5 -16.5z" />
    <glyph glyph-name="uni1E6C" unicode="&#x1e6c;" horiz-adv-x="618" 
d="M228 568h-224v132h610v-132h-224v-568h-162v568zM259.5 -191.5q-19.5 18.5 -19.5 48.5t19.5 50t49.5 20q29 0 49 -20t20 -50t-19.5 -48.5t-49.5 -18.5t-49.5 18.5z" />
    <glyph glyph-name="uni1E6E" unicode="&#x1e6e;" horiz-adv-x="618" 
d="M228 568h-224v132h610v-132h-224v-568h-162v568zM124 -95h370v-87h-370v87z" />
    <glyph glyph-name="U" unicode="U" horiz-adv-x="788" 
d="M160.5 71q-83.5 83 -83.5 237v392h162v-386q0 -188 156 -188q76 0 116 45.5t40 142.5v386h160v-392q0 -154 -83.5 -237t-233.5 -83t-233.5 83z" />
    <glyph glyph-name="Uacute" unicode="&#xda;" horiz-adv-x="788" 
d="M160.5 71q-83.5 83 -83.5 237v392h162v-386q0 -188 156 -188q76 0 116 45.5t40 142.5v386h160v-392q0 -154 -83.5 -237t-233.5 -83t-233.5 83zM439 901h168l-181 -144h-122z" />
    <glyph glyph-name="Ubreve" unicode="&#x16c;" horiz-adv-x="788" 
d="M160.5 71q-83.5 83 -83.5 237v392h162v-386q0 -188 156 -188q76 0 116 45.5t40 142.5v386h160v-392q0 -154 -83.5 -237t-233.5 -83t-233.5 83zM265 790q-51 41 -54 111h98q1 -32 25.5 -51.5t60.5 -19.5t60.5 19.5t25.5 51.5h98q-3 -70 -54 -111t-130 -41t-130 41z" />
    <glyph glyph-name="uni01D3" unicode="&#x1d3;" horiz-adv-x="788" 
d="M160.5 71q-83.5 83 -83.5 237v392h162v-386q0 -188 156 -188q76 0 116 45.5t40 142.5v386h160v-392q0 -154 -83.5 -237t-233.5 -83t-233.5 83zM596 901l-132 -144h-138l-132 144h114l87 -75l87 75h114z" />
    <glyph glyph-name="Ucircumflex" unicode="&#xdb;" horiz-adv-x="788" 
d="M160.5 71q-83.5 83 -83.5 237v392h162v-386q0 -188 156 -188q76 0 116 45.5t40 142.5v386h160v-392q0 -154 -83.5 -237t-233.5 -83t-233.5 83zM482 757l-87 76l-87 -76h-114l132 144h138l132 -144h-114z" />
    <glyph glyph-name="uni0214" unicode="&#x214;" horiz-adv-x="788" 
d="M160.5 71q-83.5 83 -83.5 237v392h162v-386q0 -188 156 -188q76 0 116 45.5t40 142.5v386h160v-392q0 -154 -83.5 -237t-233.5 -83t-233.5 83zM133 901h146l72 -144h-114zM335 901h146l72 -144h-114z" />
    <glyph glyph-name="Udieresis" unicode="&#xdc;" horiz-adv-x="788" 
d="M160.5 71q-83.5 83 -83.5 237v392h162v-386q0 -188 156 -188q76 0 116 45.5t40 142.5v386h160v-392q0 -154 -83.5 -237t-233.5 -83t-233.5 83zM244 781.5q-20 19.5 -20 49.5t20 49.5t50 19.5t49.5 -19.5t19.5 -49.5t-19.5 -49.5t-49.5 -19.5t-50 19.5zM446.5 781.5
q-19.5 19.5 -19.5 49.5t19.5 49.5t49.5 19.5t50 -19.5t20 -49.5t-20 -49.5t-50 -19.5t-49.5 19.5z" />
    <glyph glyph-name="uni1EE4" unicode="&#x1ee4;" horiz-adv-x="788" 
d="M160.5 71q-83.5 83 -83.5 237v392h162v-386q0 -188 156 -188q76 0 116 45.5t40 142.5v386h160v-392q0 -154 -83.5 -237t-233.5 -83t-233.5 83zM345.5 -191.5q-19.5 18.5 -19.5 48.5t19.5 50t49.5 20q29 0 49 -20t20 -50t-19.5 -48.5t-49.5 -18.5t-49.5 18.5z" />
    <glyph glyph-name="Ugrave" unicode="&#xd9;" horiz-adv-x="788" 
d="M160.5 71q-83.5 83 -83.5 237v392h162v-386q0 -188 156 -188q76 0 116 45.5t40 142.5v386h160v-392q0 -154 -83.5 -237t-233.5 -83t-233.5 83zM183 901h168l135 -144h-122z" />
    <glyph glyph-name="uni1EE6" unicode="&#x1ee6;" horiz-adv-x="788" 
d="M160.5 71q-83.5 83 -83.5 237v392h162v-386q0 -188 156 -188q76 0 116 45.5t40 142.5v386h160v-392q0 -154 -83.5 -237t-233.5 -83t-233.5 83zM376 799q28 13 39.5 28t11.5 33q0 19 -13 30.5t-34 11.5q-30 0 -59 -19l-32 63q43 34 108 34q53 0 86.5 -29.5t33.5 -77.5
q0 -84 -92 -126z" />
    <glyph glyph-name="Uhorn" unicode="&#x1af;" horiz-adv-x="801" 
d="M160.5 71q-83.5 83 -83.5 237v392h162v-386q0 -188 156 -188q76 0 116 45.5t40 142.5v386h160v-392q0 -154 -83.5 -237t-233.5 -83t-233.5 83zM628 700h27q27 0 43.5 17.5t16.5 45.5q0 35 -20 60l92 34q32 -42 32 -100q0 -75 -44.5 -118t-123.5 -43h-23v104z" />
    <glyph glyph-name="uni1EE8" unicode="&#x1ee8;" horiz-adv-x="801" 
d="M160.5 71q-83.5 83 -83.5 237v392h162v-386q0 -188 156 -188q76 0 116 45.5t40 142.5v386h160v-392q0 -154 -83.5 -237t-233.5 -83t-233.5 83zM628 700h27q27 0 43.5 17.5t16.5 45.5q0 35 -20 60l92 34q32 -42 32 -100q0 -75 -44.5 -118t-123.5 -43h-23v104zM439 901h168
l-181 -144h-122z" />
    <glyph glyph-name="uni1EF0" unicode="&#x1ef0;" horiz-adv-x="801" 
d="M160.5 71q-83.5 83 -83.5 237v392h162v-386q0 -188 156 -188q76 0 116 45.5t40 142.5v386h160v-392q0 -154 -83.5 -237t-233.5 -83t-233.5 83zM628 700h27q27 0 43.5 17.5t16.5 45.5q0 35 -20 60l92 34q32 -42 32 -100q0 -75 -44.5 -118t-123.5 -43h-23v104z
M345.5 -191.5q-19.5 18.5 -19.5 48.5t19.5 50t49.5 20q29 0 49 -20t20 -50t-19.5 -48.5t-49.5 -18.5t-49.5 18.5z" />
    <glyph glyph-name="uni1EEA" unicode="&#x1eea;" horiz-adv-x="801" 
d="M160.5 71q-83.5 83 -83.5 237v392h162v-386q0 -188 156 -188q76 0 116 45.5t40 142.5v386h160v-392q0 -154 -83.5 -237t-233.5 -83t-233.5 83zM628 700h27q27 0 43.5 17.5t16.5 45.5q0 35 -20 60l92 34q32 -42 32 -100q0 -75 -44.5 -118t-123.5 -43h-23v104zM183 901h168
l135 -144h-122z" />
    <glyph glyph-name="uni1EEC" unicode="&#x1eec;" horiz-adv-x="801" 
d="M160.5 71q-83.5 83 -83.5 237v392h162v-386q0 -188 156 -188q76 0 116 45.5t40 142.5v386h160v-392q0 -154 -83.5 -237t-233.5 -83t-233.5 83zM628 700h27q27 0 43.5 17.5t16.5 45.5q0 35 -20 60l92 34q32 -42 32 -100q0 -75 -44.5 -118t-123.5 -43h-23v104zM376 799
q28 13 39.5 28t11.5 33q0 19 -13 30.5t-34 11.5q-30 0 -59 -19l-32 63q43 34 108 34q53 0 86.5 -29.5t33.5 -77.5q0 -84 -92 -126z" />
    <glyph glyph-name="uni1EEE" unicode="&#x1eee;" horiz-adv-x="801" 
d="M160.5 71q-83.5 83 -83.5 237v392h162v-386q0 -188 156 -188q76 0 116 45.5t40 142.5v386h160v-392q0 -154 -83.5 -237t-233.5 -83t-233.5 83zM628 700h27q27 0 43.5 17.5t16.5 45.5q0 35 -20 60l92 34q32 -42 32 -100q0 -75 -44.5 -118t-123.5 -43h-23v104zM422.5 764.5
q-20.5 10.5 -45.5 28.5q-16 12 -26.5 18t-20.5 6q-21 0 -34 -14.5t-14 -41.5h-79q2 67 33.5 106.5t83.5 39.5q26 0 46.5 -10.5t46.5 -29.5q16 -12 26.5 -18t20.5 -6q20 0 33.5 14.5t14.5 39.5h79q-2 -65 -33.5 -104t-83.5 -39q-27 0 -47.5 10.5z" />
    <glyph glyph-name="Uhungarumlaut" unicode="&#x170;" horiz-adv-x="788" 
d="M160.5 71q-83.5 83 -83.5 237v392h162v-386q0 -188 156 -188q76 0 116 45.5t40 142.5v386h160v-392q0 -154 -83.5 -237t-233.5 -83t-233.5 83zM309 901h146l-104 -144h-114zM511 901h146l-104 -144h-114z" />
    <glyph glyph-name="uni0216" unicode="&#x216;" horiz-adv-x="788" 
d="M160.5 71q-83.5 83 -83.5 237v392h162v-386q0 -188 156 -188q76 0 116 45.5t40 142.5v386h160v-392q0 -154 -83.5 -237t-233.5 -83t-233.5 83zM265 868q51 41 130 41t130 -41t54 -111h-98q-1 32 -25.5 51.5t-60.5 19.5t-60.5 -19.5t-25.5 -51.5h-98q3 70 54 111z" />
    <glyph glyph-name="Umacron" unicode="&#x16a;" horiz-adv-x="788" 
d="M160.5 71q-83.5 83 -83.5 237v392h162v-386q0 -188 156 -188q76 0 116 45.5t40 142.5v386h160v-392q0 -154 -83.5 -237t-233.5 -83t-233.5 83zM210 873h370v-88h-370v88z" />
    <glyph glyph-name="uni1E7A" unicode="&#x1e7a;" horiz-adv-x="788" 
d="M160.5 71q-83.5 83 -83.5 237v392h162v-386q0 -188 156 -188q76 0 116 45.5t40 142.5v386h160v-392q0 -154 -83.5 -237t-233.5 -83t-233.5 83zM210 857h370v-83h-370v83zM250 942.5q-19 18.5 -19 47.5q0 28 19 47t47 19q29 0 48 -19t19 -47q0 -29 -19 -47.5t-48 -18.5
q-28 0 -47 18.5zM446 942.5q-19 18.5 -19 47.5q0 28 19.5 47t46.5 19q28 0 47 -19t19 -47q0 -29 -19 -47.5t-47 -18.5t-47 18.5z" />
    <glyph glyph-name="Uogonek" unicode="&#x172;" horiz-adv-x="788" 
d="M711 700v-392q0 -119 -49 -193t-138 -107q-78 -29 -109 -57.5t-31 -57.5q0 -21 15 -33.5t42 -12.5q35 0 60 15l23 -71q-19 -10 -46 -16.5t-55 -6.5q-64 0 -101 30.5t-37 81.5q0 62 59 111q-127 13 -197 95t-70 222v392h162v-386q0 -188 156 -188q76 0 116 45.5t40 142.5
v386h160z" />
    <glyph glyph-name="Uring" unicode="&#x16e;" horiz-adv-x="788" 
d="M160.5 71q-83.5 83 -83.5 237v392h162v-386q0 -188 156 -188q76 0 116 45.5t40 142.5v386h160v-392q0 -154 -83.5 -237t-233.5 -83t-233.5 83zM306.5 789q-35.5 35 -35.5 86t35.5 86t87.5 35q53 0 89 -35t36 -86t-36 -86t-89 -35q-52 0 -87.5 35zM437.5 831.5
q17.5 17.5 17.5 43.5t-17.5 43.5t-43.5 17.5q-25 0 -42.5 -17.5t-17.5 -43.5t17 -43.5t43 -17.5t43.5 17.5z" />
    <glyph glyph-name="Utilde" unicode="&#x168;" horiz-adv-x="788" 
d="M160.5 71q-83.5 83 -83.5 237v392h162v-386q0 -188 156 -188q76 0 116 45.5t40 142.5v386h160v-392q0 -154 -83.5 -237t-233.5 -83t-233.5 83zM422.5 764.5q-20.5 10.5 -45.5 28.5q-16 12 -26.5 18t-20.5 6q-21 0 -34 -14.5t-14 -41.5h-79q2 67 33.5 106.5t83.5 39.5
q26 0 46.5 -10.5t46.5 -29.5q16 -12 26.5 -18t20.5 -6q20 0 33.5 14.5t14.5 39.5h79q-2 -65 -33.5 -104t-83.5 -39q-27 0 -47.5 10.5z" />
    <glyph glyph-name="uni1E78" unicode="&#x1e78;" horiz-adv-x="788" 
d="M160.5 71q-83.5 83 -83.5 237v392h162v-386q0 -188 156 -188q76 0 116 45.5t40 142.5v386h160v-392q0 -154 -83.5 -237t-233.5 -83t-233.5 83zM421 763.5q-21 8.5 -46 24.5q-12 7 -23.5 13t-20.5 6q-20 0 -31 -12t-13 -34h-80q1 60 31.5 92.5t84.5 32.5q26 0 44.5 -8
t46.5 -24q16 -10 26.5 -15t20.5 -5q20 0 31 12.5t13 32.5h78q-1 -58 -31 -91t-83 -33q-27 0 -48 8.5zM420 1039h159l-157 -121h-113z" />
    <glyph glyph-name="V" unicode="V" horiz-adv-x="746" 
d="M756 700l-303 -700h-160l-302 700h175l213 -500l216 500h161z" />
    <glyph glyph-name="W" unicode="W" horiz-adv-x="1163" 
d="M1141 700l-229 -700h-174l-154 474l-159 -474h-173l-230 700h168l158 -492l165 492h150l160 -496l163 496h155z" />
    <glyph glyph-name="Wacute" unicode="&#x1e82;" horiz-adv-x="1163" 
d="M1141 700l-229 -700h-174l-154 474l-159 -474h-173l-230 700h168l158 -492l165 492h150l160 -496l163 496h155zM626 901h168l-181 -144h-122z" />
    <glyph glyph-name="Wcircumflex" unicode="&#x174;" horiz-adv-x="1163" 
d="M1141 700l-229 -700h-174l-154 474l-159 -474h-173l-230 700h168l158 -492l165 492h150l160 -496l163 496h155zM669 757l-87 76l-87 -76h-114l132 144h138l132 -144h-114z" />
    <glyph glyph-name="Wdieresis" unicode="&#x1e84;" horiz-adv-x="1163" 
d="M1141 700l-229 -700h-174l-154 474l-159 -474h-173l-230 700h168l158 -492l165 492h150l160 -496l163 496h155zM431 781.5q-20 19.5 -20 49.5t20 49.5t50 19.5t49.5 -19.5t19.5 -49.5t-19.5 -49.5t-49.5 -19.5t-50 19.5zM633.5 781.5q-19.5 19.5 -19.5 49.5t19.5 49.5
t49.5 19.5t50 -19.5t20 -49.5t-20 -49.5t-50 -19.5t-49.5 19.5z" />
    <glyph glyph-name="Wgrave" unicode="&#x1e80;" horiz-adv-x="1163" 
d="M1141 700l-229 -700h-174l-154 474l-159 -474h-173l-230 700h168l158 -492l165 492h150l160 -496l163 496h155zM370 901h168l135 -144h-122z" />
    <glyph glyph-name="X" unicode="X" horiz-adv-x="714" 
d="M524 0l-169 243l-166 -243h-186l259 356l-246 344h184l161 -227l158 227h175l-244 -338l261 -362h-187z" />
    <glyph glyph-name="Y" unicode="Y" horiz-adv-x="676" 
d="M419 248v-248h-162v250l-271 450h172l187 -311l187 311h159z" />
    <glyph glyph-name="Yacute" unicode="&#xdd;" horiz-adv-x="676" 
d="M419 248v-248h-162v250l-271 450h172l187 -311l187 311h159zM382 901h168l-181 -144h-122z" />
    <glyph glyph-name="Ycircumflex" unicode="&#x176;" horiz-adv-x="676" 
d="M419 248v-248h-162v250l-271 450h172l187 -311l187 311h159zM425 757l-87 76l-87 -76h-114l132 144h138l132 -144h-114z" />
    <glyph glyph-name="Ydieresis" unicode="&#x178;" horiz-adv-x="676" 
d="M419 248v-248h-162v250l-271 450h172l187 -311l187 311h159zM187 781.5q-20 19.5 -20 49.5t20 49.5t50 19.5t49.5 -19.5t19.5 -49.5t-19.5 -49.5t-49.5 -19.5t-50 19.5zM389.5 781.5q-19.5 19.5 -19.5 49.5t19.5 49.5t49.5 19.5t50 -19.5t20 -49.5t-20 -49.5t-50 -19.5
t-49.5 19.5z" />
    <glyph glyph-name="uni1E8E" unicode="&#x1e8e;" horiz-adv-x="676" 
d="M419 248v-248h-162v250l-271 450h172l187 -311l187 311h159zM277.5 786q-23.5 24 -23.5 61q0 36 23.5 60t60.5 24t60.5 -24t23.5 -60q0 -37 -23.5 -61t-60.5 -24t-60.5 24z" />
    <glyph glyph-name="uni1EF4" unicode="&#x1ef4;" horiz-adv-x="676" 
d="M419 248v-248h-162v250l-271 450h172l187 -311l187 311h159zM288.5 -191.5q-19.5 18.5 -19.5 48.5t19.5 50t49.5 20q29 0 49 -20t20 -50t-19.5 -48.5t-49.5 -18.5t-49.5 18.5z" />
    <glyph glyph-name="Ygrave" unicode="&#x1ef2;" horiz-adv-x="676" 
d="M419 248v-248h-162v250l-271 450h172l187 -311l187 311h159zM126 901h168l135 -144h-122z" />
    <glyph glyph-name="uni1EF6" unicode="&#x1ef6;" horiz-adv-x="676" 
d="M419 248v-248h-162v250l-271 450h172l187 -311l187 311h159zM319 799q28 13 39.5 28t11.5 33q0 19 -13 30.5t-34 11.5q-30 0 -59 -19l-32 63q43 34 108 34q53 0 86.5 -29.5t33.5 -77.5q0 -84 -92 -126z" />
    <glyph glyph-name="uni0232" unicode="&#x232;" horiz-adv-x="676" 
d="M419 248v-248h-162v250l-271 450h172l187 -311l187 311h159zM153 873h370v-88h-370v88z" />
    <glyph glyph-name="uni1EF8" unicode="&#x1ef8;" horiz-adv-x="676" 
d="M419 248v-248h-162v250l-271 450h172l187 -311l187 311h159zM365.5 764.5q-20.5 10.5 -45.5 28.5q-16 12 -26.5 18t-20.5 6q-21 0 -34 -14.5t-14 -41.5h-79q2 67 33.5 106.5t83.5 39.5q26 0 46.5 -10.5t46.5 -29.5q16 -12 26.5 -18t20.5 -6q20 0 33.5 14.5t14.5 39.5h79
q-2 -65 -33.5 -104t-83.5 -39q-27 0 -47.5 10.5z" />
    <glyph glyph-name="Z" unicode="Z" horiz-adv-x="671" 
d="M650 132v-132h-612v105l384 463h-376v132h589v-105l-383 -463h398z" />
    <glyph glyph-name="Zacute" unicode="&#x179;" horiz-adv-x="671" 
d="M650 132v-132h-612v105l384 463h-376v132h589v-105l-383 -463h398zM388 901h168l-181 -144h-122z" />
    <glyph glyph-name="Zcaron" unicode="&#x17d;" horiz-adv-x="671" 
d="M650 132v-132h-612v105l384 463h-376v132h589v-105l-383 -463h398zM545 901l-132 -144h-138l-132 144h114l87 -75l87 75h114z" />
    <glyph glyph-name="Zdotaccent" unicode="&#x17b;" horiz-adv-x="671" 
d="M650 132v-132h-612v105l384 463h-376v132h589v-105l-383 -463h398zM283.5 786q-23.5 24 -23.5 61q0 36 23.5 60t60.5 24t60.5 -24t23.5 -60q0 -37 -23.5 -61t-60.5 -24t-60.5 24z" />
    <glyph glyph-name="uni1E92" unicode="&#x1e92;" horiz-adv-x="671" 
d="M650 132v-132h-612v105l384 463h-376v132h589v-105l-383 -463h398zM297.5 -191.5q-19.5 18.5 -19.5 48.5t19.5 50t49.5 20q29 0 49 -20t20 -50t-19.5 -48.5t-49.5 -18.5t-49.5 18.5z" />
    <glyph glyph-name="Iacute_J.loclNLD" horiz-adv-x="724" 
d="M218 901h156l-181 -144h-109zM626 901h156l-182 -144h-109zM181.5 13q-68.5 21 -120.5 58l61 120q46 -30 98 -46.5t101 -16.5q82 0 122.5 44.5t40.5 138.5v389h163v-381q0 -105 -39.5 -178.5t-111.5 -111t-169 -37.5q-77 0 -145.5 21zM77 700h162v-378h-162v378z" />
    <glyph glyph-name="A.ss01" horiz-adv-x="796" 
d="M567 674q72 -38 112 -112t40 -179v-383h-162v168h-320v-168h-160v383q0 105 40 179t112 112t169 38t169 -38zM557 298v100q0 87 -43 131.5t-117 44.5q-75 0 -117.5 -44.5t-42.5 -131.5v-100h320z" />
    <glyph glyph-name="Aacute.ss01" horiz-adv-x="796" 
d="M567 674q72 -38 112 -112t40 -179v-383h-162v168h-320v-168h-160v383q0 105 40 179t112 112t169 38t169 -38zM557 298v100q0 87 -43 131.5t-117 44.5q-75 0 -117.5 -44.5t-42.5 -131.5v-100h320zM442 901h168l-181 -144h-122z" />
    <glyph glyph-name="Abreve.ss01" horiz-adv-x="796" 
d="M567 674q72 -38 112 -112t40 -179v-383h-162v168h-320v-168h-160v383q0 105 40 179t112 112t169 38t169 -38zM557 298v100q0 87 -43 131.5t-117 44.5q-75 0 -117.5 -44.5t-42.5 -131.5v-100h320zM268 790q-51 41 -54 111h98q1 -32 25.5 -51.5t60.5 -19.5t60.5 19.5
t25.5 51.5h98q-3 -70 -54 -111t-130 -41t-130 41z" />
    <glyph glyph-name="uni1EAE.ss01" horiz-adv-x="796" 
d="M567 674q72 -38 112 -112t40 -179v-383h-162v168h-320v-168h-160v383q0 105 40 179t112 112t169 38t169 -38zM557 298v100q0 87 -43 131.5t-117 44.5q-75 0 -117.5 -44.5t-42.5 -131.5v-100h320zM269.5 782q-50.5 33 -55.5 89h94q3 -21 28 -34t62 -13t62 13t28 34h94
q-5 -56 -55.5 -89t-128.5 -33t-128.5 33zM423 1022h159l-157 -121h-113z" />
    <glyph glyph-name="uni1EB6.ss01" horiz-adv-x="796" 
d="M567 674q72 -38 112 -112t40 -179v-383h-162v168h-320v-168h-160v383q0 105 40 179t112 112t169 38t169 -38zM557 298v100q0 87 -43 131.5t-117 44.5q-75 0 -117.5 -44.5t-42.5 -131.5v-100h320zM348.5 -191.5q-19.5 18.5 -19.5 48.5t19.5 50t49.5 20q29 0 49 -20t20 -50
t-19.5 -48.5t-49.5 -18.5t-49.5 18.5zM268 790q-51 41 -54 111h98q1 -32 25.5 -51.5t60.5 -19.5t60.5 19.5t25.5 51.5h98q-3 -70 -54 -111t-130 -41t-130 41z" />
    <glyph glyph-name="uni1EB0.ss01" horiz-adv-x="796" 
d="M567 674q72 -38 112 -112t40 -179v-383h-162v168h-320v-168h-160v383q0 105 40 179t112 112t169 38t169 -38zM557 298v100q0 87 -43 131.5t-117 44.5q-75 0 -117.5 -44.5t-42.5 -131.5v-100h320zM269.5 782q-50.5 33 -55.5 89h94q3 -21 28 -34t62 -13t62 13t28 34h94
q-5 -56 -55.5 -89t-128.5 -33t-128.5 33zM215 1022h159l110 -121h-112z" />
    <glyph glyph-name="uni1EB2.ss01" horiz-adv-x="796" 
d="M567 674q72 -38 112 -112t40 -179v-383h-162v168h-320v-168h-160v383q0 105 40 179t112 112t169 38t169 -38zM557 298v100q0 87 -43 131.5t-117 44.5q-75 0 -117.5 -44.5t-42.5 -131.5v-100h320zM269.5 782q-50.5 33 -55.5 89h94q3 -21 28 -34t62 -13t62 13t28 34h94
q-5 -56 -55.5 -89t-128.5 -33t-128.5 33zM385 910q37 18 37 42q0 13 -9.5 21t-24.5 8q-21 0 -44 -12l-26 48q34 22 83 22q42 0 67 -21.5t25 -57.5q0 -29 -19.5 -52t-50.5 -35z" />
    <glyph glyph-name="uni1EB4.ss01" horiz-adv-x="796" 
d="M567 674q72 -38 112 -112t40 -179v-383h-162v168h-320v-168h-160v383q0 105 40 179t112 112t169 38t169 -38zM557 298v100q0 87 -43 131.5t-117 44.5q-75 0 -117.5 -44.5t-42.5 -131.5v-100h320zM269.5 782q-50.5 33 -55.5 89h94q3 -21 28 -34t62 -13t62 13t28 34h94
q-5 -56 -55.5 -89t-128.5 -33t-128.5 33zM424 907.5q-21 8.5 -46 24.5q-12 7 -23.5 13t-20.5 6q-20 0 -31 -12t-13 -34h-80q1 60 31.5 92.5t84.5 32.5q26 0 44.5 -8t46.5 -24q16 -10 26.5 -15t20.5 -5q20 0 31 12.5t13 32.5h78q-1 -58 -31 -91t-83 -33q-27 0 -48 8.5z" />
    <glyph glyph-name="uni01CD.ss01" horiz-adv-x="796" 
d="M567 674q72 -38 112 -112t40 -179v-383h-162v168h-320v-168h-160v383q0 105 40 179t112 112t169 38t169 -38zM557 298v100q0 87 -43 131.5t-117 44.5q-75 0 -117.5 -44.5t-42.5 -131.5v-100h320zM599 901l-132 -144h-138l-132 144h114l87 -75l87 75h114z" />
    <glyph glyph-name="Acircumflex.ss01" horiz-adv-x="796" 
d="M567 674q72 -38 112 -112t40 -179v-383h-162v168h-320v-168h-160v383q0 105 40 179t112 112t169 38t169 -38zM557 298v100q0 87 -43 131.5t-117 44.5q-75 0 -117.5 -44.5t-42.5 -131.5v-100h320zM485 757l-87 76l-87 -76h-114l132 144h138l132 -144h-114z" />
    <glyph glyph-name="uni1EA4.ss01" horiz-adv-x="796" 
d="M567 674q72 -38 112 -112t40 -179v-383h-162v168h-320v-168h-160v383q0 105 40 179t112 112t169 38t169 -38zM557 298v100q0 87 -43 131.5t-117 44.5q-75 0 -117.5 -44.5t-42.5 -131.5v-100h320zM484 757l-86 57l-86 -57h-115l133 114h136l133 -114h-115zM629 974h159
l-157 -121h-113z" />
    <glyph glyph-name="uni1EAC.ss01" horiz-adv-x="796" 
d="M567 674q72 -38 112 -112t40 -179v-383h-162v168h-320v-168h-160v383q0 105 40 179t112 112t169 38t169 -38zM557 298v100q0 87 -43 131.5t-117 44.5q-75 0 -117.5 -44.5t-42.5 -131.5v-100h320zM348.5 -191.5q-19.5 18.5 -19.5 48.5t19.5 50t49.5 20q29 0 49 -20t20 -50
t-19.5 -48.5t-49.5 -18.5t-49.5 18.5zM485 757l-87 76l-87 -76h-114l132 144h138l132 -144h-114z" />
    <glyph glyph-name="uni1EA6.ss01" horiz-adv-x="796" 
d="M567 674q72 -38 112 -112t40 -179v-383h-162v168h-320v-168h-160v383q0 105 40 179t112 112t169 38t169 -38zM557 298v100q0 87 -43 131.5t-117 44.5q-75 0 -117.5 -44.5t-42.5 -131.5v-100h320zM484 757l-86 57l-86 -57h-115l133 114h136l133 -114h-115zM421 974h159
l110 -121h-112z" />
    <glyph glyph-name="uni1EA8.ss01" horiz-adv-x="796" 
d="M567 674q72 -38 112 -112t40 -179v-383h-162v168h-320v-168h-160v383q0 105 40 179t112 112t169 38t169 -38zM557 298v100q0 87 -43 131.5t-117 44.5q-75 0 -117.5 -44.5t-42.5 -131.5v-100h320zM484 757l-86 57l-86 -57h-115l133 114h136l133 -114h-115zM538 871
q37 18 37 42q0 13 -9.5 21t-24.5 8q-21 0 -44 -12l-26 48q34 22 83 22q42 0 67 -21.5t25 -57.5q0 -29 -19.5 -52t-50.5 -35z" />
    <glyph glyph-name="uni1EAA.ss01" horiz-adv-x="796" 
d="M567 674q72 -38 112 -112t40 -179v-383h-162v168h-320v-168h-160v383q0 105 40 179t112 112t169 38t169 -38zM557 298v100q0 87 -43 131.5t-117 44.5q-75 0 -117.5 -44.5t-42.5 -131.5v-100h320zM484 757l-86 57l-86 -57h-115l133 114h136l133 -114h-115zM424 914.5
q-21 8.5 -46 24.5q-12 7 -23.5 13t-20.5 6q-20 0 -31 -12t-13 -34h-80q1 60 31.5 92.5t84.5 32.5q26 0 44.5 -8t46.5 -24q16 -10 26.5 -15t20.5 -5q20 0 31 12.5t13 32.5h78q-1 -58 -31 -91t-83 -33q-27 0 -48 8.5z" />
    <glyph glyph-name="uni0200.ss01" horiz-adv-x="796" 
d="M567 674q72 -38 112 -112t40 -179v-383h-162v168h-320v-168h-160v383q0 105 40 179t112 112t169 38t169 -38zM557 298v100q0 87 -43 131.5t-117 44.5q-75 0 -117.5 -44.5t-42.5 -131.5v-100h320zM136 901h146l72 -144h-114zM338 901h146l72 -144h-114z" />
    <glyph glyph-name="Adieresis.ss01" horiz-adv-x="796" 
d="M567 674q72 -38 112 -112t40 -179v-383h-162v168h-320v-168h-160v383q0 105 40 179t112 112t169 38t169 -38zM557 298v100q0 87 -43 131.5t-117 44.5q-75 0 -117.5 -44.5t-42.5 -131.5v-100h320zM247 781.5q-20 19.5 -20 49.5t20 49.5t50 19.5t49.5 -19.5t19.5 -49.5
t-19.5 -49.5t-49.5 -19.5t-50 19.5zM449.5 781.5q-19.5 19.5 -19.5 49.5t19.5 49.5t49.5 19.5t50 -19.5t20 -49.5t-20 -49.5t-50 -19.5t-49.5 19.5z" />
    <glyph glyph-name="uni1EA0.ss01" horiz-adv-x="796" 
d="M567 674q72 -38 112 -112t40 -179v-383h-162v168h-320v-168h-160v383q0 105 40 179t112 112t169 38t169 -38zM557 298v100q0 87 -43 131.5t-117 44.5q-75 0 -117.5 -44.5t-42.5 -131.5v-100h320zM348.5 -191.5q-19.5 18.5 -19.5 48.5t19.5 50t49.5 20q29 0 49 -20t20 -50
t-19.5 -48.5t-49.5 -18.5t-49.5 18.5z" />
    <glyph glyph-name="Agrave.ss01" horiz-adv-x="796" 
d="M567 674q72 -38 112 -112t40 -179v-383h-162v168h-320v-168h-160v383q0 105 40 179t112 112t169 38t169 -38zM557 298v100q0 87 -43 131.5t-117 44.5q-75 0 -117.5 -44.5t-42.5 -131.5v-100h320zM186 901h168l135 -144h-122z" />
    <glyph glyph-name="uni1EA2.ss01" horiz-adv-x="796" 
d="M567 674q72 -38 112 -112t40 -179v-383h-162v168h-320v-168h-160v383q0 105 40 179t112 112t169 38t169 -38zM557 298v100q0 87 -43 131.5t-117 44.5q-75 0 -117.5 -44.5t-42.5 -131.5v-100h320zM379 799q28 13 39.5 28t11.5 33q0 19 -13 30.5t-34 11.5q-30 0 -59 -19
l-32 63q43 34 108 34q53 0 86.5 -29.5t33.5 -77.5q0 -84 -92 -126z" />
    <glyph glyph-name="uni0202.ss01" horiz-adv-x="796" 
d="M567 674q72 -38 112 -112t40 -179v-383h-162v168h-320v-168h-160v383q0 105 40 179t112 112t169 38t169 -38zM557 298v100q0 87 -43 131.5t-117 44.5q-75 0 -117.5 -44.5t-42.5 -131.5v-100h320zM268 868q51 41 130 41t130 -41t54 -111h-98q-1 32 -25.5 51.5t-60.5 19.5
t-60.5 -19.5t-25.5 -51.5h-98q3 70 54 111z" />
    <glyph glyph-name="Amacron.ss01" horiz-adv-x="796" 
d="M567 674q72 -38 112 -112t40 -179v-383h-162v168h-320v-168h-160v383q0 105 40 179t112 112t169 38t169 -38zM557 298v100q0 87 -43 131.5t-117 44.5q-75 0 -117.5 -44.5t-42.5 -131.5v-100h320zM213 873h370v-88h-370v88z" />
    <glyph glyph-name="Aogonek.ss01" horiz-adv-x="796" 
d="M567 674q72 -38 112 -112t40 -179v-383h-162v168h-320v-168h-160v383q0 105 40 179t112 112t169 38t169 -38zM557 298v100q0 87 -43 131.5t-117 44.5q-75 0 -117.5 -44.5t-42.5 -131.5v-100h320zM540 -201.5q-37 30.5 -37 81.5q0 49 38.5 91t115.5 70l62 -41
q-63 -28 -90 -53.5t-27 -53.5q0 -21 15.5 -33.5t41.5 -12.5q34 0 61 15l22 -71q-19 -10 -46 -16.5t-55 -6.5q-64 0 -101 30.5z" />
    <glyph glyph-name="Aring.ss01" horiz-adv-x="796" 
d="M567 674q72 -38 112 -112t40 -179v-383h-162v168h-320v-168h-160v383q0 105 40 179t112 112t169 38t169 -38zM557 298v100q0 87 -43 131.5t-117 44.5q-75 0 -117.5 -44.5t-42.5 -131.5v-100h320zM309.5 789q-35.5 35 -35.5 86t35.5 86t87.5 35q53 0 89 -35t36 -86
t-36 -86t-89 -35q-52 0 -87.5 35zM440.5 831.5q17.5 17.5 17.5 43.5t-17.5 43.5t-43.5 17.5q-25 0 -42.5 -17.5t-17.5 -43.5t17 -43.5t43 -17.5t43.5 17.5z" />
    <glyph glyph-name="Aringacute.ss01" horiz-adv-x="796" 
d="M567 674q72 -38 112 -112t40 -179v-383h-162v168h-320v-168h-160v383q0 105 40 179t112 112t169 38t169 -38zM557 298v100q0 87 -43 131.5t-117 44.5q-75 0 -117.5 -44.5t-42.5 -131.5v-100h320zM505 938q17 -29 17 -63q0 -51 -36 -86t-89 -35q-52 0 -87.5 35t-35.5 86
t35.5 86t87.5 35q25 0 52 -10l87 90l77 -60zM440.5 831.5q17.5 17.5 17.5 43.5t-17.5 43.5t-43.5 17.5q-25 0 -42.5 -17.5t-17.5 -43.5t17 -43.5t43 -17.5t43.5 17.5z" />
    <glyph glyph-name="Atilde.ss01" horiz-adv-x="796" 
d="M567 674q72 -38 112 -112t40 -179v-383h-162v168h-320v-168h-160v383q0 105 40 179t112 112t169 38t169 -38zM557 298v100q0 87 -43 131.5t-117 44.5q-75 0 -117.5 -44.5t-42.5 -131.5v-100h320zM425.5 764.5q-20.5 10.5 -45.5 28.5q-16 12 -26.5 18t-20.5 6
q-21 0 -34 -14.5t-14 -41.5h-79q2 67 33.5 106.5t83.5 39.5q26 0 46.5 -10.5t46.5 -29.5q16 -12 26.5 -18t20.5 -6q20 0 33.5 14.5t14.5 39.5h79q-2 -65 -33.5 -104t-83.5 -39q-27 0 -47.5 10.5z" />
    <glyph glyph-name="AE.ss01" horiz-adv-x="1086" 
d="M1049 129v-129h-543v177h-273v-177h-163v385q0 152 81 233.5t233 81.5h651v-129h-369v-154h327v-123h-327v-165h383zM506 305v257h-108q-84 0 -124.5 -44.5t-40.5 -136.5v-76h273z" />
    <glyph glyph-name="AEacute.ss01" horiz-adv-x="1086" 
d="M1049 129v-129h-543v177h-273v-177h-163v385q0 152 81 233.5t233 81.5h651v-129h-369v-154h327v-123h-327v-165h383zM506 305v257h-108q-84 0 -124.5 -44.5t-40.5 -136.5v-76h273zM583 901h168l-181 -144h-122z" />
    <glyph glyph-name="uni01C4.ss01" horiz-adv-x="1449" 
d="M83 700h318q114 0 201.5 -43.5t136 -122.5t48.5 -184t-48.5 -184t-136 -122.5t-201.5 -43.5h-318v700zM393 133q105 0 167.5 58.5t62.5 158.5t-62.5 158.5t-167.5 58.5h-148v-434h148zM1432 130v-130h-612v94l166 202h-111v121h210l126 153h-384v130h590v-93l-158 -193
h102v-120h-200l-135 -164h406zM1326 901l-132 -144h-138l-132 144h114l87 -75l87 75h114z" />
    <glyph glyph-name="uni01C5.ss01" horiz-adv-x="1379" 
d="M83 700h318q114 0 201.5 -43.5t136 -122.5t48.5 -184t-48.5 -184t-136 -122.5t-201.5 -43.5h-318v700zM393 133q105 0 167.5 58.5t62.5 158.5t-62.5 158.5t-167.5 58.5h-148v-434h148zM1346 120v-120h-480v94l107 126h-73v104h161l79 94h-267v120h464v-94l-102 -121h76
v-104h-164l-84 -99h283zM1303 751l-132 -144h-138l-132 144h114l87 -75l87 75h114z" />
    <glyph glyph-name="E.ss01" horiz-adv-x="667" 
d="M655 60q-50 -34 -125.5 -53t-160.5 -19q-106 0 -180 26.5t-112 74t-38 108.5q0 56 31 99t85 64q-41 22 -63.5 60t-22.5 85q0 57 35 104t106 75t174 28q68 0 133 -13.5t113 -36.5l-45 -124q-92 43 -195 43q-78 0 -117.5 -23.5t-39.5 -63.5q0 -37 26.5 -56.5t80.5 -19.5
h191v-128h-201q-61 0 -94 -21t-33 -61q0 -42 42.5 -65.5t130.5 -23.5q62 0 124 16.5t105 46.5z" />
    <glyph glyph-name="Eacute.ss01" horiz-adv-x="667" 
d="M655 60q-50 -34 -125.5 -53t-160.5 -19q-106 0 -180 26.5t-112 74t-38 108.5q0 56 31 99t85 64q-41 22 -63.5 60t-22.5 85q0 57 35 104t106 75t174 28q68 0 133 -13.5t113 -36.5l-45 -124q-92 43 -195 43q-78 0 -117.5 -23.5t-39.5 -63.5q0 -37 26.5 -56.5t80.5 -19.5
h191v-128h-201q-61 0 -94 -21t-33 -61q0 -42 42.5 -65.5t130.5 -23.5q62 0 124 16.5t105 46.5zM406 901h168l-181 -144h-122z" />
    <glyph glyph-name="Ebreve.ss01" horiz-adv-x="667" 
d="M655 60q-50 -34 -125.5 -53t-160.5 -19q-106 0 -180 26.5t-112 74t-38 108.5q0 56 31 99t85 64q-41 22 -63.5 60t-22.5 85q0 57 35 104t106 75t174 28q68 0 133 -13.5t113 -36.5l-45 -124q-92 43 -195 43q-78 0 -117.5 -23.5t-39.5 -63.5q0 -37 26.5 -56.5t80.5 -19.5
h191v-128h-201q-61 0 -94 -21t-33 -61q0 -42 42.5 -65.5t130.5 -23.5q62 0 124 16.5t105 46.5zM232 790q-51 41 -54 111h98q1 -32 25.5 -51.5t60.5 -19.5t60.5 19.5t25.5 51.5h98q-3 -70 -54 -111t-130 -41t-130 41z" />
    <glyph glyph-name="Ecaron.ss01" horiz-adv-x="667" 
d="M655 60q-50 -34 -125.5 -53t-160.5 -19q-106 0 -180 26.5t-112 74t-38 108.5q0 56 31 99t85 64q-41 22 -63.5 60t-22.5 85q0 57 35 104t106 75t174 28q68 0 133 -13.5t113 -36.5l-45 -124q-92 43 -195 43q-78 0 -117.5 -23.5t-39.5 -63.5q0 -37 26.5 -56.5t80.5 -19.5
h191v-128h-201q-61 0 -94 -21t-33 -61q0 -42 42.5 -65.5t130.5 -23.5q62 0 124 16.5t105 46.5zM563 901l-132 -144h-138l-132 144h114l87 -75l87 75h114z" />
    <glyph glyph-name="uni1E1C.ss01" horiz-adv-x="667" 
d="M655 60q-50 -34 -125.5 -53t-160.5 -19q-106 0 -180 26.5t-112 74t-38 108.5q0 56 31 99t85 64q-41 22 -63.5 60t-22.5 85q0 57 35 104t106 75t174 28q68 0 133 -13.5t113 -36.5l-45 -124q-92 43 -195 43q-78 0 -117.5 -23.5t-39.5 -63.5q0 -37 26.5 -56.5t80.5 -19.5
h191v-128h-201q-61 0 -94 -21t-33 -61q0 -42 42.5 -65.5t130.5 -23.5q62 0 124 16.5t105 46.5zM278 -226.5q-25 5.5 -42 15.5l24 67q32 -15 65 -15q52 0 52 32q0 29 -49 29h-34l26 106h83l-14 -58q44 -5 65.5 -27.5t21.5 -55.5q0 -46 -40 -72.5t-107 -26.5q-26 0 -51 5.5z
M232 790q-51 41 -54 111h98q1 -32 25.5 -51.5t60.5 -19.5t60.5 19.5t25.5 51.5h98q-3 -70 -54 -111t-130 -41t-130 41z" />
    <glyph glyph-name="Ecircumflex.ss01" horiz-adv-x="667" 
d="M655 60q-50 -34 -125.5 -53t-160.5 -19q-106 0 -180 26.5t-112 74t-38 108.5q0 56 31 99t85 64q-41 22 -63.5 60t-22.5 85q0 57 35 104t106 75t174 28q68 0 133 -13.5t113 -36.5l-45 -124q-92 43 -195 43q-78 0 -117.5 -23.5t-39.5 -63.5q0 -37 26.5 -56.5t80.5 -19.5
h191v-128h-201q-61 0 -94 -21t-33 -61q0 -42 42.5 -65.5t130.5 -23.5q62 0 124 16.5t105 46.5zM449 757l-87 76l-87 -76h-114l132 144h138l132 -144h-114z" />
    <glyph glyph-name="uni1EBE.ss01" horiz-adv-x="667" 
d="M655 60q-50 -34 -125.5 -53t-160.5 -19q-106 0 -180 26.5t-112 74t-38 108.5q0 56 31 99t85 64q-41 22 -63.5 60t-22.5 85q0 57 35 104t106 75t174 28q68 0 133 -13.5t113 -36.5l-45 -124q-92 43 -195 43q-78 0 -117.5 -23.5t-39.5 -63.5q0 -37 26.5 -56.5t80.5 -19.5
h191v-128h-201q-61 0 -94 -21t-33 -61q0 -42 42.5 -65.5t130.5 -23.5q62 0 124 16.5t105 46.5zM448 757l-86 57l-86 -57h-115l133 114h136l133 -114h-115zM593 974h159l-157 -121h-113z" />
    <glyph glyph-name="uni1EC6.ss01" horiz-adv-x="667" 
d="M655 60q-50 -34 -125.5 -53t-160.5 -19q-106 0 -180 26.5t-112 74t-38 108.5q0 56 31 99t85 64q-41 22 -63.5 60t-22.5 85q0 57 35 104t106 75t174 28q68 0 133 -13.5t113 -36.5l-45 -124q-92 43 -195 43q-78 0 -117.5 -23.5t-39.5 -63.5q0 -37 26.5 -56.5t80.5 -19.5
h191v-128h-201q-61 0 -94 -21t-33 -61q0 -42 42.5 -65.5t130.5 -23.5q62 0 124 16.5t105 46.5zM312.5 -191.5q-19.5 18.5 -19.5 48.5t19.5 50t49.5 20q29 0 49 -20t20 -50t-19.5 -48.5t-49.5 -18.5t-49.5 18.5zM449 757l-87 76l-87 -76h-114l132 144h138l132 -144h-114z" />
    <glyph glyph-name="uni1EC0.ss01" horiz-adv-x="667" 
d="M655 60q-50 -34 -125.5 -53t-160.5 -19q-106 0 -180 26.5t-112 74t-38 108.5q0 56 31 99t85 64q-41 22 -63.5 60t-22.5 85q0 57 35 104t106 75t174 28q68 0 133 -13.5t113 -36.5l-45 -124q-92 43 -195 43q-78 0 -117.5 -23.5t-39.5 -63.5q0 -37 26.5 -56.5t80.5 -19.5
h191v-128h-201q-61 0 -94 -21t-33 -61q0 -42 42.5 -65.5t130.5 -23.5q62 0 124 16.5t105 46.5zM448 757l-86 57l-86 -57h-115l133 114h136l133 -114h-115zM385 974h159l110 -121h-112z" />
    <glyph glyph-name="uni1EC2.ss01" horiz-adv-x="667" 
d="M655 60q-50 -34 -125.5 -53t-160.5 -19q-106 0 -180 26.5t-112 74t-38 108.5q0 56 31 99t85 64q-41 22 -63.5 60t-22.5 85q0 57 35 104t106 75t174 28q68 0 133 -13.5t113 -36.5l-45 -124q-92 43 -195 43q-78 0 -117.5 -23.5t-39.5 -63.5q0 -37 26.5 -56.5t80.5 -19.5
h191v-128h-201q-61 0 -94 -21t-33 -61q0 -42 42.5 -65.5t130.5 -23.5q62 0 124 16.5t105 46.5zM448 757l-86 57l-86 -57h-115l133 114h136l133 -114h-115zM502 871q37 18 37 42q0 13 -9.5 21t-24.5 8q-21 0 -44 -12l-26 48q34 22 83 22q42 0 67 -21.5t25 -57.5
q0 -29 -19.5 -52t-50.5 -35z" />
    <glyph glyph-name="uni1EC4.ss01" horiz-adv-x="667" 
d="M655 60q-50 -34 -125.5 -53t-160.5 -19q-106 0 -180 26.5t-112 74t-38 108.5q0 56 31 99t85 64q-41 22 -63.5 60t-22.5 85q0 57 35 104t106 75t174 28q68 0 133 -13.5t113 -36.5l-45 -124q-92 43 -195 43q-78 0 -117.5 -23.5t-39.5 -63.5q0 -37 26.5 -56.5t80.5 -19.5
h191v-128h-201q-61 0 -94 -21t-33 -61q0 -42 42.5 -65.5t130.5 -23.5q62 0 124 16.5t105 46.5zM448 757l-86 57l-86 -57h-115l133 114h136l133 -114h-115zM388 914.5q-21 8.5 -46 24.5q-12 7 -23.5 13t-20.5 6q-20 0 -31 -12t-13 -34h-80q1 60 31.5 92.5t84.5 32.5
q26 0 44.5 -8t46.5 -24q16 -10 26.5 -15t20.5 -5q20 0 31 12.5t13 32.5h78q-1 -58 -31 -91t-83 -33q-27 0 -48 8.5z" />
    <glyph glyph-name="uni0204.ss01" horiz-adv-x="667" 
d="M655 60q-50 -34 -125.5 -53t-160.5 -19q-106 0 -180 26.5t-112 74t-38 108.5q0 56 31 99t85 64q-41 22 -63.5 60t-22.5 85q0 57 35 104t106 75t174 28q68 0 133 -13.5t113 -36.5l-45 -124q-92 43 -195 43q-78 0 -117.5 -23.5t-39.5 -63.5q0 -37 26.5 -56.5t80.5 -19.5
h191v-128h-201q-61 0 -94 -21t-33 -61q0 -42 42.5 -65.5t130.5 -23.5q62 0 124 16.5t105 46.5zM100 901h146l72 -144h-114zM302 901h146l72 -144h-114z" />
    <glyph glyph-name="Edieresis.ss01" horiz-adv-x="667" 
d="M655 60q-50 -34 -125.5 -53t-160.5 -19q-106 0 -180 26.5t-112 74t-38 108.5q0 56 31 99t85 64q-41 22 -63.5 60t-22.5 85q0 57 35 104t106 75t174 28q68 0 133 -13.5t113 -36.5l-45 -124q-92 43 -195 43q-78 0 -117.5 -23.5t-39.5 -63.5q0 -37 26.5 -56.5t80.5 -19.5
h191v-128h-201q-61 0 -94 -21t-33 -61q0 -42 42.5 -65.5t130.5 -23.5q62 0 124 16.5t105 46.5zM211 781.5q-20 19.5 -20 49.5t20 49.5t50 19.5t49.5 -19.5t19.5 -49.5t-19.5 -49.5t-49.5 -19.5t-50 19.5zM413.5 781.5q-19.5 19.5 -19.5 49.5t19.5 49.5t49.5 19.5t50 -19.5
t20 -49.5t-20 -49.5t-50 -19.5t-49.5 19.5z" />
    <glyph glyph-name="Edotaccent.ss01" horiz-adv-x="667" 
d="M655 60q-50 -34 -125.5 -53t-160.5 -19q-106 0 -180 26.5t-112 74t-38 108.5q0 56 31 99t85 64q-41 22 -63.5 60t-22.5 85q0 57 35 104t106 75t174 28q68 0 133 -13.5t113 -36.5l-45 -124q-92 43 -195 43q-78 0 -117.5 -23.5t-39.5 -63.5q0 -37 26.5 -56.5t80.5 -19.5
h191v-128h-201q-61 0 -94 -21t-33 -61q0 -42 42.5 -65.5t130.5 -23.5q62 0 124 16.5t105 46.5zM301.5 786q-23.5 24 -23.5 61q0 36 23.5 60t60.5 24t60.5 -24t23.5 -60q0 -37 -23.5 -61t-60.5 -24t-60.5 24z" />
    <glyph glyph-name="uni1EB8.ss01" horiz-adv-x="667" 
d="M655 60q-50 -34 -125.5 -53t-160.5 -19q-106 0 -180 26.5t-112 74t-38 108.5q0 56 31 99t85 64q-41 22 -63.5 60t-22.5 85q0 57 35 104t106 75t174 28q68 0 133 -13.5t113 -36.5l-45 -124q-92 43 -195 43q-78 0 -117.5 -23.5t-39.5 -63.5q0 -37 26.5 -56.5t80.5 -19.5
h191v-128h-201q-61 0 -94 -21t-33 -61q0 -42 42.5 -65.5t130.5 -23.5q62 0 124 16.5t105 46.5zM312.5 -191.5q-19.5 18.5 -19.5 48.5t19.5 50t49.5 20q29 0 49 -20t20 -50t-19.5 -48.5t-49.5 -18.5t-49.5 18.5z" />
    <glyph glyph-name="Egrave.ss01" horiz-adv-x="667" 
d="M655 60q-50 -34 -125.5 -53t-160.5 -19q-106 0 -180 26.5t-112 74t-38 108.5q0 56 31 99t85 64q-41 22 -63.5 60t-22.5 85q0 57 35 104t106 75t174 28q68 0 133 -13.5t113 -36.5l-45 -124q-92 43 -195 43q-78 0 -117.5 -23.5t-39.5 -63.5q0 -37 26.5 -56.5t80.5 -19.5
h191v-128h-201q-61 0 -94 -21t-33 -61q0 -42 42.5 -65.5t130.5 -23.5q62 0 124 16.5t105 46.5zM150 901h168l135 -144h-122z" />
    <glyph glyph-name="uni1EBA.ss01" horiz-adv-x="667" 
d="M655 60q-50 -34 -125.5 -53t-160.5 -19q-106 0 -180 26.5t-112 74t-38 108.5q0 56 31 99t85 64q-41 22 -63.5 60t-22.5 85q0 57 35 104t106 75t174 28q68 0 133 -13.5t113 -36.5l-45 -124q-92 43 -195 43q-78 0 -117.5 -23.5t-39.5 -63.5q0 -37 26.5 -56.5t80.5 -19.5
h191v-128h-201q-61 0 -94 -21t-33 -61q0 -42 42.5 -65.5t130.5 -23.5q62 0 124 16.5t105 46.5zM343 799q28 13 39.5 28t11.5 33q0 19 -13 30.5t-34 11.5q-30 0 -59 -19l-32 63q43 34 108 34q53 0 86.5 -29.5t33.5 -77.5q0 -84 -92 -126z" />
    <glyph glyph-name="uni0206.ss01" horiz-adv-x="667" 
d="M655 60q-50 -34 -125.5 -53t-160.5 -19q-106 0 -180 26.5t-112 74t-38 108.5q0 56 31 99t85 64q-41 22 -63.5 60t-22.5 85q0 57 35 104t106 75t174 28q68 0 133 -13.5t113 -36.5l-45 -124q-92 43 -195 43q-78 0 -117.5 -23.5t-39.5 -63.5q0 -37 26.5 -56.5t80.5 -19.5
h191v-128h-201q-61 0 -94 -21t-33 -61q0 -42 42.5 -65.5t130.5 -23.5q62 0 124 16.5t105 46.5zM232 868q51 41 130 41t130 -41t54 -111h-98q-1 32 -25.5 51.5t-60.5 19.5t-60.5 -19.5t-25.5 -51.5h-98q3 70 54 111z" />
    <glyph glyph-name="Emacron.ss01" horiz-adv-x="667" 
d="M655 60q-50 -34 -125.5 -53t-160.5 -19q-106 0 -180 26.5t-112 74t-38 108.5q0 56 31 99t85 64q-41 22 -63.5 60t-22.5 85q0 57 35 104t106 75t174 28q68 0 133 -13.5t113 -36.5l-45 -124q-92 43 -195 43q-78 0 -117.5 -23.5t-39.5 -63.5q0 -37 26.5 -56.5t80.5 -19.5
h191v-128h-201q-61 0 -94 -21t-33 -61q0 -42 42.5 -65.5t130.5 -23.5q62 0 124 16.5t105 46.5zM177 873h370v-88h-370v88z" />
    <glyph glyph-name="uni1E16.ss01" horiz-adv-x="667" 
d="M655 60q-50 -34 -125.5 -53t-160.5 -19q-106 0 -180 26.5t-112 74t-38 108.5q0 56 31 99t85 64q-41 22 -63.5 60t-22.5 85q0 57 35 104t106 75t174 28q68 0 133 -13.5t113 -36.5l-45 -124q-92 43 -195 43q-78 0 -117.5 -23.5t-39.5 -63.5q0 -37 26.5 -56.5t80.5 -19.5
h191v-128h-201q-61 0 -94 -21t-33 -61q0 -42 42.5 -65.5t130.5 -23.5q62 0 124 16.5t105 46.5zM177 856h370v-83h-370v83zM387 1039h159l-157 -121h-113z" />
    <glyph glyph-name="uni1E14.ss01" horiz-adv-x="667" 
d="M655 60q-50 -34 -125.5 -53t-160.5 -19q-106 0 -180 26.5t-112 74t-38 108.5q0 56 31 99t85 64q-41 22 -63.5 60t-22.5 85q0 57 35 104t106 75t174 28q68 0 133 -13.5t113 -36.5l-45 -124q-92 43 -195 43q-78 0 -117.5 -23.5t-39.5 -63.5q0 -37 26.5 -56.5t80.5 -19.5
h191v-128h-201q-61 0 -94 -21t-33 -61q0 -42 42.5 -65.5t130.5 -23.5q62 0 124 16.5t105 46.5zM177 856h370v-83h-370v83zM179 1039h159l110 -121h-112z" />
    <glyph glyph-name="Eogonek.ss01" horiz-adv-x="667" 
d="M618 -138l22 -71q-19 -10 -46 -16.5t-54 -6.5q-65 0 -102 30.5t-37 81.5q0 64 51 114q-40 -6 -83 -6q-106 0 -180 26.5t-112 74t-38 108.5q0 56 31 99t85 64q-41 22 -63.5 60t-22.5 85q0 57 35 104t106 75t174 28q68 0 133 -13.5t113 -36.5l-45 -124q-92 43 -195 43
q-78 0 -117.5 -23.5t-39.5 -63.5q0 -37 26.5 -56.5t80.5 -19.5h191v-128h-201q-61 0 -94 -21t-33 -61q0 -42 42.5 -65.5t130.5 -23.5q61 0 123 17t106 46l50 -122q-155 -89 -155 -164q0 -23 15.5 -36t41.5 -13q34 0 61 15z" />
    <glyph glyph-name="uni1EBC.ss01" horiz-adv-x="667" 
d="M655 60q-50 -34 -125.5 -53t-160.5 -19q-106 0 -180 26.5t-112 74t-38 108.5q0 56 31 99t85 64q-41 22 -63.5 60t-22.5 85q0 57 35 104t106 75t174 28q68 0 133 -13.5t113 -36.5l-45 -124q-92 43 -195 43q-78 0 -117.5 -23.5t-39.5 -63.5q0 -37 26.5 -56.5t80.5 -19.5
h191v-128h-201q-61 0 -94 -21t-33 -61q0 -42 42.5 -65.5t130.5 -23.5q62 0 124 16.5t105 46.5zM389.5 764.5q-20.5 10.5 -45.5 28.5q-16 12 -26.5 18t-20.5 6q-21 0 -34 -14.5t-14 -41.5h-79q2 67 33.5 106.5t83.5 39.5q26 0 46.5 -10.5t46.5 -29.5q16 -12 26.5 -18t20.5 -6
q20 0 33.5 14.5t14.5 39.5h79q-2 -65 -33.5 -104t-83.5 -39q-27 0 -47.5 10.5z" />
    <glyph glyph-name="F.ss01" horiz-adv-x="615" 
d="M282 537.5q-43 -36.5 -43 -109.5v-43h288v-130h-288v-255h-162v427q0 135 84.5 210t236.5 75q60 0 113 -12.5t92 -36.5l-50 -128q-60 39 -144 39t-127 -36.5z" />
    <glyph glyph-name="G.ss01" horiz-adv-x="771" 
d="M556 361h148v-361h-122v42q-73 -54 -188 -54q-97 0 -178 42t-129 122.5t-48 191.5q0 107 49.5 190.5t137.5 130.5t198 47q92 0 167 -31t126 -90l-104 -96q-75 79 -181 79q-67 0 -119 -28.5t-81 -80.5t-29 -120q0 -71 28.5 -121t76.5 -75.5t105 -25.5q85 0 143 48v190z
" />
    <glyph glyph-name="Gbreve.ss01" horiz-adv-x="771" 
d="M556 361h148v-361h-122v42q-73 -54 -188 -54q-97 0 -178 42t-129 122.5t-48 191.5q0 107 49.5 190.5t137.5 130.5t198 47q92 0 167 -31t126 -90l-104 -96q-75 79 -181 79q-67 0 -119 -28.5t-81 -80.5t-29 -120q0 -71 28.5 -121t76.5 -75.5t105 -25.5q85 0 143 48v190z
M287 790q-51 41 -54 111h98q1 -32 25.5 -51.5t60.5 -19.5t60.5 19.5t25.5 51.5h98q-3 -70 -54 -111t-130 -41t-130 41z" />
    <glyph glyph-name="Gcaron.ss01" horiz-adv-x="771" 
d="M556 361h148v-361h-122v42q-73 -54 -188 -54q-97 0 -178 42t-129 122.5t-48 191.5q0 107 49.5 190.5t137.5 130.5t198 47q92 0 167 -31t126 -90l-104 -96q-75 79 -181 79q-67 0 -119 -28.5t-81 -80.5t-29 -120q0 -71 28.5 -121t76.5 -75.5t105 -25.5q85 0 143 48v190z
M618 901l-132 -144h-138l-132 144h114l87 -75l87 75h114z" />
    <glyph glyph-name="Gcircumflex.ss01" horiz-adv-x="771" 
d="M556 361h148v-361h-122v42q-73 -54 -188 -54q-97 0 -178 42t-129 122.5t-48 191.5q0 107 49.5 190.5t137.5 130.5t198 47q92 0 167 -31t126 -90l-104 -96q-75 79 -181 79q-67 0 -119 -28.5t-81 -80.5t-29 -120q0 -71 28.5 -121t76.5 -75.5t105 -25.5q85 0 143 48v190z
M504 757l-87 76l-87 -76h-114l132 144h138l132 -144h-114z" />
    <glyph glyph-name="Gcommaaccent.ss01" horiz-adv-x="771" 
d="M556 361h148v-361h-122v42q-73 -54 -188 -54q-97 0 -178 42t-129 122.5t-48 191.5q0 107 49.5 190.5t137.5 130.5t198 47q92 0 167 -31t126 -90l-104 -96q-75 79 -181 79q-67 0 -119 -28.5t-81 -80.5t-29 -120q0 -71 28.5 -121t76.5 -75.5t105 -25.5q85 0 143 48v190z
M457.5 -87.5q18.5 -16.5 18.5 -43.5q0 -31 -18 -65l-35 -68h-73l25 80q-18 6 -27.5 19.5t-9.5 33.5q0 27 18.5 43.5t50.5 16.5t50.5 -16.5z" />
    <glyph glyph-name="Gdotaccent.ss01" horiz-adv-x="771" 
d="M556 361h148v-361h-122v42q-73 -54 -188 -54q-97 0 -178 42t-129 122.5t-48 191.5q0 107 49.5 190.5t137.5 130.5t198 47q92 0 167 -31t126 -90l-104 -96q-75 79 -181 79q-67 0 -119 -28.5t-81 -80.5t-29 -120q0 -71 28.5 -121t76.5 -75.5t105 -25.5q85 0 143 48v190z
M356.5 786q-23.5 24 -23.5 61q0 36 23.5 60t60.5 24t60.5 -24t23.5 -60q0 -37 -23.5 -61t-60.5 -24t-60.5 24z" />
    <glyph glyph-name="uni1E20.ss01" horiz-adv-x="771" 
d="M556 361h148v-361h-122v42q-73 -54 -188 -54q-97 0 -178 42t-129 122.5t-48 191.5q0 107 49.5 190.5t137.5 130.5t198 47q92 0 167 -31t126 -90l-104 -96q-75 79 -181 79q-67 0 -119 -28.5t-81 -80.5t-29 -120q0 -71 28.5 -121t76.5 -75.5t105 -25.5q85 0 143 48v190z
M232 873h370v-88h-370v88z" />
    <glyph glyph-name="uni01E4.ss01" horiz-adv-x="816" 
d="M556 361h148v-361h-122v42q-73 -54 -188 -54q-97 0 -178 42t-129 122.5t-48 191.5q0 107 49.5 190.5t137.5 130.5t198 47q92 0 167 -31t126 -90l-104 -96q-75 79 -181 79q-67 0 -119 -28.5t-81 -80.5t-29 -120q0 -71 28.5 -121t76.5 -75.5t105 -25.5q85 0 143 48v190z
M396.123 304.747h398.408v-107.144h-398.408v107.144z" />
    <glyph glyph-name="I.ss01" horiz-adv-x="483" 
d="M323 570v-440h121v-130h-405v130h122v440h-122v130h405v-130h-121z" />
    <glyph glyph-name="IJ.ss01" horiz-adv-x="724" 
d="M181 -88.5q-68 20.5 -120 56.5l61 122q46 -31 98.5 -47.5t103.5 -16.5q80 0 120.5 44.5t40.5 137.5v492h162v-482q0 -105 -39.5 -178.5t-111.5 -111t-169 -37.5q-78 0 -146 20.5zM77 700h162v-478h-162v478z" />
    <glyph glyph-name="Iacute.ss01" horiz-adv-x="483" 
d="M323 570v-440h121v-130h-405v130h122v440h-122v130h405v-130h-121zM286 901h168l-181 -144h-122z" />
    <glyph glyph-name="Iacute_J.loclNLD.ss01" horiz-adv-x="724" 
d="M218 901h156l-181 -144h-109zM626 901h156l-182 -144h-109zM181.5 -87q-68.5 21 -120.5 58l61 120q46 -30 98 -46.5t101 -16.5q82 0 122.5 44.5t40.5 138.5v489h163v-481q0 -105 -39.5 -178.5t-111.5 -111t-169 -37.5q-77 0 -145.5 21zM77 700h162v-478h-162v478z" />
    <glyph glyph-name="Ibreve.ss01" horiz-adv-x="483" 
d="M323 570v-440h121v-130h-405v130h122v440h-122v130h405v-130h-121zM112 790q-51 41 -54 111h98q1 -32 25.5 -51.5t60.5 -19.5t60.5 19.5t25.5 51.5h98q-3 -70 -54 -111t-130 -41t-130 41z" />
    <glyph glyph-name="Icircumflex.ss01" horiz-adv-x="483" 
d="M323 570v-440h121v-130h-405v130h122v440h-122v130h405v-130h-121zM329 757l-87 76l-87 -76h-114l132 144h138l132 -144h-114z" />
    <glyph glyph-name="uni0208.ss01" horiz-adv-x="483" 
d="M323 570v-440h121v-130h-405v130h122v440h-122v130h405v-130h-121zM-20 901h146l72 -144h-114zM182 901h146l72 -144h-114z" />
    <glyph glyph-name="Idieresis.ss01" horiz-adv-x="483" 
d="M323 570v-440h121v-130h-405v130h122v440h-122v130h405v-130h-121zM91 781.5q-20 19.5 -20 49.5t20 49.5t50 19.5t49.5 -19.5t19.5 -49.5t-19.5 -49.5t-49.5 -19.5t-50 19.5zM293.5 781.5q-19.5 19.5 -19.5 49.5t19.5 49.5t49.5 19.5t50 -19.5t20 -49.5t-20 -49.5
t-50 -19.5t-49.5 19.5z" />
    <glyph glyph-name="uni1E2E.ss01" horiz-adv-x="483" 
d="M323 570v-440h121v-130h-405v130h122v440h-122v130h405v-130h-121zM97 780.5q-19 18.5 -19 47.5q0 28 19 47t47 19q29 0 48 -19t19 -47q0 -29 -19 -47.5t-48 -18.5q-28 0 -47 18.5zM293 780.5q-19 18.5 -19 47.5q0 28 19.5 47t46.5 19q28 0 47 -19t19 -47
q0 -29 -19 -47.5t-47 -18.5t-47 18.5zM267 1039h159l-157 -121h-113z" />
    <glyph glyph-name="Idotaccent.ss01" horiz-adv-x="483" 
d="M323 570v-440h121v-130h-405v130h122v440h-122v130h405v-130h-121zM181.5 786q-23.5 24 -23.5 61q0 36 23.5 60t60.5 24t60.5 -24t23.5 -60q0 -37 -23.5 -61t-60.5 -24t-60.5 24z" />
    <glyph glyph-name="uni1ECA.ss01" horiz-adv-x="483" 
d="M323 570v-440h121v-130h-405v130h122v440h-122v130h405v-130h-121zM192.5 -191.5q-19.5 18.5 -19.5 48.5t19.5 50t49.5 20q29 0 49 -20t20 -50t-19.5 -48.5t-49.5 -18.5t-49.5 18.5z" />
    <glyph glyph-name="Igrave.ss01" horiz-adv-x="483" 
d="M323 570v-440h121v-130h-405v130h122v440h-122v130h405v-130h-121zM30 901h168l135 -144h-122z" />
    <glyph glyph-name="uni1EC8.ss01" horiz-adv-x="483" 
d="M323 570v-440h121v-130h-405v130h122v440h-122v130h405v-130h-121zM223 799q28 13 39.5 28t11.5 33q0 19 -13 30.5t-34 11.5q-30 0 -59 -19l-32 63q43 34 108 34q53 0 86.5 -29.5t33.5 -77.5q0 -84 -92 -126z" />
    <glyph glyph-name="uni020A.ss01" horiz-adv-x="483" 
d="M323 570v-440h121v-130h-405v130h122v440h-122v130h405v-130h-121zM112 868q51 41 130 41t130 -41t54 -111h-98q-1 32 -25.5 51.5t-60.5 19.5t-60.5 -19.5t-25.5 -51.5h-98q3 70 54 111z" />
    <glyph glyph-name="Imacron.ss01" horiz-adv-x="483" 
d="M323 570v-440h121v-130h-405v130h122v440h-122v130h405v-130h-121zM57 873h370v-88h-370v88z" />
    <glyph glyph-name="Iogonek.ss01" horiz-adv-x="483" 
d="M323 570v-440h121v-130h-405v130h122v440h-122v130h405v-130h-121zM194 -201.5q-33 30.5 -33 80.5q0 47 29 88.5t86 73.5l48 -41q-36 -29 -50.5 -54.5t-14.5 -51.5q0 -21 12 -34t30 -13t32 10l22 -68q-29 -21 -74 -21q-54 0 -87 30.5z" />
    <glyph glyph-name="Itilde.ss01" horiz-adv-x="483" 
d="M323 570v-440h121v-130h-405v130h122v440h-122v130h405v-130h-121zM269.5 764.5q-20.5 10.5 -45.5 28.5q-16 12 -26.5 18t-20.5 6q-21 0 -34 -14.5t-14 -41.5h-79q2 67 33.5 106.5t83.5 39.5q26 0 46.5 -10.5t46.5 -29.5q16 -12 26.5 -18t20.5 -6q20 0 33.5 14.5
t14.5 39.5h79q-2 -65 -33.5 -104t-83.5 -39q-27 0 -47.5 10.5z" />
    <glyph glyph-name="J.ss01" horiz-adv-x="540" 
d="M80.5 -85.5q-58.5 26.5 -96.5 75.5l88 108q57 -77 129 -77q100 0 100 116v433h-245v130h407v-554q0 -129 -64 -193.5t-189 -64.5q-71 0 -129.5 26.5z" />
    <glyph glyph-name="Jcircumflex.ss01" horiz-adv-x="540" 
d="M80.5 -85.5q-58.5 26.5 -96.5 75.5l88 108q57 -77 129 -77q100 0 100 116v433h-245v130h407v-554q0 -129 -64 -193.5t-189 -64.5q-71 0 -129.5 26.5zM347 757l-87 76l-87 -76h-114l132 144h138l132 -144h-114z" />
    <glyph glyph-name="uni01C7.ss01" horiz-adv-x="1174" 
d="M83 700h162v-568h351v-132h-513v700zM714.5 -85.5q-58.5 26.5 -96.5 75.5l88 108q57 -77 129 -77q100 0 100 116v433h-245v130h407v-554q0 -129 -64 -193.5t-189 -64.5q-71 0 -129.5 26.5z" />
    <glyph glyph-name="M.ss01" horiz-adv-x="1221" 
d="M1075 639.5q69 -72.5 69 -209.5v-430h-162v425q0 74 -38.5 111.5t-101.5 37.5q-69 0 -110 -39.5t-41 -119.5v-415h-162v425q0 74 -36 111.5t-98 37.5q-68 0 -109 -39.5t-41 -119.5v-415h-162v700h157v-86q32 47 85 72.5t122 25.5q72 0 126 -26.5t83 -76.5
q36 50 94.5 76.5t131.5 26.5q124 0 193 -72.5z" />
    <glyph glyph-name="uni1E42.ss01" horiz-adv-x="1221" 
d="M1075 639.5q69 -72.5 69 -209.5v-430h-162v425q0 74 -38.5 111.5t-101.5 37.5q-69 0 -110 -39.5t-41 -119.5v-415h-162v425q0 74 -36 111.5t-98 37.5q-68 0 -109 -39.5t-41 -119.5v-415h-162v700h157v-86q32 47 85 72.5t122 25.5q72 0 126 -26.5t83 -76.5
q36 50 94.5 76.5t131.5 26.5q124 0 193 -72.5zM561.5 -191.5q-19.5 18.5 -19.5 48.5t19.5 50t49.5 20q29 0 49 -20t20 -50t-19.5 -48.5t-49.5 -18.5t-49.5 18.5z" />
    <glyph glyph-name="N.ss01" horiz-adv-x="796" 
d="M649 633.5q70 -78.5 70 -223.5v-410h-162v405q0 84 -39.5 126.5t-109.5 42.5q-74 0 -118.5 -45.5t-44.5 -134.5v-394h-162v700h157v-85q36 48 90 72.5t124 24.5q125 0 195 -78.5z" />
    <glyph glyph-name="uni01CA.ss01" horiz-adv-x="1336" 
d="M649 633.5q70 -78.5 70 -223.5v-410h-162v405q0 84 -39.5 126.5t-109.5 42.5q-74 0 -118.5 -45.5t-44.5 -134.5v-394h-162v700h157v-85q36 48 90 72.5t124 24.5q125 0 195 -78.5zM876.5 -85.5q-58.5 26.5 -96.5 75.5l88 108q57 -77 129 -77q100 0 100 116v433h-245v130
h407v-554q0 -129 -64 -193.5t-189 -64.5q-71 0 -129.5 26.5z" />
    <glyph glyph-name="Nacute.ss01" horiz-adv-x="796" 
d="M649 633.5q70 -78.5 70 -223.5v-410h-162v405q0 84 -39.5 126.5t-109.5 42.5q-74 0 -118.5 -45.5t-44.5 -134.5v-394h-162v700h157v-85q36 48 90 72.5t124 24.5q125 0 195 -78.5zM445 901h168l-181 -144h-122z" />
    <glyph glyph-name="Ncaron.ss01" horiz-adv-x="796" 
d="M649 633.5q70 -78.5 70 -223.5v-410h-162v405q0 84 -39.5 126.5t-109.5 42.5q-74 0 -118.5 -45.5t-44.5 -134.5v-394h-162v700h157v-85q36 48 90 72.5t124 24.5q125 0 195 -78.5zM602 901l-132 -144h-138l-132 144h114l87 -75l87 75h114z" />
    <glyph glyph-name="Ncommaaccent.ss01" horiz-adv-x="796" 
d="M649 633.5q70 -78.5 70 -223.5v-410h-162v405q0 84 -39.5 126.5t-109.5 42.5q-74 0 -118.5 -45.5t-44.5 -134.5v-394h-162v700h157v-85q36 48 90 72.5t124 24.5q125 0 195 -78.5zM451.5 -89.5q18.5 -16.5 18.5 -43.5q0 -31 -18 -65l-35 -68h-73l25 80q-18 6 -27.5 19.5
t-9.5 33.5q0 27 18.5 43.5t50.5 16.5t50.5 -16.5z" />
    <glyph glyph-name="uni1E44.ss01" horiz-adv-x="796" 
d="M649 633.5q70 -78.5 70 -223.5v-410h-162v405q0 84 -39.5 126.5t-109.5 42.5q-74 0 -118.5 -45.5t-44.5 -134.5v-394h-162v700h157v-85q36 48 90 72.5t124 24.5q125 0 195 -78.5zM340.5 786q-23.5 24 -23.5 61q0 36 23.5 60t60.5 24t60.5 -24t23.5 -60q0 -37 -23.5 -61
t-60.5 -24t-60.5 24z" />
    <glyph glyph-name="uni1E46.ss01" horiz-adv-x="796" 
d="M649 633.5q70 -78.5 70 -223.5v-410h-162v405q0 84 -39.5 126.5t-109.5 42.5q-74 0 -118.5 -45.5t-44.5 -134.5v-394h-162v700h157v-85q36 48 90 72.5t124 24.5q125 0 195 -78.5zM351.5 -191.5q-19.5 18.5 -19.5 48.5t19.5 50t49.5 20q29 0 49 -20t20 -50t-19.5 -48.5
t-49.5 -18.5t-49.5 18.5z" />
    <glyph glyph-name="Eng.ss01" horiz-adv-x="796" 
d="M649 633.5q70 -78.5 70 -223.5v-353q0 -129 -64 -194t-187 -65q-56 0 -104.5 16.5t-84.5 49.5l76 116q44 -46 104 -46q48 0 73 29t25 87v355q0 84 -39.5 126.5t-109.5 42.5q-74 0 -118.5 -45.5t-44.5 -134.5v-394h-162v700h157v-85q36 48 90 72.5t124 24.5
q125 0 195 -78.5z" />
    <glyph glyph-name="uni01CB.ss01" horiz-adv-x="1103" 
d="M649 633.5q70 -78.5 70 -223.5v-410h-162v405q0 84 -39.5 126.5t-109.5 42.5q-74 0 -118.5 -45.5t-44.5 -134.5v-394h-162v700h157v-85q36 48 90 72.5t124 24.5q125 0 195 -78.5zM703 -172l42 113q27 -19 66 -19q30 0 47 19.5t17 58.5v538h156v-537q0 -94 -53.5 -148.5
t-149.5 -54.5q-82 0 -125 30zM883 638q-27 25 -27 62t27 62t70 25t70 -24t27 -60q0 -39 -27 -64.5t-70 -25.5t-70 25z" />
    <glyph glyph-name="uni1E48.ss01" horiz-adv-x="796" 
d="M649 633.5q70 -78.5 70 -223.5v-410h-162v405q0 84 -39.5 126.5t-109.5 42.5q-74 0 -118.5 -45.5t-44.5 -134.5v-394h-162v700h157v-85q36 48 90 72.5t124 24.5q125 0 195 -78.5zM216 -95h370v-87h-370v87z" />
    <glyph glyph-name="Ntilde.ss01" horiz-adv-x="796" 
d="M649 633.5q70 -78.5 70 -223.5v-410h-162v405q0 84 -39.5 126.5t-109.5 42.5q-74 0 -118.5 -45.5t-44.5 -134.5v-394h-162v700h157v-85q36 48 90 72.5t124 24.5q125 0 195 -78.5zM428.5 764.5q-20.5 10.5 -45.5 28.5q-16 12 -26.5 18t-20.5 6q-21 0 -34 -14.5t-14 -41.5
h-79q2 67 33.5 106.5t83.5 39.5q26 0 46.5 -10.5t46.5 -29.5q16 -12 26.5 -18t20.5 -6q20 0 33.5 14.5t14.5 39.5h79q-2 -65 -33.5 -104t-83.5 -39q-27 0 -47.5 10.5z" />
    <glyph glyph-name="Q.ss01" horiz-adv-x="844" 
d="M767 185.5q-38 -74.5 -106.5 -124.5t-157.5 -66v-130h-163v130q-88 16 -156.5 66t-106.5 125t-38 164q0 103 49.5 185.5t137 129.5t196.5 47t196 -47t137 -129.5t50 -185.5q0 -90 -38 -164.5zM602 214.5q39 56.5 39 135.5q0 65 -28.5 116t-78.5 79.5t-112 28.5
t-112 -28.5t-78.5 -79.5t-28.5 -116q0 -79 38.5 -135t104.5 -78v144h150v-144q67 21 106 77.5z" />
    <glyph glyph-name="uni018F.ss01" horiz-adv-x="817" 
d="M594 665.5q87 -46.5 135.5 -129t48.5 -185.5q0 -104 -48 -187t-132 -129.5t-189 -46.5q-130 0 -224.5 69t-129.5 188l535 215q-27 52 -78 83t-115 31q-56 0 -111 -21.5t-92 -60.5l-97 105q51 52 131 83.5t170 31.5q109 0 196 -46.5zM559 175q55 58 55 156v18l-369 -150
q23 -40 64.5 -61t99.5 -21q95 0 150 58z" />
    <glyph glyph-name="T.ss01" horiz-adv-x="638" 
d="M593 504q-90 52 -193 67v-571h-162v571q-103 -15 -194 -67l-55 121q72 43 156 65t173 22q90 0 174.5 -22t155.5 -65z" />
    <glyph glyph-name="Tbar.ss01" horiz-adv-x="638" 
d="M593 504q-90 52 -193 67v-571h-162v571q-103 -15 -194 -67l-55 121q72 43 156 65t173 22q90 0 174.5 -22t155.5 -65zM102 370h432v-108h-432v108z" />
    <glyph glyph-name="Tcaron.ss01" horiz-adv-x="638" 
d="M593 504q-90 52 -193 67v-571h-162v571q-103 -15 -194 -67l-55 121q72 43 156 65t173 22q90 0 174.5 -22t155.5 -65zM523 901l-132 -144h-138l-132 144h114l87 -75l87 75h114z" />
    <glyph glyph-name="uni0162.ss01" horiz-adv-x="638" 
d="M593 504q-90 52 -193 67v-571h-162v571q-103 -15 -194 -67l-55 121q72 43 156 65t173 22q90 0 174.5 -22t155.5 -65zM235 -226.5q-25 5.5 -42 15.5l24 67q32 -15 65 -15q52 0 52 32q0 29 -49 29h-34l26 106h83l-14 -58q44 -5 65.5 -27.5t21.5 -55.5q0 -46 -40 -72.5
t-107 -26.5q-26 0 -51 5.5z" />
    <glyph glyph-name="uni021A.ss01" horiz-adv-x="638" 
d="M593 504q-90 52 -193 67v-571h-162v571q-103 -15 -194 -67l-55 121q72 43 156 65t173 22q90 0 174.5 -22t155.5 -65zM369.5 -89.5q18.5 -16.5 18.5 -43.5q0 -31 -18 -65l-35 -68h-73l25 80q-18 6 -27.5 19.5t-9.5 33.5q0 27 18.5 43.5t50.5 16.5t50.5 -16.5z" />
    <glyph glyph-name="uni1E6C.ss01" horiz-adv-x="638" 
d="M593 504q-90 52 -193 67v-571h-162v571q-103 -15 -194 -67l-55 121q72 43 156 65t173 22q90 0 174.5 -22t155.5 -65zM269.5 -191.5q-19.5 18.5 -19.5 48.5t19.5 50t49.5 20q29 0 49 -20t20 -50t-19.5 -48.5t-49.5 -18.5t-49.5 18.5z" />
    <glyph glyph-name="uni1E6E.ss01" horiz-adv-x="638" 
d="M593 504q-90 52 -193 67v-571h-162v571q-103 -15 -194 -67l-55 121q72 43 156 65t173 22q90 0 174.5 -22t155.5 -65zM134 -95h370v-87h-370v87z" />
    <glyph glyph-name="U.ss01" horiz-adv-x="792" 
d="M709 700v-700h-157v85q-72 -97 -212 -97q-124 0 -193.5 78.5t-69.5 223.5v410h162v-405q0 -84 39.5 -126.5t107.5 -42.5q73 0 117 45.5t44 134.5v394h162z" />
    <glyph glyph-name="Uacute.ss01" horiz-adv-x="792" 
d="M709 700v-700h-157v85q-72 -97 -212 -97q-124 0 -193.5 78.5t-69.5 223.5v410h162v-405q0 -84 39.5 -126.5t107.5 -42.5q73 0 117 45.5t44 134.5v394h162zM435 901h168l-181 -144h-122z" />
    <glyph glyph-name="Ubreve.ss01" horiz-adv-x="792" 
d="M709 700v-700h-157v85q-72 -97 -212 -97q-124 0 -193.5 78.5t-69.5 223.5v410h162v-405q0 -84 39.5 -126.5t107.5 -42.5q73 0 117 45.5t44 134.5v394h162zM261 790q-51 41 -54 111h98q1 -32 25.5 -51.5t60.5 -19.5t60.5 19.5t25.5 51.5h98q-3 -70 -54 -111t-130 -41
t-130 41z" />
    <glyph glyph-name="uni01D3.ss01" horiz-adv-x="792" 
d="M709 700v-700h-157v85q-72 -97 -212 -97q-124 0 -193.5 78.5t-69.5 223.5v410h162v-405q0 -84 39.5 -126.5t107.5 -42.5q73 0 117 45.5t44 134.5v394h162zM592 901l-132 -144h-138l-132 144h114l87 -75l87 75h114z" />
    <glyph glyph-name="Ucircumflex.ss01" horiz-adv-x="792" 
d="M709 700v-700h-157v85q-72 -97 -212 -97q-124 0 -193.5 78.5t-69.5 223.5v410h162v-405q0 -84 39.5 -126.5t107.5 -42.5q73 0 117 45.5t44 134.5v394h162zM478 757l-87 76l-87 -76h-114l132 144h138l132 -144h-114z" />
    <glyph glyph-name="uni0214.ss01" horiz-adv-x="792" 
d="M709 700v-700h-157v85q-72 -97 -212 -97q-124 0 -193.5 78.5t-69.5 223.5v410h162v-405q0 -84 39.5 -126.5t107.5 -42.5q73 0 117 45.5t44 134.5v394h162zM129 901h146l72 -144h-114zM331 901h146l72 -144h-114z" />
    <glyph glyph-name="Udieresis.ss01" horiz-adv-x="792" 
d="M709 700v-700h-157v85q-72 -97 -212 -97q-124 0 -193.5 78.5t-69.5 223.5v410h162v-405q0 -84 39.5 -126.5t107.5 -42.5q73 0 117 45.5t44 134.5v394h162zM240 781.5q-20 19.5 -20 49.5t20 49.5t50 19.5t49.5 -19.5t19.5 -49.5t-19.5 -49.5t-49.5 -19.5t-50 19.5z
M442.5 781.5q-19.5 19.5 -19.5 49.5t19.5 49.5t49.5 19.5t50 -19.5t20 -49.5t-20 -49.5t-50 -19.5t-49.5 19.5z" />
    <glyph glyph-name="uni1EE4.ss01" horiz-adv-x="792" 
d="M709 700v-700h-157v85q-72 -97 -212 -97q-124 0 -193.5 78.5t-69.5 223.5v410h162v-405q0 -84 39.5 -126.5t107.5 -42.5q73 0 117 45.5t44 134.5v394h162zM341.5 -191.5q-19.5 18.5 -19.5 48.5t19.5 50t49.5 20q29 0 49 -20t20 -50t-19.5 -48.5t-49.5 -18.5t-49.5 18.5z
" />
    <glyph glyph-name="Ugrave.ss01" horiz-adv-x="792" 
d="M709 700v-700h-157v85q-72 -97 -212 -97q-124 0 -193.5 78.5t-69.5 223.5v410h162v-405q0 -84 39.5 -126.5t107.5 -42.5q73 0 117 45.5t44 134.5v394h162zM179 901h168l135 -144h-122z" />
    <glyph glyph-name="uni1EE6.ss01" horiz-adv-x="792" 
d="M709 700v-700h-157v85q-72 -97 -212 -97q-124 0 -193.5 78.5t-69.5 223.5v410h162v-405q0 -84 39.5 -126.5t107.5 -42.5q73 0 117 45.5t44 134.5v394h162zM372 799q28 13 39.5 28t11.5 33q0 19 -13 30.5t-34 11.5q-30 0 -59 -19l-32 63q43 34 108 34q53 0 86.5 -29.5
t33.5 -77.5q0 -84 -92 -126z" />
    <glyph glyph-name="Uhorn.ss01" horiz-adv-x="792" 
d="M709 700v-700h-157v85q-72 -97 -212 -97q-124 0 -193.5 78.5t-69.5 223.5v410h162v-405q0 -84 39.5 -126.5t107.5 -42.5q73 0 117 45.5t44 134.5v394h162zM619 700h27q27 0 43.5 17.5t16.5 45.5q0 35 -20 60l92 34q32 -42 32 -100q0 -75 -44.5 -118t-123.5 -43h-23v104z
" />
    <glyph glyph-name="uni1EE8.ss01" horiz-adv-x="792" 
d="M709 700v-700h-157v85q-72 -97 -212 -97q-124 0 -193.5 78.5t-69.5 223.5v410h162v-405q0 -84 39.5 -126.5t107.5 -42.5q73 0 117 45.5t44 134.5v394h162zM619 700h27q27 0 43.5 17.5t16.5 45.5q0 35 -20 60l92 34q32 -42 32 -100q0 -75 -44.5 -118t-123.5 -43h-23v104z
M435 901h168l-181 -144h-122z" />
    <glyph glyph-name="uni1EF0.ss01" horiz-adv-x="792" 
d="M709 700v-700h-157v85q-72 -97 -212 -97q-124 0 -193.5 78.5t-69.5 223.5v410h162v-405q0 -84 39.5 -126.5t107.5 -42.5q73 0 117 45.5t44 134.5v394h162zM619 700h27q27 0 43.5 17.5t16.5 45.5q0 35 -20 60l92 34q32 -42 32 -100q0 -75 -44.5 -118t-123.5 -43h-23v104z
M341.5 -191.5q-19.5 18.5 -19.5 48.5t19.5 50t49.5 20q29 0 49 -20t20 -50t-19.5 -48.5t-49.5 -18.5t-49.5 18.5z" />
    <glyph glyph-name="uni1EEA.ss01" horiz-adv-x="792" 
d="M709 700v-700h-157v85q-72 -97 -212 -97q-124 0 -193.5 78.5t-69.5 223.5v410h162v-405q0 -84 39.5 -126.5t107.5 -42.5q73 0 117 45.5t44 134.5v394h162zM619 700h27q27 0 43.5 17.5t16.5 45.5q0 35 -20 60l92 34q32 -42 32 -100q0 -75 -44.5 -118t-123.5 -43h-23v104z
M179 901h168l135 -144h-122z" />
    <glyph glyph-name="uni1EEC.ss01" horiz-adv-x="792" 
d="M709 700v-700h-157v85q-72 -97 -212 -97q-124 0 -193.5 78.5t-69.5 223.5v410h162v-405q0 -84 39.5 -126.5t107.5 -42.5q73 0 117 45.5t44 134.5v394h162zM619 700h27q27 0 43.5 17.5t16.5 45.5q0 35 -20 60l92 34q32 -42 32 -100q0 -75 -44.5 -118t-123.5 -43h-23v104z
M372 799q28 13 39.5 28t11.5 33q0 19 -13 30.5t-34 11.5q-30 0 -59 -19l-32 63q43 34 108 34q53 0 86.5 -29.5t33.5 -77.5q0 -84 -92 -126z" />
    <glyph glyph-name="uni1EEE.ss01" horiz-adv-x="792" 
d="M709 700v-700h-157v85q-72 -97 -212 -97q-124 0 -193.5 78.5t-69.5 223.5v410h162v-405q0 -84 39.5 -126.5t107.5 -42.5q73 0 117 45.5t44 134.5v394h162zM619 700h27q27 0 43.5 17.5t16.5 45.5q0 35 -20 60l92 34q32 -42 32 -100q0 -75 -44.5 -118t-123.5 -43h-23v104z
M418.5 764.5q-20.5 10.5 -45.5 28.5q-16 12 -26.5 18t-20.5 6q-21 0 -34 -14.5t-14 -41.5h-79q2 67 33.5 106.5t83.5 39.5q26 0 46.5 -10.5t46.5 -29.5q16 -12 26.5 -18t20.5 -6q20 0 33.5 14.5t14.5 39.5h79q-2 -65 -33.5 -104t-83.5 -39q-27 0 -47.5 10.5z" />
    <glyph glyph-name="Uhungarumlaut.ss01" horiz-adv-x="792" 
d="M709 700v-700h-157v85q-72 -97 -212 -97q-124 0 -193.5 78.5t-69.5 223.5v410h162v-405q0 -84 39.5 -126.5t107.5 -42.5q73 0 117 45.5t44 134.5v394h162zM305 901h146l-104 -144h-114zM507 901h146l-104 -144h-114z" />
    <glyph glyph-name="uni0216.ss01" horiz-adv-x="792" 
d="M709 700v-700h-157v85q-72 -97 -212 -97q-124 0 -193.5 78.5t-69.5 223.5v410h162v-405q0 -84 39.5 -126.5t107.5 -42.5q73 0 117 45.5t44 134.5v394h162zM261 868q51 41 130 41t130 -41t54 -111h-98q-1 32 -25.5 51.5t-60.5 19.5t-60.5 -19.5t-25.5 -51.5h-98
q3 70 54 111z" />
    <glyph glyph-name="Umacron.ss01" horiz-adv-x="792" 
d="M709 700v-700h-157v85q-72 -97 -212 -97q-124 0 -193.5 78.5t-69.5 223.5v410h162v-405q0 -84 39.5 -126.5t107.5 -42.5q73 0 117 45.5t44 134.5v394h162zM206 873h370v-88h-370v88z" />
    <glyph glyph-name="uni1E7A.ss01" horiz-adv-x="792" 
d="M709 700v-700h-157v85q-72 -97 -212 -97q-124 0 -193.5 78.5t-69.5 223.5v410h162v-405q0 -84 39.5 -126.5t107.5 -42.5q73 0 117 45.5t44 134.5v394h162zM206 857h370v-83h-370v83zM246 942.5q-19 18.5 -19 47.5q0 28 19 47t47 19q29 0 48 -19t19 -47q0 -29 -19 -47.5
t-48 -18.5q-28 0 -47 18.5zM442 942.5q-19 18.5 -19 47.5q0 28 19.5 47t46.5 19q28 0 47 -19t19 -47q0 -29 -19 -47.5t-47 -18.5t-47 18.5z" />
    <glyph glyph-name="Uogonek.ss01" horiz-adv-x="792" 
d="M709 700v-700h-157v85q-72 -97 -212 -97q-124 0 -193.5 78.5t-69.5 223.5v410h162v-405q0 -84 39.5 -126.5t107.5 -42.5q73 0 117 45.5t44 134.5v394h162zM530 -201.5q-37 30.5 -37 81.5q0 49 38.5 91t115.5 70l62 -41q-63 -28 -90 -53.5t-27 -53.5q0 -21 15.5 -33.5
t41.5 -12.5q34 0 61 15l22 -71q-19 -10 -46 -16.5t-55 -6.5q-64 0 -101 30.5z" />
    <glyph glyph-name="Uring.ss01" horiz-adv-x="792" 
d="M709 700v-700h-157v85q-72 -97 -212 -97q-124 0 -193.5 78.5t-69.5 223.5v410h162v-405q0 -84 39.5 -126.5t107.5 -42.5q73 0 117 45.5t44 134.5v394h162zM302.5 789q-35.5 35 -35.5 86t35.5 86t87.5 35q53 0 89 -35t36 -86t-36 -86t-89 -35q-52 0 -87.5 35zM433.5 831.5
q17.5 17.5 17.5 43.5t-17.5 43.5t-43.5 17.5q-25 0 -42.5 -17.5t-17.5 -43.5t17 -43.5t43 -17.5t43.5 17.5z" />
    <glyph glyph-name="Utilde.ss01" horiz-adv-x="792" 
d="M709 700v-700h-157v85q-72 -97 -212 -97q-124 0 -193.5 78.5t-69.5 223.5v410h162v-405q0 -84 39.5 -126.5t107.5 -42.5q73 0 117 45.5t44 134.5v394h162zM418.5 764.5q-20.5 10.5 -45.5 28.5q-16 12 -26.5 18t-20.5 6q-21 0 -34 -14.5t-14 -41.5h-79q2 67 33.5 106.5
t83.5 39.5q26 0 46.5 -10.5t46.5 -29.5q16 -12 26.5 -18t20.5 -6q20 0 33.5 14.5t14.5 39.5h79q-2 -65 -33.5 -104t-83.5 -39q-27 0 -47.5 10.5z" />
    <glyph glyph-name="uni1E78.ss01" horiz-adv-x="792" 
d="M709 700v-700h-157v85q-72 -97 -212 -97q-124 0 -193.5 78.5t-69.5 223.5v410h162v-405q0 -84 39.5 -126.5t107.5 -42.5q73 0 117 45.5t44 134.5v394h162zM417 763.5q-21 8.5 -46 24.5q-12 7 -23.5 13t-20.5 6q-20 0 -31 -12t-13 -34h-80q1 60 31.5 92.5t84.5 32.5
q26 0 44.5 -8t46.5 -24q16 -10 26.5 -15t20.5 -5q20 0 31 12.5t13 32.5h78q-1 -58 -31 -91t-83 -33q-27 0 -48 8.5zM416 1039h159l-157 -121h-113z" />
    <glyph glyph-name="W.ss01" horiz-adv-x="1201" 
d="M1124 700v-413q0 -146 -79 -222.5t-224 -76.5q-72 0 -128.5 21t-92.5 59q-37 -38 -93 -59t-127 -21q-145 0 -224 76.5t-79 222.5v413h162v-408q0 -85 35 -125.5t104 -40.5q141 0 141 166v408h162v-408q0 -166 142 -166q138 0 138 166v408h163z" />
    <glyph glyph-name="Wacute.ss01" horiz-adv-x="1201" 
d="M1124 700v-413q0 -146 -79 -222.5t-224 -76.5q-72 0 -128.5 21t-92.5 59q-37 -38 -93 -59t-127 -21q-145 0 -224 76.5t-79 222.5v413h162v-408q0 -85 35 -125.5t104 -40.5q141 0 141 166v408h162v-408q0 -166 142 -166q138 0 138 166v408h163zM644 901h168l-181 -144
h-122z" />
    <glyph glyph-name="Wcircumflex.ss01" horiz-adv-x="1201" 
d="M1124 700v-413q0 -146 -79 -222.5t-224 -76.5q-72 0 -128.5 21t-92.5 59q-37 -38 -93 -59t-127 -21q-145 0 -224 76.5t-79 222.5v413h162v-408q0 -85 35 -125.5t104 -40.5q141 0 141 166v408h162v-408q0 -166 142 -166q138 0 138 166v408h163zM687 757l-87 76l-87 -76
h-114l132 144h138l132 -144h-114z" />
    <glyph glyph-name="Wdieresis.ss01" horiz-adv-x="1201" 
d="M1124 700v-413q0 -146 -79 -222.5t-224 -76.5q-72 0 -128.5 21t-92.5 59q-37 -38 -93 -59t-127 -21q-145 0 -224 76.5t-79 222.5v413h162v-408q0 -85 35 -125.5t104 -40.5q141 0 141 166v408h162v-408q0 -166 142 -166q138 0 138 166v408h163zM449 781.5
q-20 19.5 -20 49.5t20 49.5t50 19.5t49.5 -19.5t19.5 -49.5t-19.5 -49.5t-49.5 -19.5t-50 19.5zM651.5 781.5q-19.5 19.5 -19.5 49.5t19.5 49.5t49.5 19.5t50 -19.5t20 -49.5t-20 -49.5t-50 -19.5t-49.5 19.5z" />
    <glyph glyph-name="Wgrave.ss01" horiz-adv-x="1201" 
d="M1124 700v-413q0 -146 -79 -222.5t-224 -76.5q-72 0 -128.5 21t-92.5 59q-37 -38 -93 -59t-127 -21q-145 0 -224 76.5t-79 222.5v413h162v-408q0 -85 35 -125.5t104 -40.5q141 0 141 166v408h162v-408q0 -166 142 -166q138 0 138 166v408h163zM388 901h168l135 -144h-122
z" />
    <glyph glyph-name="Y.ss01" horiz-adv-x="785" 
d="M708 700v-481q0 -158 -88 -242.5t-243 -84.5q-89 0 -163 24.5t-126 69.5l63 120q95 -77 222 -77q88 0 130.5 44.5t42.5 137.5v43q-70 -86 -198 -86q-133 0 -204.5 75.5t-71.5 217.5v239h162v-229q0 -82 39 -124t110 -42q75 0 119 44t44 133v218h162z" />
    <glyph glyph-name="Yacute.ss01" horiz-adv-x="785" 
d="M708 700v-481q0 -158 -88 -242.5t-243 -84.5q-89 0 -163 24.5t-126 69.5l63 120q95 -77 222 -77q88 0 130.5 44.5t42.5 137.5v43q-70 -86 -198 -86q-133 0 -204.5 75.5t-71.5 217.5v239h162v-229q0 -82 39 -124t110 -42q75 0 119 44t44 133v218h162zM434 901h168
l-181 -144h-122z" />
    <glyph glyph-name="Ycircumflex.ss01" horiz-adv-x="785" 
d="M708 700v-481q0 -158 -88 -242.5t-243 -84.5q-89 0 -163 24.5t-126 69.5l63 120q95 -77 222 -77q88 0 130.5 44.5t42.5 137.5v43q-70 -86 -198 -86q-133 0 -204.5 75.5t-71.5 217.5v239h162v-229q0 -82 39 -124t110 -42q75 0 119 44t44 133v218h162zM477 757l-87 76
l-87 -76h-114l132 144h138l132 -144h-114z" />
    <glyph glyph-name="Ydieresis.ss01" horiz-adv-x="785" 
d="M708 700v-481q0 -158 -88 -242.5t-243 -84.5q-89 0 -163 24.5t-126 69.5l63 120q95 -77 222 -77q88 0 130.5 44.5t42.5 137.5v43q-70 -86 -198 -86q-133 0 -204.5 75.5t-71.5 217.5v239h162v-229q0 -82 39 -124t110 -42q75 0 119 44t44 133v218h162zM239 781.5
q-20 19.5 -20 49.5t20 49.5t50 19.5t49.5 -19.5t19.5 -49.5t-19.5 -49.5t-49.5 -19.5t-50 19.5zM441.5 781.5q-19.5 19.5 -19.5 49.5t19.5 49.5t49.5 19.5t50 -19.5t20 -49.5t-20 -49.5t-50 -19.5t-49.5 19.5z" />
    <glyph glyph-name="uni1E8E.ss01" horiz-adv-x="785" 
d="M708 700v-481q0 -158 -88 -242.5t-243 -84.5q-89 0 -163 24.5t-126 69.5l63 120q95 -77 222 -77q88 0 130.5 44.5t42.5 137.5v43q-70 -86 -198 -86q-133 0 -204.5 75.5t-71.5 217.5v239h162v-229q0 -82 39 -124t110 -42q75 0 119 44t44 133v218h162zM329.5 786
q-23.5 24 -23.5 61q0 36 23.5 60t60.5 24t60.5 -24t23.5 -60q0 -37 -23.5 -61t-60.5 -24t-60.5 24z" />
    <glyph glyph-name="uni1EF4.ss01" horiz-adv-x="785" 
d="M708 700v-481q0 -158 -88 -242.5t-243 -84.5q-89 0 -163 24.5t-126 69.5l63 120q95 -77 222 -77q88 0 130.5 44.5t42.5 137.5v43q-70 -86 -198 -86q-133 0 -204.5 75.5t-71.5 217.5v239h162v-229q0 -82 39 -124t110 -42q75 0 119 44t44 133v218h162zM621.5 -191.5
q-19.5 18.5 -19.5 48.5t19.5 50t49.5 20q29 0 49 -20t20 -50t-19.5 -48.5t-49.5 -18.5t-49.5 18.5z" />
    <glyph glyph-name="Ygrave.ss01" horiz-adv-x="785" 
d="M708 700v-481q0 -158 -88 -242.5t-243 -84.5q-89 0 -163 24.5t-126 69.5l63 120q95 -77 222 -77q88 0 130.5 44.5t42.5 137.5v43q-70 -86 -198 -86q-133 0 -204.5 75.5t-71.5 217.5v239h162v-229q0 -82 39 -124t110 -42q75 0 119 44t44 133v218h162zM178 901h168
l135 -144h-122z" />
    <glyph glyph-name="uni1EF6.ss01" horiz-adv-x="785" 
d="M708 700v-481q0 -158 -88 -242.5t-243 -84.5q-89 0 -163 24.5t-126 69.5l63 120q95 -77 222 -77q88 0 130.5 44.5t42.5 137.5v43q-70 -86 -198 -86q-133 0 -204.5 75.5t-71.5 217.5v239h162v-229q0 -82 39 -124t110 -42q75 0 119 44t44 133v218h162zM371 799
q28 13 39.5 28t11.5 33q0 19 -13 30.5t-34 11.5q-30 0 -59 -19l-32 63q43 34 108 34q53 0 86.5 -29.5t33.5 -77.5q0 -84 -92 -126z" />
    <glyph glyph-name="uni0232.ss01" horiz-adv-x="785" 
d="M708 700v-481q0 -158 -88 -242.5t-243 -84.5q-89 0 -163 24.5t-126 69.5l63 120q95 -77 222 -77q88 0 130.5 44.5t42.5 137.5v43q-70 -86 -198 -86q-133 0 -204.5 75.5t-71.5 217.5v239h162v-229q0 -82 39 -124t110 -42q75 0 119 44t44 133v218h162zM205 873h370v-88
h-370v88z" />
    <glyph glyph-name="uni1EF8.ss01" horiz-adv-x="785" 
d="M708 700v-481q0 -158 -88 -242.5t-243 -84.5q-89 0 -163 24.5t-126 69.5l63 120q95 -77 222 -77q88 0 130.5 44.5t42.5 137.5v43q-70 -86 -198 -86q-133 0 -204.5 75.5t-71.5 217.5v239h162v-229q0 -82 39 -124t110 -42q75 0 119 44t44 133v218h162zM417.5 764.5
q-20.5 10.5 -45.5 28.5q-16 12 -26.5 18t-20.5 6q-21 0 -34 -14.5t-14 -41.5h-79q2 67 33.5 106.5t83.5 39.5q26 0 46.5 -10.5t46.5 -29.5q16 -12 26.5 -18t20.5 -6q20 0 33.5 14.5t14.5 39.5h79q-2 -65 -33.5 -104t-83.5 -39q-27 0 -47.5 10.5z" />
    <glyph glyph-name="Z.ss01" horiz-adv-x="681" 
d="M655 130v-130h-612v94l166 202h-111v121h210l126 153h-384v130h590v-93l-158 -193h102v-120h-200l-135 -164h406z" />
    <glyph glyph-name="Zacute.ss01" horiz-adv-x="681" 
d="M655 130v-130h-612v94l166 202h-111v121h210l126 153h-384v130h590v-93l-158 -193h102v-120h-200l-135 -164h406zM392 901h168l-181 -144h-122z" />
    <glyph glyph-name="Zcaron.ss01" horiz-adv-x="681" 
d="M655 130v-130h-612v94l166 202h-111v121h210l126 153h-384v130h590v-93l-158 -193h102v-120h-200l-135 -164h406zM549 901l-132 -144h-138l-132 144h114l87 -75l87 75h114z" />
    <glyph glyph-name="Zdotaccent.ss01" horiz-adv-x="681" 
d="M655 130v-130h-612v94l166 202h-111v121h210l126 153h-384v130h590v-93l-158 -193h102v-120h-200l-135 -164h406zM287.5 786q-23.5 24 -23.5 61q0 36 23.5 60t60.5 24t60.5 -24t23.5 -60q0 -37 -23.5 -61t-60.5 -24t-60.5 24z" />
    <glyph glyph-name="uni1E92.ss01" horiz-adv-x="681" 
d="M655 130v-130h-612v94l166 202h-111v121h210l126 153h-384v130h590v-93l-158 -193h102v-120h-200l-135 -164h406zM301.5 -191.5q-19.5 18.5 -19.5 48.5t19.5 50t49.5 20q29 0 49 -20t20 -50t-19.5 -48.5t-49.5 -18.5t-49.5 18.5z" />
    <glyph glyph-name="a" unicode="a" horiz-adv-x="617" 
d="M481 486.5q67 -59.5 67 -179.5v-307h-146v67q-44 -75 -164 -75q-62 0 -107.5 21t-69.5 58t-24 84q0 75 56.5 118t174.5 43h124q0 51 -31 78.5t-93 27.5q-43 0 -84.5 -13.5t-70.5 -36.5l-56 109q44 31 105.5 48t126.5 17q125 0 192 -59.5zM348 115.5q31 18.5 44 54.5v55
h-107q-96 0 -96 -63q0 -30 23.5 -47.5t64.5 -17.5q40 0 71 18.5z" />
    <glyph glyph-name="aacute" unicode="&#xe1;" horiz-adv-x="617" 
d="M481 486.5q67 -59.5 67 -179.5v-307h-146v67q-44 -75 -164 -75q-62 0 -107.5 21t-69.5 58t-24 84q0 75 56.5 118t174.5 43h124q0 51 -31 78.5t-93 27.5q-43 0 -84.5 -13.5t-70.5 -36.5l-56 109q44 31 105.5 48t126.5 17q125 0 192 -59.5zM348 115.5q31 18.5 44 54.5v55
h-107q-96 0 -96 -63q0 -30 23.5 -47.5t64.5 -17.5q40 0 71 18.5zM349 751h168l-181 -144h-122z" />
    <glyph glyph-name="abreve" unicode="&#x103;" horiz-adv-x="617" 
d="M481 486.5q67 -59.5 67 -179.5v-307h-146v67q-44 -75 -164 -75q-62 0 -107.5 21t-69.5 58t-24 84q0 75 56.5 118t174.5 43h124q0 51 -31 78.5t-93 27.5q-43 0 -84.5 -13.5t-70.5 -36.5l-56 109q44 31 105.5 48t126.5 17q125 0 192 -59.5zM348 115.5q31 18.5 44 54.5v55
h-107q-96 0 -96 -63q0 -30 23.5 -47.5t64.5 -17.5q40 0 71 18.5zM175 640q-51 41 -54 111h98q1 -32 25.5 -51.5t60.5 -19.5t60.5 19.5t25.5 51.5h98q-3 -70 -54 -111t-130 -41t-130 41z" />
    <glyph glyph-name="uni1EAF" unicode="&#x1eaf;" horiz-adv-x="617" 
d="M481 486.5q67 -59.5 67 -179.5v-307h-146v67q-44 -75 -164 -75q-62 0 -107.5 21t-69.5 58t-24 84q0 75 56.5 118t174.5 43h124q0 51 -31 78.5t-93 27.5q-43 0 -84.5 -13.5t-70.5 -36.5l-56 109q44 31 105.5 48t126.5 17q125 0 192 -59.5zM348 115.5q31 18.5 44 54.5v55
h-107q-96 0 -96 -63q0 -30 23.5 -47.5t64.5 -17.5q40 0 71 18.5zM176.5 632q-50.5 33 -55.5 89h94q3 -21 28 -34t62 -13t62 13t28 34h94q-5 -56 -55.5 -89t-128.5 -33t-128.5 33zM330 872h159l-157 -121h-113z" />
    <glyph glyph-name="uni1EB7" unicode="&#x1eb7;" horiz-adv-x="617" 
d="M481 486.5q67 -59.5 67 -179.5v-307h-146v67q-44 -75 -164 -75q-62 0 -107.5 21t-69.5 58t-24 84q0 75 56.5 118t174.5 43h124q0 51 -31 78.5t-93 27.5q-43 0 -84.5 -13.5t-70.5 -36.5l-56 109q44 31 105.5 48t126.5 17q125 0 192 -59.5zM348 115.5q31 18.5 44 54.5v55
h-107q-96 0 -96 -63q0 -30 23.5 -47.5t64.5 -17.5q40 0 71 18.5zM243.5 -191.5q-19.5 18.5 -19.5 48.5t19.5 50t49.5 20q29 0 49 -20t20 -50t-19.5 -48.5t-49.5 -18.5t-49.5 18.5zM175 640q-51 41 -54 111h98q1 -32 25.5 -51.5t60.5 -19.5t60.5 19.5t25.5 51.5h98
q-3 -70 -54 -111t-130 -41t-130 41z" />
    <glyph glyph-name="uni1EB1" unicode="&#x1eb1;" horiz-adv-x="617" 
d="M481 486.5q67 -59.5 67 -179.5v-307h-146v67q-44 -75 -164 -75q-62 0 -107.5 21t-69.5 58t-24 84q0 75 56.5 118t174.5 43h124q0 51 -31 78.5t-93 27.5q-43 0 -84.5 -13.5t-70.5 -36.5l-56 109q44 31 105.5 48t126.5 17q125 0 192 -59.5zM348 115.5q31 18.5 44 54.5v55
h-107q-96 0 -96 -63q0 -30 23.5 -47.5t64.5 -17.5q40 0 71 18.5zM176.5 632q-50.5 33 -55.5 89h94q3 -21 28 -34t62 -13t62 13t28 34h94q-5 -56 -55.5 -89t-128.5 -33t-128.5 33zM122 872h159l110 -121h-112z" />
    <glyph glyph-name="uni1EB3" unicode="&#x1eb3;" horiz-adv-x="617" 
d="M481 486.5q67 -59.5 67 -179.5v-307h-146v67q-44 -75 -164 -75q-62 0 -107.5 21t-69.5 58t-24 84q0 75 56.5 118t174.5 43h124q0 51 -31 78.5t-93 27.5q-43 0 -84.5 -13.5t-70.5 -36.5l-56 109q44 31 105.5 48t126.5 17q125 0 192 -59.5zM348 115.5q31 18.5 44 54.5v55
h-107q-96 0 -96 -63q0 -30 23.5 -47.5t64.5 -17.5q40 0 71 18.5zM176.5 632q-50.5 33 -55.5 89h94q3 -21 28 -34t62 -13t62 13t28 34h94q-5 -56 -55.5 -89t-128.5 -33t-128.5 33zM292 760q37 18 37 42q0 13 -9.5 21t-24.5 8q-21 0 -44 -12l-26 48q34 22 83 22q42 0 67 -21.5
t25 -57.5q0 -29 -19.5 -52t-50.5 -35z" />
    <glyph glyph-name="uni1EB5" unicode="&#x1eb5;" horiz-adv-x="617" 
d="M481 486.5q67 -59.5 67 -179.5v-307h-146v67q-44 -75 -164 -75q-62 0 -107.5 21t-69.5 58t-24 84q0 75 56.5 118t174.5 43h124q0 51 -31 78.5t-93 27.5q-43 0 -84.5 -13.5t-70.5 -36.5l-56 109q44 31 105.5 48t126.5 17q125 0 192 -59.5zM348 115.5q31 18.5 44 54.5v55
h-107q-96 0 -96 -63q0 -30 23.5 -47.5t64.5 -17.5q40 0 71 18.5zM176.5 632q-50.5 33 -55.5 89h94q3 -21 28 -34t62 -13t62 13t28 34h94q-5 -56 -55.5 -89t-128.5 -33t-128.5 33zM331 757.5q-21 8.5 -46 24.5q-12 7 -23.5 13t-20.5 6q-20 0 -31 -12t-13 -34h-80
q1 60 31.5 92.5t84.5 32.5q26 0 44.5 -8t46.5 -24q16 -10 26.5 -15t20.5 -5q20 0 31 12.5t13 32.5h78q-1 -58 -31 -91t-83 -33q-27 0 -48 8.5z" />
    <glyph glyph-name="uni01CE" unicode="&#x1ce;" horiz-adv-x="617" 
d="M481 486.5q67 -59.5 67 -179.5v-307h-146v67q-44 -75 -164 -75q-62 0 -107.5 21t-69.5 58t-24 84q0 75 56.5 118t174.5 43h124q0 51 -31 78.5t-93 27.5q-43 0 -84.5 -13.5t-70.5 -36.5l-56 109q44 31 105.5 48t126.5 17q125 0 192 -59.5zM348 115.5q31 18.5 44 54.5v55
h-107q-96 0 -96 -63q0 -30 23.5 -47.5t64.5 -17.5q40 0 71 18.5zM506 751l-132 -144h-138l-132 144h114l87 -75l87 75h114z" />
    <glyph glyph-name="acircumflex" unicode="&#xe2;" horiz-adv-x="617" 
d="M481 486.5q67 -59.5 67 -179.5v-307h-146v67q-44 -75 -164 -75q-62 0 -107.5 21t-69.5 58t-24 84q0 75 56.5 118t174.5 43h124q0 51 -31 78.5t-93 27.5q-43 0 -84.5 -13.5t-70.5 -36.5l-56 109q44 31 105.5 48t126.5 17q125 0 192 -59.5zM348 115.5q31 18.5 44 54.5v55
h-107q-96 0 -96 -63q0 -30 23.5 -47.5t64.5 -17.5q40 0 71 18.5zM392 607l-87 76l-87 -76h-114l132 144h138l132 -144h-114z" />
    <glyph glyph-name="uni1EA5" unicode="&#x1ea5;" horiz-adv-x="617" 
d="M481 486.5q67 -59.5 67 -179.5v-307h-146v67q-44 -75 -164 -75q-62 0 -107.5 21t-69.5 58t-24 84q0 75 56.5 118t174.5 43h124q0 51 -31 78.5t-93 27.5q-43 0 -84.5 -13.5t-70.5 -36.5l-56 109q44 31 105.5 48t126.5 17q125 0 192 -59.5zM348 115.5q31 18.5 44 54.5v55
h-107q-96 0 -96 -63q0 -30 23.5 -47.5t64.5 -17.5q40 0 71 18.5zM391 607l-86 57l-86 -57h-115l133 114h136l133 -114h-115zM536 824h159l-157 -121h-113z" />
    <glyph glyph-name="uni1EAD" unicode="&#x1ead;" horiz-adv-x="617" 
d="M481 486.5q67 -59.5 67 -179.5v-307h-146v67q-44 -75 -164 -75q-62 0 -107.5 21t-69.5 58t-24 84q0 75 56.5 118t174.5 43h124q0 51 -31 78.5t-93 27.5q-43 0 -84.5 -13.5t-70.5 -36.5l-56 109q44 31 105.5 48t126.5 17q125 0 192 -59.5zM348 115.5q31 18.5 44 54.5v55
h-107q-96 0 -96 -63q0 -30 23.5 -47.5t64.5 -17.5q40 0 71 18.5zM243.5 -191.5q-19.5 18.5 -19.5 48.5t19.5 50t49.5 20q29 0 49 -20t20 -50t-19.5 -48.5t-49.5 -18.5t-49.5 18.5zM392 607l-87 76l-87 -76h-114l132 144h138l132 -144h-114z" />
    <glyph glyph-name="uni1EA7" unicode="&#x1ea7;" horiz-adv-x="617" 
d="M481 486.5q67 -59.5 67 -179.5v-307h-146v67q-44 -75 -164 -75q-62 0 -107.5 21t-69.5 58t-24 84q0 75 56.5 118t174.5 43h124q0 51 -31 78.5t-93 27.5q-43 0 -84.5 -13.5t-70.5 -36.5l-56 109q44 31 105.5 48t126.5 17q125 0 192 -59.5zM348 115.5q31 18.5 44 54.5v55
h-107q-96 0 -96 -63q0 -30 23.5 -47.5t64.5 -17.5q40 0 71 18.5zM391 607l-86 57l-86 -57h-115l133 114h136l133 -114h-115zM328 824h159l110 -121h-112z" />
    <glyph glyph-name="uni1EA9" unicode="&#x1ea9;" horiz-adv-x="617" 
d="M481 486.5q67 -59.5 67 -179.5v-307h-146v67q-44 -75 -164 -75q-62 0 -107.5 21t-69.5 58t-24 84q0 75 56.5 118t174.5 43h124q0 51 -31 78.5t-93 27.5q-43 0 -84.5 -13.5t-70.5 -36.5l-56 109q44 31 105.5 48t126.5 17q125 0 192 -59.5zM348 115.5q31 18.5 44 54.5v55
h-107q-96 0 -96 -63q0 -30 23.5 -47.5t64.5 -17.5q40 0 71 18.5zM391 607l-86 57l-86 -57h-115l133 114h136l133 -114h-115zM445 721q37 18 37 42q0 13 -9.5 21t-24.5 8q-21 0 -44 -12l-26 48q34 22 83 22q42 0 67 -21.5t25 -57.5q0 -29 -19.5 -52t-50.5 -35z" />
    <glyph glyph-name="uni1EAB" unicode="&#x1eab;" horiz-adv-x="617" 
d="M481 486.5q67 -59.5 67 -179.5v-307h-146v67q-44 -75 -164 -75q-62 0 -107.5 21t-69.5 58t-24 84q0 75 56.5 118t174.5 43h124q0 51 -31 78.5t-93 27.5q-43 0 -84.5 -13.5t-70.5 -36.5l-56 109q44 31 105.5 48t126.5 17q125 0 192 -59.5zM348 115.5q31 18.5 44 54.5v55
h-107q-96 0 -96 -63q0 -30 23.5 -47.5t64.5 -17.5q40 0 71 18.5zM391 607l-86 57l-86 -57h-115l133 114h136l133 -114h-115zM331 764.5q-21 8.5 -46 24.5q-12 7 -23.5 13t-20.5 6q-20 0 -31 -12t-13 -34h-80q1 60 31.5 92.5t84.5 32.5q26 0 44.5 -8t46.5 -24
q16 -10 26.5 -15t20.5 -5q20 0 31 12.5t13 32.5h78q-1 -58 -31 -91t-83 -33q-27 0 -48 8.5z" />
    <glyph glyph-name="uni0201" unicode="&#x201;" horiz-adv-x="617" 
d="M481 486.5q67 -59.5 67 -179.5v-307h-146v67q-44 -75 -164 -75q-62 0 -107.5 21t-69.5 58t-24 84q0 75 56.5 118t174.5 43h124q0 51 -31 78.5t-93 27.5q-43 0 -84.5 -13.5t-70.5 -36.5l-56 109q44 31 105.5 48t126.5 17q125 0 192 -59.5zM348 115.5q31 18.5 44 54.5v55
h-107q-96 0 -96 -63q0 -30 23.5 -47.5t64.5 -17.5q40 0 71 18.5zM43 751h146l72 -144h-114zM245 751h146l72 -144h-114z" />
    <glyph glyph-name="adieresis" unicode="&#xe4;" horiz-adv-x="617" 
d="M481 486.5q67 -59.5 67 -179.5v-307h-146v67q-44 -75 -164 -75q-62 0 -107.5 21t-69.5 58t-24 84q0 75 56.5 118t174.5 43h124q0 51 -31 78.5t-93 27.5q-43 0 -84.5 -13.5t-70.5 -36.5l-56 109q44 31 105.5 48t126.5 17q125 0 192 -59.5zM348 115.5q31 18.5 44 54.5v55
h-107q-96 0 -96 -63q0 -30 23.5 -47.5t64.5 -17.5q40 0 71 18.5zM154 631.5q-20 19.5 -20 49.5t20 49.5t50 19.5t49.5 -19.5t19.5 -49.5t-19.5 -49.5t-49.5 -19.5t-50 19.5zM356.5 631.5q-19.5 19.5 -19.5 49.5t19.5 49.5t49.5 19.5t50 -19.5t20 -49.5t-20 -49.5t-50 -19.5
t-49.5 19.5z" />
    <glyph glyph-name="uni1EA1" unicode="&#x1ea1;" horiz-adv-x="617" 
d="M481 486.5q67 -59.5 67 -179.5v-307h-146v67q-44 -75 -164 -75q-62 0 -107.5 21t-69.5 58t-24 84q0 75 56.5 118t174.5 43h124q0 51 -31 78.5t-93 27.5q-43 0 -84.5 -13.5t-70.5 -36.5l-56 109q44 31 105.5 48t126.5 17q125 0 192 -59.5zM348 115.5q31 18.5 44 54.5v55
h-107q-96 0 -96 -63q0 -30 23.5 -47.5t64.5 -17.5q40 0 71 18.5zM243.5 -191.5q-19.5 18.5 -19.5 48.5t19.5 50t49.5 20q29 0 49 -20t20 -50t-19.5 -48.5t-49.5 -18.5t-49.5 18.5z" />
    <glyph glyph-name="agrave" unicode="&#xe0;" horiz-adv-x="617" 
d="M481 486.5q67 -59.5 67 -179.5v-307h-146v67q-44 -75 -164 -75q-62 0 -107.5 21t-69.5 58t-24 84q0 75 56.5 118t174.5 43h124q0 51 -31 78.5t-93 27.5q-43 0 -84.5 -13.5t-70.5 -36.5l-56 109q44 31 105.5 48t126.5 17q125 0 192 -59.5zM348 115.5q31 18.5 44 54.5v55
h-107q-96 0 -96 -63q0 -30 23.5 -47.5t64.5 -17.5q40 0 71 18.5zM93 751h168l135 -144h-122z" />
    <glyph glyph-name="uni1EA3" unicode="&#x1ea3;" horiz-adv-x="617" 
d="M481 486.5q67 -59.5 67 -179.5v-307h-146v67q-44 -75 -164 -75q-62 0 -107.5 21t-69.5 58t-24 84q0 75 56.5 118t174.5 43h124q0 51 -31 78.5t-93 27.5q-43 0 -84.5 -13.5t-70.5 -36.5l-56 109q44 31 105.5 48t126.5 17q125 0 192 -59.5zM348 115.5q31 18.5 44 54.5v55
h-107q-96 0 -96 -63q0 -30 23.5 -47.5t64.5 -17.5q40 0 71 18.5zM286 649q28 13 39.5 28t11.5 33q0 19 -13 30.5t-34 11.5q-30 0 -59 -19l-32 63q43 34 108 34q53 0 86.5 -29.5t33.5 -77.5q0 -84 -92 -126z" />
    <glyph glyph-name="uni0203" unicode="&#x203;" horiz-adv-x="617" 
d="M481 486.5q67 -59.5 67 -179.5v-307h-146v67q-44 -75 -164 -75q-62 0 -107.5 21t-69.5 58t-24 84q0 75 56.5 118t174.5 43h124q0 51 -31 78.5t-93 27.5q-43 0 -84.5 -13.5t-70.5 -36.5l-56 109q44 31 105.5 48t126.5 17q125 0 192 -59.5zM348 115.5q31 18.5 44 54.5v55
h-107q-96 0 -96 -63q0 -30 23.5 -47.5t64.5 -17.5q40 0 71 18.5zM175 718q51 41 130 41t130 -41t54 -111h-98q-1 32 -25.5 51.5t-60.5 19.5t-60.5 -19.5t-25.5 -51.5h-98q3 70 54 111z" />
    <glyph glyph-name="amacron" unicode="&#x101;" horiz-adv-x="617" 
d="M481 486.5q67 -59.5 67 -179.5v-307h-146v67q-44 -75 -164 -75q-62 0 -107.5 21t-69.5 58t-24 84q0 75 56.5 118t174.5 43h124q0 51 -31 78.5t-93 27.5q-43 0 -84.5 -13.5t-70.5 -36.5l-56 109q44 31 105.5 48t126.5 17q125 0 192 -59.5zM348 115.5q31 18.5 44 54.5v55
h-107q-96 0 -96 -63q0 -30 23.5 -47.5t64.5 -17.5q40 0 71 18.5zM120 723h370v-88h-370v88z" />
    <glyph glyph-name="aogonek" unicode="&#x105;" horiz-adv-x="617" 
d="M481 486.5q67 -59.5 67 -179.5v-307h-146v67q-44 -75 -164 -75q-62 0 -107.5 21t-69.5 58t-24 84q0 75 56.5 118t174.5 43h124q0 51 -31 78.5t-93 27.5q-43 0 -84.5 -13.5t-70.5 -36.5l-56 109q44 31 105.5 48t126.5 17q125 0 192 -59.5zM348 115.5q31 18.5 44 54.5v55
h-107q-96 0 -96 -63q0 -30 23.5 -47.5t64.5 -17.5q40 0 71 18.5zM369 -201.5q-37 30.5 -37 81.5q0 49 38.5 91t115.5 70l62 -41q-63 -28 -90 -53.5t-27 -53.5q0 -21 15.5 -33.5t41.5 -12.5q34 0 61 15l22 -71q-19 -10 -46 -16.5t-55 -6.5q-64 0 -101 30.5z" />
    <glyph glyph-name="aring" unicode="&#xe5;" horiz-adv-x="617" 
d="M481 486.5q67 -59.5 67 -179.5v-307h-146v67q-44 -75 -164 -75q-62 0 -107.5 21t-69.5 58t-24 84q0 75 56.5 118t174.5 43h124q0 51 -31 78.5t-93 27.5q-43 0 -84.5 -13.5t-70.5 -36.5l-56 109q44 31 105.5 48t126.5 17q125 0 192 -59.5zM348 115.5q31 18.5 44 54.5v55
h-107q-96 0 -96 -63q0 -30 23.5 -47.5t64.5 -17.5q40 0 71 18.5zM216.5 627q-35.5 35 -35.5 86t35.5 86t87.5 35q53 0 89 -35t36 -86t-36 -86t-89 -35q-52 0 -87.5 35zM347.5 669.5q17.5 17.5 17.5 43.5t-17.5 43.5t-43.5 17.5q-25 0 -42.5 -17.5t-17.5 -43.5t17 -43.5
t43 -17.5t43.5 17.5z" />
    <glyph glyph-name="aringacute" unicode="&#x1fb;" horiz-adv-x="617" 
d="M481 486.5q67 -59.5 67 -179.5v-307h-146v67q-44 -75 -164 -75q-62 0 -107.5 21t-69.5 58t-24 84q0 75 56.5 118t174.5 43h124q0 51 -31 78.5t-93 27.5q-43 0 -84.5 -13.5t-70.5 -36.5l-56 109q44 31 105.5 48t126.5 17q125 0 192 -59.5zM348 115.5q31 18.5 44 54.5v55
h-107q-96 0 -96 -63q0 -30 23.5 -47.5t64.5 -17.5q40 0 71 18.5zM412 776q17 -29 17 -63q0 -51 -36 -86t-89 -35q-52 0 -87.5 35t-35.5 86t35.5 86t87.5 35q25 0 52 -10l87 90l77 -60zM347.5 669.5q17.5 17.5 17.5 43.5t-17.5 43.5t-43.5 17.5q-25 0 -42.5 -17.5
t-17.5 -43.5t17 -43.5t43 -17.5t43.5 17.5z" />
    <glyph glyph-name="atilde" unicode="&#xe3;" horiz-adv-x="617" 
d="M481 486.5q67 -59.5 67 -179.5v-307h-146v67q-44 -75 -164 -75q-62 0 -107.5 21t-69.5 58t-24 84q0 75 56.5 118t174.5 43h124q0 51 -31 78.5t-93 27.5q-43 0 -84.5 -13.5t-70.5 -36.5l-56 109q44 31 105.5 48t126.5 17q125 0 192 -59.5zM348 115.5q31 18.5 44 54.5v55
h-107q-96 0 -96 -63q0 -30 23.5 -47.5t64.5 -17.5q40 0 71 18.5zM332.5 614.5q-20.5 10.5 -45.5 28.5q-16 12 -26.5 18t-20.5 6q-21 0 -34 -14.5t-14 -41.5h-79q2 67 33.5 106.5t83.5 39.5q26 0 46.5 -10.5t46.5 -29.5q16 -12 26.5 -18t20.5 -6q20 0 33.5 14.5t14.5 39.5h79
q-2 -65 -33.5 -104t-83.5 -39q-27 0 -47.5 10.5z" />
    <glyph glyph-name="ae" unicode="&#xe6;" horiz-adv-x="996" 
d="M960 226h-408q11 -51 51 -80t102 -29q78 0 136 52l83 -90q-39 -43 -95.5 -65t-126.5 -22q-71 0 -131 23t-102 70q-62 -93 -206 -93q-105 0 -165.5 46t-60.5 123q0 70 57 113t174 43h124q0 50 -31 77.5t-92 27.5q-43 0 -85 -13.5t-71 -36.5l-56 109q44 31 105 48t126 17
q136 0 198 -76q37 36 88 56t110 20q77 0 141 -34t101 -97t37 -144q0 -25 -3 -45zM596 399q-37 -29 -46 -82h262q-8 53 -44.5 82t-85.5 29t-86 -29zM362 125q30 28 30 76v25h-107q-96 0 -96 -62q0 -32 23.5 -49.5t66.5 -17.5q53 0 83 28z" />
    <glyph glyph-name="aeacute" unicode="&#x1fd;" horiz-adv-x="996" 
d="M960 226h-408q11 -51 51 -80t102 -29q78 0 136 52l83 -90q-39 -43 -95.5 -65t-126.5 -22q-71 0 -131 23t-102 70q-62 -93 -206 -93q-105 0 -165.5 46t-60.5 123q0 70 57 113t174 43h124q0 50 -31 77.5t-92 27.5q-43 0 -85 -13.5t-71 -36.5l-56 109q44 31 105 48t126 17
q136 0 198 -76q37 36 88 56t110 20q77 0 141 -34t101 -97t37 -144q0 -25 -3 -45zM596 399q-37 -29 -46 -82h262q-8 53 -44.5 82t-85.5 29t-86 -29zM362 125q30 28 30 76v25h-107q-96 0 -96 -62q0 -32 23.5 -49.5t66.5 -17.5q53 0 83 28zM514 751h168l-181 -144h-122z" />
    <glyph glyph-name="b" unicode="b" horiz-adv-x="690" 
d="M526.5 511.5q61.5 -34.5 96.5 -97t35 -145.5t-35 -145.5t-96.5 -97t-136.5 -34.5q-111 0 -169 70v-62h-149v742h156v-261q59 65 162 65q75 0 136.5 -34.5zM461.5 160.5q38.5 40.5 38.5 108.5t-38.5 108.5t-98.5 40.5t-98.5 -40.5t-38.5 -108.5t38.5 -108.5t98.5 -40.5
t98.5 40.5z" />
    <glyph glyph-name="c" unicode="c" horiz-adv-x="591" 
d="M177.5 27.5q-68.5 35.5 -107 98.5t-38.5 143t38.5 143t107 98.5t154.5 35.5q85 0 148.5 -35.5t92.5 -101.5l-121 -65q-42 74 -121 74q-61 0 -101 -40t-40 -109t40 -109t101 -40q80 0 121 74l121 -66q-29 -64 -92.5 -100t-148.5 -36q-86 0 -154.5 35.5z" />
    <glyph glyph-name="cacute" unicode="&#x107;" horiz-adv-x="591" 
d="M177.5 27.5q-68.5 35.5 -107 98.5t-38.5 143t38.5 143t107 98.5t154.5 35.5q85 0 148.5 -35.5t92.5 -101.5l-121 -65q-42 74 -121 74q-61 0 -101 -40t-40 -109t40 -109t101 -40q80 0 121 74l121 -66q-29 -64 -92.5 -100t-148.5 -36q-86 0 -154.5 35.5zM357 751h168
l-181 -144h-122z" />
    <glyph glyph-name="ccaron" unicode="&#x10d;" horiz-adv-x="591" 
d="M177.5 27.5q-68.5 35.5 -107 98.5t-38.5 143t38.5 143t107 98.5t154.5 35.5q85 0 148.5 -35.5t92.5 -101.5l-121 -65q-42 74 -121 74q-61 0 -101 -40t-40 -109t40 -109t101 -40q80 0 121 74l121 -66q-29 -64 -92.5 -100t-148.5 -36q-86 0 -154.5 35.5zM514 751l-132 -144
h-138l-132 144h114l87 -75l87 75h114z" />
    <glyph glyph-name="ccedilla" unicode="&#xe7;" horiz-adv-x="591" 
d="M177.5 27.5q-68.5 35.5 -107 98.5t-38.5 143t38.5 143t107 98.5t154.5 35.5q85 0 148.5 -35.5t92.5 -101.5l-121 -65q-42 74 -121 74q-61 0 -101 -40t-40 -109t40 -109t101 -40q80 0 121 74l121 -66q-29 -64 -92.5 -100t-148.5 -36q-86 0 -154.5 35.5zM224 -226.5
q-25 5.5 -42 15.5l24 67q32 -15 65 -15q52 0 52 32q0 29 -49 29h-34l26 106h83l-14 -58q44 -5 65.5 -27.5t21.5 -55.5q0 -46 -40 -72.5t-107 -26.5q-26 0 -51 5.5z" />
    <glyph glyph-name="uni1E09" unicode="&#x1e09;" horiz-adv-x="591" 
d="M177.5 27.5q-68.5 35.5 -107 98.5t-38.5 143t38.5 143t107 98.5t154.5 35.5q85 0 148.5 -35.5t92.5 -101.5l-121 -65q-42 74 -121 74q-61 0 -101 -40t-40 -109t40 -109t101 -40q80 0 121 74l121 -66q-29 -64 -92.5 -100t-148.5 -36q-86 0 -154.5 35.5zM224 -226.5
q-25 5.5 -42 15.5l24 67q32 -15 65 -15q52 0 52 32q0 29 -49 29h-34l26 106h83l-14 -58q44 -5 65.5 -27.5t21.5 -55.5q0 -46 -40 -72.5t-107 -26.5q-26 0 -51 5.5zM357 751h168l-181 -144h-122z" />
    <glyph glyph-name="ccircumflex" unicode="&#x109;" horiz-adv-x="591" 
d="M177.5 27.5q-68.5 35.5 -107 98.5t-38.5 143t38.5 143t107 98.5t154.5 35.5q85 0 148.5 -35.5t92.5 -101.5l-121 -65q-42 74 -121 74q-61 0 -101 -40t-40 -109t40 -109t101 -40q80 0 121 74l121 -66q-29 -64 -92.5 -100t-148.5 -36q-86 0 -154.5 35.5zM400 607l-87 76
l-87 -76h-114l132 144h138l132 -144h-114z" />
    <glyph glyph-name="cdotaccent" unicode="&#x10b;" horiz-adv-x="591" 
d="M177.5 27.5q-68.5 35.5 -107 98.5t-38.5 143t38.5 143t107 98.5t154.5 35.5q85 0 148.5 -35.5t92.5 -101.5l-121 -65q-42 74 -121 74q-61 0 -101 -40t-40 -109t40 -109t101 -40q80 0 121 74l121 -66q-29 -64 -92.5 -100t-148.5 -36q-86 0 -154.5 35.5zM252.5 636
q-23.5 24 -23.5 61q0 36 23.5 60t60.5 24t60.5 -24t23.5 -60q0 -37 -23.5 -61t-60.5 -24t-60.5 24z" />
    <glyph glyph-name="d" unicode="d" horiz-adv-x="692" 
d="M620 742v-742h-149v62q-58 -70 -168 -70q-76 0 -137.5 34t-96.5 97t-35 146t35 146t96.5 97t137.5 34q103 0 161 -65v261h156zM428 160.5q39 40.5 39 108.5t-39 108.5t-98 40.5q-60 0 -99 -40.5t-39 -108.5t39 -108.5t99 -40.5q59 0 98 40.5z" />
    <glyph glyph-name="eth" unicode="&#xf0;" horiz-adv-x="657" 
d="M624 342q0 -110 -39 -189.5t-111.5 -122t-171.5 -42.5q-76 0 -137.5 29t-97 82t-35.5 122q0 67 33.5 118t91.5 79t129 28q115 0 176 -72v2q0 121 -58 184l-253 -97l-32 79l187 72q-29 7 -69 7q-72 0 -135 -21l-19 121q78 20 160 20q139 0 232 -63l90 35l32 -79l-53 -20
q80 -102 80 -272zM406.5 140q35.5 31 35.5 77q0 47 -35.5 77.5t-89.5 30.5q-58 0 -92 -29t-34 -79q0 -49 34 -78.5t89 -29.5q57 0 92.5 31z" />
    <glyph glyph-name="dcaron" unicode="&#x10f;" horiz-adv-x="692" 
d="M620 742v-742h-149v62q-58 -70 -168 -70q-76 0 -137.5 34t-96.5 97t-35 146t35 146t96.5 97t137.5 34q103 0 161 -65v261h156zM428 160.5q39 40.5 39 108.5t-39 108.5t-98 40.5q-60 0 -99 -40.5t-39 -108.5t39 -108.5t99 -40.5q59 0 98 40.5zM702 783h117l-20 -201h-97
v201z" />
    <glyph glyph-name="dcroat" unicode="&#x111;" horiz-adv-x="692" 
d="M620 742v-742h-149v62q-58 -70 -168 -70q-76 0 -137.5 34t-96.5 97t-35 146t35 146t96.5 97t137.5 34q103 0 161 -65v261h156zM428 160.5q39 40.5 39 108.5t-39 108.5t-98 40.5q-60 0 -99 -40.5t-39 -108.5t39 -108.5t99 -40.5q59 0 98 40.5zM281 683h412v-90h-412v90z
" />
    <glyph glyph-name="uni1E0D" unicode="&#x1e0d;" horiz-adv-x="692" 
d="M620 742v-742h-149v62q-58 -70 -168 -70q-76 0 -137.5 34t-96.5 97t-35 146t35 146t96.5 97t137.5 34q103 0 161 -65v261h156zM428 160.5q39 40.5 39 108.5t-39 108.5t-98 40.5q-60 0 -99 -40.5t-39 -108.5t39 -108.5t99 -40.5q59 0 98 40.5zM313.5 -191.5
q-19.5 18.5 -19.5 48.5t19.5 50t49.5 20q29 0 49 -20t20 -50t-19.5 -48.5t-49.5 -18.5t-49.5 18.5z" />
    <glyph glyph-name="uni1E0F" unicode="&#x1e0f;" horiz-adv-x="692" 
d="M620 742v-742h-149v62q-58 -70 -168 -70q-76 0 -137.5 34t-96.5 97t-35 146t35 146t96.5 97t137.5 34q103 0 161 -65v261h156zM428 160.5q39 40.5 39 108.5t-39 108.5t-98 40.5q-60 0 -99 -40.5t-39 -108.5t39 -108.5t99 -40.5q59 0 98 40.5zM178 -95h370v-87h-370v87z
" />
    <glyph glyph-name="uni01C6" unicode="&#x1c6;" horiz-adv-x="1233" 
d="M620 742v-742h-149v62q-58 -70 -168 -70q-76 0 -137.5 34t-96.5 97t-35 146t35 146t96.5 97t137.5 34q103 0 161 -65v261h156zM428 160.5q39 40.5 39 108.5t-39 108.5t-98 40.5q-60 0 -99 -40.5t-39 -108.5t39 -108.5t99 -40.5q59 0 98 40.5zM1199 120v-120h-480v94
l274 324h-267v120h464v-94l-274 -324h283zM1160 751l-132 -144h-138l-132 144h114l87 -75l87 75h114z" />
    <glyph glyph-name="e" unicode="e" horiz-adv-x="631" 
d="M596 225h-407q11 -50 52 -79t102 -29q42 0 74.5 12.5t60.5 39.5l83 -90q-76 -87 -222 -87q-91 0 -161 35.5t-108 98.5t-38 143q0 79 37.5 142.5t103 99t146.5 35.5q79 0 143 -34t100.5 -97.5t36.5 -147.5q0 -3 -3 -42zM231 398q-36 -30 -44 -82h265q-8 51 -44 81.5
t-88 30.5q-53 0 -89 -30z" />
    <glyph glyph-name="eacute" unicode="&#xe9;" horiz-adv-x="631" 
d="M596 225h-407q11 -50 52 -79t102 -29q42 0 74.5 12.5t60.5 39.5l83 -90q-76 -87 -222 -87q-91 0 -161 35.5t-108 98.5t-38 143q0 79 37.5 142.5t103 99t146.5 35.5q79 0 143 -34t100.5 -97.5t36.5 -147.5q0 -3 -3 -42zM231 398q-36 -30 -44 -82h265q-8 51 -44 81.5
t-88 30.5q-53 0 -89 -30zM360 751h168l-181 -144h-122z" />
    <glyph glyph-name="ebreve" unicode="&#x115;" horiz-adv-x="631" 
d="M596 225h-407q11 -50 52 -79t102 -29q42 0 74.5 12.5t60.5 39.5l83 -90q-76 -87 -222 -87q-91 0 -161 35.5t-108 98.5t-38 143q0 79 37.5 142.5t103 99t146.5 35.5q79 0 143 -34t100.5 -97.5t36.5 -147.5q0 -3 -3 -42zM231 398q-36 -30 -44 -82h265q-8 51 -44 81.5
t-88 30.5q-53 0 -89 -30zM186 640q-51 41 -54 111h98q1 -32 25.5 -51.5t60.5 -19.5t60.5 19.5t25.5 51.5h98q-3 -70 -54 -111t-130 -41t-130 41z" />
    <glyph glyph-name="ecaron" unicode="&#x11b;" horiz-adv-x="631" 
d="M596 225h-407q11 -50 52 -79t102 -29q42 0 74.5 12.5t60.5 39.5l83 -90q-76 -87 -222 -87q-91 0 -161 35.5t-108 98.5t-38 143q0 79 37.5 142.5t103 99t146.5 35.5q79 0 143 -34t100.5 -97.5t36.5 -147.5q0 -3 -3 -42zM231 398q-36 -30 -44 -82h265q-8 51 -44 81.5
t-88 30.5q-53 0 -89 -30zM517 751l-132 -144h-138l-132 144h114l87 -75l87 75h114z" />
    <glyph glyph-name="uni1E1D" unicode="&#x1e1d;" horiz-adv-x="631" 
d="M596 225h-407q11 -50 52 -79t102 -29q42 0 74.5 12.5t60.5 39.5l83 -90q-76 -87 -222 -87q-91 0 -161 35.5t-108 98.5t-38 143q0 79 37.5 142.5t103 99t146.5 35.5q79 0 143 -34t100.5 -97.5t36.5 -147.5q0 -3 -3 -42zM231 398q-36 -30 -44 -82h265q-8 51 -44 81.5
t-88 30.5q-53 0 -89 -30zM232 -226.5q-25 5.5 -42 15.5l24 67q32 -15 65 -15q52 0 52 32q0 29 -49 29h-34l26 106h83l-14 -58q44 -5 65.5 -27.5t21.5 -55.5q0 -46 -40 -72.5t-107 -26.5q-26 0 -51 5.5zM186 640q-51 41 -54 111h98q1 -32 25.5 -51.5t60.5 -19.5t60.5 19.5
t25.5 51.5h98q-3 -70 -54 -111t-130 -41t-130 41z" />
    <glyph glyph-name="ecircumflex" unicode="&#xea;" horiz-adv-x="631" 
d="M596 225h-407q11 -50 52 -79t102 -29q42 0 74.5 12.5t60.5 39.5l83 -90q-76 -87 -222 -87q-91 0 -161 35.5t-108 98.5t-38 143q0 79 37.5 142.5t103 99t146.5 35.5q79 0 143 -34t100.5 -97.5t36.5 -147.5q0 -3 -3 -42zM231 398q-36 -30 -44 -82h265q-8 51 -44 81.5
t-88 30.5q-53 0 -89 -30zM403 607l-87 76l-87 -76h-114l132 144h138l132 -144h-114z" />
    <glyph glyph-name="uni1EBF" unicode="&#x1ebf;" horiz-adv-x="631" 
d="M596 225h-407q11 -50 52 -79t102 -29q42 0 74.5 12.5t60.5 39.5l83 -90q-76 -87 -222 -87q-91 0 -161 35.5t-108 98.5t-38 143q0 79 37.5 142.5t103 99t146.5 35.5q79 0 143 -34t100.5 -97.5t36.5 -147.5q0 -3 -3 -42zM231 398q-36 -30 -44 -82h265q-8 51 -44 81.5
t-88 30.5q-53 0 -89 -30zM402 607l-86 57l-86 -57h-115l133 114h136l133 -114h-115zM547 824h159l-157 -121h-113z" />
    <glyph glyph-name="uni1EC7" unicode="&#x1ec7;" horiz-adv-x="631" 
d="M596 225h-407q11 -50 52 -79t102 -29q42 0 74.5 12.5t60.5 39.5l83 -90q-76 -87 -222 -87q-91 0 -161 35.5t-108 98.5t-38 143q0 79 37.5 142.5t103 99t146.5 35.5q79 0 143 -34t100.5 -97.5t36.5 -147.5q0 -3 -3 -42zM231 398q-36 -30 -44 -82h265q-8 51 -44 81.5
t-88 30.5q-53 0 -89 -30zM266.5 -191.5q-19.5 18.5 -19.5 48.5t19.5 50t49.5 20q29 0 49 -20t20 -50t-19.5 -48.5t-49.5 -18.5t-49.5 18.5zM403 607l-87 76l-87 -76h-114l132 144h138l132 -144h-114z" />
    <glyph glyph-name="uni1EC1" unicode="&#x1ec1;" horiz-adv-x="631" 
d="M596 225h-407q11 -50 52 -79t102 -29q42 0 74.5 12.5t60.5 39.5l83 -90q-76 -87 -222 -87q-91 0 -161 35.5t-108 98.5t-38 143q0 79 37.5 142.5t103 99t146.5 35.5q79 0 143 -34t100.5 -97.5t36.5 -147.5q0 -3 -3 -42zM231 398q-36 -30 -44 -82h265q-8 51 -44 81.5
t-88 30.5q-53 0 -89 -30zM402 607l-86 57l-86 -57h-115l133 114h136l133 -114h-115zM339 824h159l110 -121h-112z" />
    <glyph glyph-name="uni1EC3" unicode="&#x1ec3;" horiz-adv-x="631" 
d="M596 225h-407q11 -50 52 -79t102 -29q42 0 74.5 12.5t60.5 39.5l83 -90q-76 -87 -222 -87q-91 0 -161 35.5t-108 98.5t-38 143q0 79 37.5 142.5t103 99t146.5 35.5q79 0 143 -34t100.5 -97.5t36.5 -147.5q0 -3 -3 -42zM231 398q-36 -30 -44 -82h265q-8 51 -44 81.5
t-88 30.5q-53 0 -89 -30zM402 607l-86 57l-86 -57h-115l133 114h136l133 -114h-115zM456 721q37 18 37 42q0 13 -9.5 21t-24.5 8q-21 0 -44 -12l-26 48q34 22 83 22q42 0 67 -21.5t25 -57.5q0 -29 -19.5 -52t-50.5 -35z" />
    <glyph glyph-name="uni1EC5" unicode="&#x1ec5;" horiz-adv-x="631" 
d="M596 225h-407q11 -50 52 -79t102 -29q42 0 74.5 12.5t60.5 39.5l83 -90q-76 -87 -222 -87q-91 0 -161 35.5t-108 98.5t-38 143q0 79 37.5 142.5t103 99t146.5 35.5q79 0 143 -34t100.5 -97.5t36.5 -147.5q0 -3 -3 -42zM231 398q-36 -30 -44 -82h265q-8 51 -44 81.5
t-88 30.5q-53 0 -89 -30zM402 607l-86 57l-86 -57h-115l133 114h136l133 -114h-115zM342 764.5q-21 8.5 -46 24.5q-12 7 -23.5 13t-20.5 6q-20 0 -31 -12t-13 -34h-80q1 60 31.5 92.5t84.5 32.5q26 0 44.5 -8t46.5 -24q16 -10 26.5 -15t20.5 -5q20 0 31 12.5t13 32.5h78
q-1 -58 -31 -91t-83 -33q-27 0 -48 8.5z" />
    <glyph glyph-name="uni0205" unicode="&#x205;" horiz-adv-x="631" 
d="M596 225h-407q11 -50 52 -79t102 -29q42 0 74.5 12.5t60.5 39.5l83 -90q-76 -87 -222 -87q-91 0 -161 35.5t-108 98.5t-38 143q0 79 37.5 142.5t103 99t146.5 35.5q79 0 143 -34t100.5 -97.5t36.5 -147.5q0 -3 -3 -42zM231 398q-36 -30 -44 -82h265q-8 51 -44 81.5
t-88 30.5q-53 0 -89 -30zM54 751h146l72 -144h-114zM256 751h146l72 -144h-114z" />
    <glyph glyph-name="edieresis" unicode="&#xeb;" horiz-adv-x="631" 
d="M596 225h-407q11 -50 52 -79t102 -29q42 0 74.5 12.5t60.5 39.5l83 -90q-76 -87 -222 -87q-91 0 -161 35.5t-108 98.5t-38 143q0 79 37.5 142.5t103 99t146.5 35.5q79 0 143 -34t100.5 -97.5t36.5 -147.5q0 -3 -3 -42zM231 398q-36 -30 -44 -82h265q-8 51 -44 81.5
t-88 30.5q-53 0 -89 -30zM165 631.5q-20 19.5 -20 49.5t20 49.5t50 19.5t49.5 -19.5t19.5 -49.5t-19.5 -49.5t-49.5 -19.5t-50 19.5zM367.5 631.5q-19.5 19.5 -19.5 49.5t19.5 49.5t49.5 19.5t50 -19.5t20 -49.5t-20 -49.5t-50 -19.5t-49.5 19.5z" />
    <glyph glyph-name="edotaccent" unicode="&#x117;" horiz-adv-x="631" 
d="M596 225h-407q11 -50 52 -79t102 -29q42 0 74.5 12.5t60.5 39.5l83 -90q-76 -87 -222 -87q-91 0 -161 35.5t-108 98.5t-38 143q0 79 37.5 142.5t103 99t146.5 35.5q79 0 143 -34t100.5 -97.5t36.5 -147.5q0 -3 -3 -42zM231 398q-36 -30 -44 -82h265q-8 51 -44 81.5
t-88 30.5q-53 0 -89 -30zM255.5 636q-23.5 24 -23.5 61q0 36 23.5 60t60.5 24t60.5 -24t23.5 -60q0 -37 -23.5 -61t-60.5 -24t-60.5 24z" />
    <glyph glyph-name="uni1EB9" unicode="&#x1eb9;" horiz-adv-x="631" 
d="M596 225h-407q11 -50 52 -79t102 -29q42 0 74.5 12.5t60.5 39.5l83 -90q-76 -87 -222 -87q-91 0 -161 35.5t-108 98.5t-38 143q0 79 37.5 142.5t103 99t146.5 35.5q79 0 143 -34t100.5 -97.5t36.5 -147.5q0 -3 -3 -42zM231 398q-36 -30 -44 -82h265q-8 51 -44 81.5
t-88 30.5q-53 0 -89 -30zM266.5 -191.5q-19.5 18.5 -19.5 48.5t19.5 50t49.5 20q29 0 49 -20t20 -50t-19.5 -48.5t-49.5 -18.5t-49.5 18.5z" />
    <glyph glyph-name="egrave" unicode="&#xe8;" horiz-adv-x="631" 
d="M596 225h-407q11 -50 52 -79t102 -29q42 0 74.5 12.5t60.5 39.5l83 -90q-76 -87 -222 -87q-91 0 -161 35.5t-108 98.5t-38 143q0 79 37.5 142.5t103 99t146.5 35.5q79 0 143 -34t100.5 -97.5t36.5 -147.5q0 -3 -3 -42zM231 398q-36 -30 -44 -82h265q-8 51 -44 81.5
t-88 30.5q-53 0 -89 -30zM104 751h168l135 -144h-122z" />
    <glyph glyph-name="uni1EBB" unicode="&#x1ebb;" horiz-adv-x="631" 
d="M596 225h-407q11 -50 52 -79t102 -29q42 0 74.5 12.5t60.5 39.5l83 -90q-76 -87 -222 -87q-91 0 -161 35.5t-108 98.5t-38 143q0 79 37.5 142.5t103 99t146.5 35.5q79 0 143 -34t100.5 -97.5t36.5 -147.5q0 -3 -3 -42zM231 398q-36 -30 -44 -82h265q-8 51 -44 81.5
t-88 30.5q-53 0 -89 -30zM297 649q28 13 39.5 28t11.5 33q0 19 -13 30.5t-34 11.5q-30 0 -59 -19l-32 63q43 34 108 34q53 0 86.5 -29.5t33.5 -77.5q0 -84 -92 -126z" />
    <glyph glyph-name="uni0207" unicode="&#x207;" horiz-adv-x="631" 
d="M596 225h-407q11 -50 52 -79t102 -29q42 0 74.5 12.5t60.5 39.5l83 -90q-76 -87 -222 -87q-91 0 -161 35.5t-108 98.5t-38 143q0 79 37.5 142.5t103 99t146.5 35.5q79 0 143 -34t100.5 -97.5t36.5 -147.5q0 -3 -3 -42zM231 398q-36 -30 -44 -82h265q-8 51 -44 81.5
t-88 30.5q-53 0 -89 -30zM186 718q51 41 130 41t130 -41t54 -111h-98q-1 32 -25.5 51.5t-60.5 19.5t-60.5 -19.5t-25.5 -51.5h-98q3 70 54 111z" />
    <glyph glyph-name="emacron" unicode="&#x113;" horiz-adv-x="631" 
d="M596 225h-407q11 -50 52 -79t102 -29q42 0 74.5 12.5t60.5 39.5l83 -90q-76 -87 -222 -87q-91 0 -161 35.5t-108 98.5t-38 143q0 79 37.5 142.5t103 99t146.5 35.5q79 0 143 -34t100.5 -97.5t36.5 -147.5q0 -3 -3 -42zM231 398q-36 -30 -44 -82h265q-8 51 -44 81.5
t-88 30.5q-53 0 -89 -30zM131 723h370v-88h-370v88z" />
    <glyph glyph-name="uni1E17" unicode="&#x1e17;" horiz-adv-x="631" 
d="M596 225h-407q11 -50 52 -79t102 -29q42 0 74.5 12.5t60.5 39.5l83 -90q-76 -87 -222 -87q-91 0 -161 35.5t-108 98.5t-38 143q0 79 37.5 142.5t103 99t146.5 35.5q79 0 143 -34t100.5 -97.5t36.5 -147.5q0 -3 -3 -42zM231 398q-36 -30 -44 -82h265q-8 51 -44 81.5
t-88 30.5q-53 0 -89 -30zM131 706h370v-83h-370v83zM341 889h159l-157 -121h-113z" />
    <glyph glyph-name="uni1E15" unicode="&#x1e15;" horiz-adv-x="631" 
d="M596 225h-407q11 -50 52 -79t102 -29q42 0 74.5 12.5t60.5 39.5l83 -90q-76 -87 -222 -87q-91 0 -161 35.5t-108 98.5t-38 143q0 79 37.5 142.5t103 99t146.5 35.5q79 0 143 -34t100.5 -97.5t36.5 -147.5q0 -3 -3 -42zM231 398q-36 -30 -44 -82h265q-8 51 -44 81.5
t-88 30.5q-53 0 -89 -30zM131 706h370v-83h-370v83zM133 889h159l110 -121h-112z" />
    <glyph glyph-name="eogonek" unicode="&#x119;" horiz-adv-x="631" 
d="M596 225h-407q11 -50 52 -79t102 -29q42 0 74.5 12.5t60.5 39.5l84 -90q-20 -21 -41 -36q-63 -46 -87 -80t-24 -65q0 -24 15.5 -37.5t42.5 -13.5q32 0 59 15l23 -71q-19 -10 -46.5 -16.5t-54.5 -6.5q-64 0 -101 31.5t-37 84.5q0 28 12.5 56.5t36.5 52.5q-7 -1 -21 -1
q-91 0 -161 35.5t-108 98.5t-38 143q0 79 37.5 142.5t103 99t146.5 35.5q79 0 143 -34t100.5 -97.5t36.5 -147.5q0 -3 -3 -42zM231 398q-36 -30 -44 -82h265q-8 51 -44 81.5t-88 30.5q-53 0 -89 -30z" />
    <glyph glyph-name="uni1EBD" unicode="&#x1ebd;" horiz-adv-x="631" 
d="M596 225h-407q11 -50 52 -79t102 -29q42 0 74.5 12.5t60.5 39.5l83 -90q-76 -87 -222 -87q-91 0 -161 35.5t-108 98.5t-38 143q0 79 37.5 142.5t103 99t146.5 35.5q79 0 143 -34t100.5 -97.5t36.5 -147.5q0 -3 -3 -42zM231 398q-36 -30 -44 -82h265q-8 51 -44 81.5
t-88 30.5q-53 0 -89 -30zM343.5 614.5q-20.5 10.5 -45.5 28.5q-16 12 -26.5 18t-20.5 6q-21 0 -34 -14.5t-14 -41.5h-79q2 67 33.5 106.5t83.5 39.5q26 0 46.5 -10.5t46.5 -29.5q16 -12 26.5 -18t20.5 -6q20 0 33.5 14.5t14.5 39.5h79q-2 -65 -33.5 -104t-83.5 -39
q-27 0 -47.5 10.5z" />
    <glyph glyph-name="uni0259" unicode="&#x259;" horiz-adv-x="631" 
d="M35 313h407q-11 50 -52 79t-102 29q-42 0 -74.5 -12.5t-60.5 -39.5l-83 90q76 87 222 87q91 0 161 -35.5t108 -98.5t38 -143q0 -79 -37.5 -142.5t-103 -99t-146.5 -35.5q-79 0 -143 34t-100.5 97.5t-36.5 147.5q0 3 3 42zM400 140q36 30 44 82h-265q8 -51 44 -81.5
t88 -30.5q53 0 89 30z" />
    <glyph glyph-name="uni0292" unicode="&#x292;" horiz-adv-x="554" 
d="M480 170.5q50 -55.5 50 -139.5q0 -64 -31.5 -117t-96 -84.5t-159.5 -31.5q-75 0 -144.5 20.5t-116.5 57.5l55 125q39 -32 92 -50t108 -18q62 0 97 26t35 72q0 45 -32 70.5t-98 25.5h-74v104l148 178h-303v129h486v-105l-161 -193q95 -14 145 -69.5z" />
    <glyph glyph-name="uni01EF" unicode="&#x1ef;" horiz-adv-x="554" 
d="M480 170.5q50 -55.5 50 -139.5q0 -64 -31.5 -117t-96 -84.5t-159.5 -31.5q-75 0 -144.5 20.5t-116.5 57.5l55 125q39 -32 92 -50t108 -18q62 0 97 26t35 72q0 45 -32 70.5t-98 25.5h-74v104l148 178h-303v129h486v-105l-161 -193q95 -14 145 -69.5zM446 751l-132 -144
h-138l-132 144h114l87 -75l87 75h114z" />
    <glyph glyph-name="f" unicode="f" horiz-adv-x="387" 
d="M243 526h138v-120h-134v-406h-156v406h-83v120h83v24q0 92 54.5 146t153.5 54q35 0 66.5 -7.5t52.5 -21.5l-41 -113q-27 19 -63 19q-71 0 -71 -78v-23z" />
    <glyph glyph-name="g" unicode="g" horiz-adv-x="700" 
d="M627 538v-448q0 -148 -77 -220t-225 -72q-78 0 -148 19t-116 55l62 112q34 -28 86 -44.5t104 -16.5q81 0 119.5 36.5t38.5 110.5v23q-61 -67 -170 -67q-74 0 -135.5 32.5t-97.5 91.5t-36 136t36 136t97.5 91.5t135.5 32.5q117 0 178 -77v69h148zM433.5 190.5
q39.5 36.5 39.5 95.5t-39.5 95.5t-101.5 36.5t-102 -36.5t-40 -95.5t40 -95.5t102 -36.5t101.5 36.5z" />
    <glyph glyph-name="gbreve" unicode="&#x11f;" horiz-adv-x="700" 
d="M627 538v-448q0 -148 -77 -220t-225 -72q-78 0 -148 19t-116 55l62 112q34 -28 86 -44.5t104 -16.5q81 0 119.5 36.5t38.5 110.5v23q-61 -67 -170 -67q-74 0 -135.5 32.5t-97.5 91.5t-36 136t36 136t97.5 91.5t135.5 32.5q117 0 178 -77v69h148zM433.5 190.5
q39.5 36.5 39.5 95.5t-39.5 95.5t-101.5 36.5t-102 -36.5t-40 -95.5t40 -95.5t102 -36.5t101.5 36.5zM211 640q-51 41 -54 111h98q1 -32 25.5 -51.5t60.5 -19.5t60.5 19.5t25.5 51.5h98q-3 -70 -54 -111t-130 -41t-130 41z" />
    <glyph glyph-name="gcaron" unicode="&#x1e7;" horiz-adv-x="700" 
d="M627 538v-448q0 -148 -77 -220t-225 -72q-78 0 -148 19t-116 55l62 112q34 -28 86 -44.5t104 -16.5q81 0 119.5 36.5t38.5 110.5v23q-61 -67 -170 -67q-74 0 -135.5 32.5t-97.5 91.5t-36 136t36 136t97.5 91.5t135.5 32.5q117 0 178 -77v69h148zM433.5 190.5
q39.5 36.5 39.5 95.5t-39.5 95.5t-101.5 36.5t-102 -36.5t-40 -95.5t40 -95.5t102 -36.5t101.5 36.5zM542 751l-132 -144h-138l-132 144h114l87 -75l87 75h114z" />
    <glyph glyph-name="gcircumflex" unicode="&#x11d;" horiz-adv-x="700" 
d="M627 538v-448q0 -148 -77 -220t-225 -72q-78 0 -148 19t-116 55l62 112q34 -28 86 -44.5t104 -16.5q81 0 119.5 36.5t38.5 110.5v23q-61 -67 -170 -67q-74 0 -135.5 32.5t-97.5 91.5t-36 136t36 136t97.5 91.5t135.5 32.5q117 0 178 -77v69h148zM433.5 190.5
q39.5 36.5 39.5 95.5t-39.5 95.5t-101.5 36.5t-102 -36.5t-40 -95.5t40 -95.5t102 -36.5t101.5 36.5zM428 607l-87 76l-87 -76h-114l132 144h138l132 -144h-114z" />
    <glyph glyph-name="gcommaaccent" unicode="&#x123;" horiz-adv-x="700" 
d="M627 538v-448q0 -148 -77 -220t-225 -72q-78 0 -148 19t-116 55l62 112q34 -28 86 -44.5t104 -16.5q81 0 119.5 36.5t38.5 110.5v23q-61 -67 -170 -67q-74 0 -135.5 32.5t-97.5 91.5t-36 136t36 136t97.5 91.5t135.5 32.5q117 0 178 -77v69h148zM433.5 190.5
q39.5 36.5 39.5 95.5t-39.5 95.5t-101.5 36.5t-102 -36.5t-40 -95.5t40 -95.5t102 -36.5t101.5 36.5zM420 659q0 -28 -20 -44t-59 -16t-59 16.5t-20 43.5q0 25 21 64l45 90h84l-34 -101q42 -12 42 -53z" />
    <glyph glyph-name="gdotaccent" unicode="&#x121;" horiz-adv-x="700" 
d="M627 538v-448q0 -148 -77 -220t-225 -72q-78 0 -148 19t-116 55l62 112q34 -28 86 -44.5t104 -16.5q81 0 119.5 36.5t38.5 110.5v23q-61 -67 -170 -67q-74 0 -135.5 32.5t-97.5 91.5t-36 136t36 136t97.5 91.5t135.5 32.5q117 0 178 -77v69h148zM433.5 190.5
q39.5 36.5 39.5 95.5t-39.5 95.5t-101.5 36.5t-102 -36.5t-40 -95.5t40 -95.5t102 -36.5t101.5 36.5zM280.5 636q-23.5 24 -23.5 61q0 36 23.5 60t60.5 24t60.5 -24t23.5 -60q0 -37 -23.5 -61t-60.5 -24t-60.5 24z" />
    <glyph glyph-name="uni1E21" unicode="&#x1e21;" horiz-adv-x="700" 
d="M627 538v-448q0 -148 -77 -220t-225 -72q-78 0 -148 19t-116 55l62 112q34 -28 86 -44.5t104 -16.5q81 0 119.5 36.5t38.5 110.5v23q-61 -67 -170 -67q-74 0 -135.5 32.5t-97.5 91.5t-36 136t36 136t97.5 91.5t135.5 32.5q117 0 178 -77v69h148zM433.5 190.5
q39.5 36.5 39.5 95.5t-39.5 95.5t-101.5 36.5t-102 -36.5t-40 -95.5t40 -95.5t102 -36.5t101.5 36.5zM156 723h370v-88h-370v88z" />
    <glyph glyph-name="uni01E5" unicode="&#x1e5;" horiz-adv-x="711" 
d="M691 -38h-83q-58 -164 -285 -164q-77 0 -146.5 19.5t-115.5 54.5l62 108q34 -28 86 -44.5t105 -16.5q86 0 125 43h-166v76h197q1 9 1 28v64q-62 -65 -174 -65q-77 0 -137 30.5t-94 85.5t-34 125t34 124t94 84.5t137 30.5q57 0 104 -18.5t78 -55.5v67h148v-448
q0 -27 -3 -51h67v-77zM434 215q39 34 39 91q0 56 -39 90t-102 34t-102.5 -34t-39.5 -90q0 -57 39.5 -91t102.5 -34t102 34z" />
    <glyph glyph-name="h" unicode="h" horiz-adv-x="691" 
d="M560.5 486q61.5 -60 61.5 -178v-308h-156v284q0 64 -28 95.5t-81 31.5q-59 0 -94 -36.5t-35 -108.5v-266h-156v742h156v-260q31 31 75 47.5t96 16.5q100 0 161.5 -60z" />
    <glyph glyph-name="hbar" unicode="&#x127;" horiz-adv-x="691" 
d="M560.5 486q61.5 -60 61.5 -178v-308h-156v284q0 64 -28 95.5t-81 31.5q-59 0 -94 -36.5t-35 -108.5v-266h-156v742h156v-260q31 31 75 47.5t96 16.5q100 0 161.5 -60zM0 683h412v-90h-412v90z" />
    <glyph glyph-name="uni1E2B" unicode="&#x1e2b;" horiz-adv-x="691" 
d="M560.5 486q61.5 -60 61.5 -178v-308h-156v284q0 64 -28 95.5t-81 31.5q-59 0 -94 -36.5t-35 -108.5v-266h-156v742h156v-260q31 31 75 47.5t96 16.5q100 0 161.5 -60zM219 -177.5q-51 39.5 -55 103.5h93q1 -30 26.5 -48.5t64.5 -18.5t64.5 18.5t26.5 48.5h93
q-4 -64 -55 -103.5t-129 -39.5t-129 39.5z" />
    <glyph glyph-name="uni021F" unicode="&#x21f;" horiz-adv-x="691" 
d="M560.5 486q61.5 -60 61.5 -178v-308h-156v284q0 64 -28 95.5t-81 31.5q-59 0 -94 -36.5t-35 -108.5v-266h-156v742h156v-260q31 31 75 47.5t96 16.5q100 0 161.5 -60zM351 955l-132 -144h-138l-132 144h114l87 -75l87 75h114z" />
    <glyph glyph-name="hcircumflex" unicode="&#x125;" horiz-adv-x="691" 
d="M560.5 486q61.5 -60 61.5 -178v-308h-156v284q0 64 -28 95.5t-81 31.5q-59 0 -94 -36.5t-35 -108.5v-266h-156v742h156v-260q31 31 75 47.5t96 16.5q100 0 161.5 -60zM237 799l-87 76l-87 -76h-114l132 144h138l132 -144h-114z" />
    <glyph glyph-name="uni1E25" unicode="&#x1e25;" horiz-adv-x="691" 
d="M560.5 486q61.5 -60 61.5 -178v-308h-156v284q0 64 -28 95.5t-81 31.5q-59 0 -94 -36.5t-35 -108.5v-266h-156v742h156v-260q31 31 75 47.5t96 16.5q100 0 161.5 -60zM298.5 -191.5q-19.5 18.5 -19.5 48.5t19.5 50t49.5 20q29 0 49 -20t20 -50t-19.5 -48.5t-49.5 -18.5
t-49.5 18.5z" />
    <glyph glyph-name="i" unicode="i" horiz-adv-x="301" 
d="M72 538h156v-538h-156v538zM80 638q-27 25 -27 62t27 62t70 25t70 -24t27 -60q0 -39 -27 -64.5t-70 -25.5t-70 25z" />
    <glyph glyph-name="dotlessi" unicode="&#x131;" horiz-adv-x="301" 
d="M72 538h156v-538h-156v538z" />
    <glyph glyph-name="iacute" unicode="&#xed;" horiz-adv-x="301" 
d="M72 538h156v-538h-156v538zM194 751h168l-181 -144h-122z" />
    <glyph glyph-name="ibreve" unicode="&#x12d;" horiz-adv-x="301" 
d="M72 538h156v-538h-156v538zM36.5 640.5q-44.5 41.5 -45.5 110.5h94q0 -33 17.5 -52.5t47.5 -19.5t47.5 19.5t17.5 52.5h94q-1 -69 -45.5 -110.5t-113.5 -41.5t-113.5 41.5z" />
    <glyph glyph-name="icircumflex" unicode="&#xee;" horiz-adv-x="301" 
d="M72 538h156v-538h-156v538zM215 607l-65 70l-65 -70h-111l109 144h134l109 -144h-111z" />
    <glyph glyph-name="uni0209" unicode="&#x209;" horiz-adv-x="301" 
d="M72 538h156v-538h-156v538zM-112 751h146l72 -144h-114zM90 751h146l72 -144h-114z" />
    <glyph glyph-name="idieresis" unicode="&#xef;" horiz-adv-x="301" 
d="M72 538h156v-538h-156v538zM21.5 632q-18.5 19 -18.5 49t18.5 49t46.5 19t47 -19t19 -49t-19 -49t-47 -19t-46.5 19zM185 632q-19 19 -19 49t19 49t47 19t46.5 -19t18.5 -49t-18.5 -49t-46.5 -19t-47 19z" />
    <glyph glyph-name="uni1E2F" unicode="&#x1e2f;" horiz-adv-x="301" 
d="M72 538h156v-538h-156v538zM5 630.5q-19 18.5 -19 47.5q0 28 19 47t47 19q29 0 48 -19t19 -47q0 -29 -19 -47.5t-48 -18.5q-28 0 -47 18.5zM201 630.5q-19 18.5 -19 47.5q0 28 19.5 47t46.5 19q28 0 47 -19t19 -47q0 -29 -19 -47.5t-47 -18.5t-47 18.5zM175 889h159
l-157 -121h-113z" />
    <glyph glyph-name="i.loclTRK" horiz-adv-x="301" 
d="M72 538h156v-538h-156v538zM89.5 636q-23.5 24 -23.5 61q0 36 23.5 60t60.5 24t60.5 -24t23.5 -60q0 -37 -23.5 -61t-60.5 -24t-60.5 24z" />
    <glyph glyph-name="uni1ECB" unicode="&#x1ecb;" horiz-adv-x="301" 
d="M72 538h156v-538h-156v538zM80 638q-27 25 -27 62t27 62t70 25t70 -24t27 -60q0 -39 -27 -64.5t-70 -25.5t-70 25zM100.5 -191.5q-19.5 18.5 -19.5 48.5t19.5 50t49.5 20q29 0 49 -20t20 -50t-19.5 -48.5t-49.5 -18.5t-49.5 18.5z" />
    <glyph glyph-name="igrave" unicode="&#xec;" horiz-adv-x="301" 
d="M72 538h156v-538h-156v538zM-62 751h168l135 -144h-122z" />
    <glyph glyph-name="uni1EC9" unicode="&#x1ec9;" horiz-adv-x="301" 
d="M72 538h156v-538h-156v538zM131 649q28 13 39.5 28t11.5 33q0 19 -13 30.5t-34 11.5q-30 0 -59 -19l-32 63q43 34 108 34q53 0 86.5 -29.5t33.5 -77.5q0 -84 -92 -126z" />
    <glyph glyph-name="uni020B" unicode="&#x20b;" horiz-adv-x="301" 
d="M72 538h156v-538h-156v538zM36.5 717.5q44.5 41.5 113.5 41.5t113.5 -41.5t45.5 -110.5h-94q0 33 -17 52.5t-48 19.5t-48 -19.5t-17 -52.5h-94q1 69 45.5 110.5z" />
    <glyph glyph-name="ij" unicode="&#x133;" horiz-adv-x="608" 
d="M72 538h156v-538h-156v538zM80 638q-27 25 -27 62t27 62t70 25t70 -24t27 -60q0 -39 -27 -64.5t-70 -25.5t-70 25zM208 -172l42 113q27 -19 66 -19q30 0 47 19.5t17 58.5v538h156v-537q0 -94 -53.5 -148.5t-149.5 -54.5q-82 0 -125 30zM388 638q-27 25 -27 62t27 62
t70 25t70 -24t27 -60q0 -39 -27 -64.5t-70 -25.5t-70 25z" />
    <glyph glyph-name="imacron" unicode="&#x12b;" horiz-adv-x="301" 
d="M72 538h156v-538h-156v538zM0 723h300v-88h-300v88z" />
    <glyph glyph-name="iogonek" unicode="&#x12f;" horiz-adv-x="301" 
d="M72 538h156v-538h-156v538zM80 638q-27 25 -27 62t27 62t70 25t70 -24t27 -60q0 -39 -27 -64.5t-70 -25.5t-70 25zM98 -201.5q-33 30.5 -33 80.5q0 47 29 88.5t86 73.5l48 -41q-36 -29 -50.5 -54.5t-14.5 -51.5q0 -21 12 -34t30 -13t32 10l22 -68q-29 -21 -74 -21
q-54 0 -87 30.5z" />
    <glyph glyph-name="itilde" unicode="&#x129;" horiz-adv-x="301" 
d="M72 538h156v-538h-156v538zM172 615q-19 11 -41 31q-2 2 -10.5 9t-14.5 10.5t-12 3.5q-15 0 -23 -15t-8 -43h-78q0 71 25.5 108.5t73.5 37.5q25 0 44 -11t41 -31q2 -2 10.5 -9t14.5 -10.5t12 -3.5q15 0 23 14.5t8 40.5h78q0 -69 -25.5 -106t-73.5 -37q-25 0 -44 11z" />
    <glyph glyph-name="j" unicode="j" horiz-adv-x="307" 
d="M-93 -172l42 113q27 -19 66 -19q30 0 47 19.5t17 58.5v538h156v-537q0 -94 -53.5 -148.5t-149.5 -54.5q-82 0 -125 30zM87 638q-27 25 -27 62t27 62t70 25t70 -24t27 -60q0 -39 -27 -64.5t-70 -25.5t-70 25z" />
    <glyph glyph-name="uni0237" unicode="&#x237;" horiz-adv-x="307" 
d="M-93 -172l42 113q27 -19 66 -19q30 0 47 19.5t17 58.5v538h156v-537q0 -94 -53.5 -148.5t-149.5 -54.5q-82 0 -125 30z" />
    <glyph glyph-name="jcircumflex" unicode="&#x135;" horiz-adv-x="307" 
d="M-93 -172l42 113q27 -19 66 -19q30 0 47 19.5t17 58.5v538h156v-537q0 -94 -53.5 -148.5t-149.5 -54.5q-82 0 -125 30zM222 607l-65 70l-65 -70h-111l109 144h134l109 -144h-111z" />
    <glyph glyph-name="k" unicode="k" horiz-adv-x="660" 
d="M303 211l-75 -74v-137h-156v742h156v-420l228 216h186l-224 -228l244 -310h-189z" />
    <glyph glyph-name="uni01E9" unicode="&#x1e9;" horiz-adv-x="660" 
d="M303 211l-75 -74v-137h-156v742h156v-420l228 216h186l-224 -228l244 -310h-189zM351 955l-132 -144h-138l-132 144h114l87 -75l87 75h114z" />
    <glyph glyph-name="kcommaaccent" unicode="&#x137;" horiz-adv-x="660" 
d="M303 211l-75 -74v-137h-156v742h156v-420l228 216h186l-224 -228l244 -310h-189zM368.5 -89.5q18.5 -16.5 18.5 -43.5q0 -31 -18 -65l-35 -68h-73l25 80q-18 6 -27.5 19.5t-9.5 33.5q0 27 18.5 43.5t50.5 16.5t50.5 -16.5z" />
    <glyph glyph-name="kgreenlandic" unicode="&#x138;" horiz-adv-x="645" 
d="M303 211l-75 -74v-137h-156v538h156v-216l228 216h186l-224 -228l244 -310h-189z" />
    <glyph glyph-name="l" unicode="l" horiz-adv-x="301" 
d="M72 742h156v-742h-156v742z" />
    <glyph glyph-name="lacute" unicode="&#x13a;" horiz-adv-x="301" 
d="M72 742h156v-742h-156v742zM194 955h168l-181 -144h-122z" />
    <glyph glyph-name="lcaron" unicode="&#x13e;" horiz-adv-x="301" 
d="M72 742h156v-742h-156v742zM308 783h117l-20 -201h-97v201z" />
    <glyph glyph-name="lcommaaccent" unicode="&#x13c;" horiz-adv-x="301" 
d="M72 742h156v-742h-156v742zM200.5 -89.5q18.5 -16.5 18.5 -43.5q0 -31 -18 -65l-35 -68h-73l25 80q-18 6 -27.5 19.5t-9.5 33.5q0 27 18.5 43.5t50.5 16.5t50.5 -16.5z" />
    <glyph glyph-name="ldot" unicode="&#x140;" horiz-adv-x="420" 
d="M72 742h156v-742h-156v742zM304 306.5q-22 22.5 -22 56.5t22 56t56 22t56.5 -22t22.5 -56t-22.5 -56.5t-56.5 -22.5t-56 22.5z" />
    <glyph glyph-name="uni1E37" unicode="&#x1e37;" horiz-adv-x="301" 
d="M72 742h156v-742h-156v742zM100.5 -191.5q-19.5 18.5 -19.5 48.5t19.5 50t49.5 20q29 0 49 -20t20 -50t-19.5 -48.5t-49.5 -18.5t-49.5 18.5z" />
    <glyph glyph-name="uni01C9" unicode="&#x1c9;" horiz-adv-x="608" 
d="M72 742h156v-742h-156v742zM208 -172l42 113q27 -19 66 -19q30 0 47 19.5t17 58.5v538h156v-537q0 -94 -53.5 -148.5t-149.5 -54.5q-82 0 -125 30zM388 638q-27 25 -27 62t27 62t70 25t70 -24t27 -60q0 -39 -27 -64.5t-70 -25.5t-70 25z" />
    <glyph glyph-name="uni1E3B" unicode="&#x1e3b;" horiz-adv-x="301" 
d="M72 742h156v-742h-156v742zM-35 -95h370v-87h-370v87z" />
    <glyph glyph-name="lslash" unicode="&#x142;" horiz-adv-x="327" 
d="M85 742h156v-742h-156v742zM-28 281l324 244l57 -80l-323 -242z" />
    <glyph glyph-name="m" unicode="m" horiz-adv-x="1049" 
d="M921.5 486.5q59.5 -59.5 59.5 -178.5v-308h-156v284q0 64 -26.5 95.5t-75.5 31.5q-55 0 -87 -35.5t-32 -105.5v-270h-156v284q0 127 -102 127q-54 0 -86 -35.5t-32 -105.5v-270h-156v538h149v-62q30 34 73.5 52t95.5 18q57 0 103 -22.5t74 -65.5q33 42 83.5 65t110.5 23
q101 0 160.5 -59.5z" />
    <glyph glyph-name="uni1E43" unicode="&#x1e43;" horiz-adv-x="1049" 
d="M921.5 486.5q59.5 -59.5 59.5 -178.5v-308h-156v284q0 64 -26.5 95.5t-75.5 31.5q-55 0 -87 -35.5t-32 -105.5v-270h-156v284q0 127 -102 127q-54 0 -86 -35.5t-32 -105.5v-270h-156v538h149v-62q30 34 73.5 52t95.5 18q57 0 103 -22.5t74 -65.5q33 42 83.5 65t110.5 23
q101 0 160.5 -59.5zM475.5 -191.5q-19.5 18.5 -19.5 48.5t19.5 50t49.5 20q29 0 49 -20t20 -50t-19.5 -48.5t-49.5 -18.5t-49.5 18.5z" />
    <glyph glyph-name="n" unicode="n" horiz-adv-x="691" 
d="M560.5 486q61.5 -60 61.5 -178v-308h-156v284q0 64 -28 95.5t-81 31.5q-59 0 -94 -36.5t-35 -108.5v-266h-156v538h149v-63q31 34 77 52.5t101 18.5q100 0 161.5 -60z" />
    <glyph glyph-name="nacute" unicode="&#x144;" horiz-adv-x="691" 
d="M560.5 486q61.5 -60 61.5 -178v-308h-156v284q0 64 -28 95.5t-81 31.5q-59 0 -94 -36.5t-35 -108.5v-266h-156v538h149v-63q31 34 77 52.5t101 18.5q100 0 161.5 -60zM392 751h168l-181 -144h-122z" />
    <glyph glyph-name="napostrophe" unicode="&#x149;" horiz-adv-x="820" 
d="M43 700h102l-22 -262h-82zM690.5 486q61.5 -60 61.5 -178v-308h-156v284q0 64 -28 95.5t-81 31.5q-59 0 -94 -36.5t-35 -108.5v-266h-156v538h149v-63q31 34 77 52.5t101 18.5q100 0 161.5 -60z" />
    <glyph glyph-name="ncaron" unicode="&#x148;" horiz-adv-x="691" 
d="M560.5 486q61.5 -60 61.5 -178v-308h-156v284q0 64 -28 95.5t-81 31.5q-59 0 -94 -36.5t-35 -108.5v-266h-156v538h149v-63q31 34 77 52.5t101 18.5q100 0 161.5 -60zM549 751l-132 -144h-138l-132 144h114l87 -75l87 75h114z" />
    <glyph glyph-name="ncommaaccent" unicode="&#x146;" horiz-adv-x="691" 
d="M560.5 486q61.5 -60 61.5 -178v-308h-156v284q0 64 -28 95.5t-81 31.5q-59 0 -94 -36.5t-35 -108.5v-266h-156v538h149v-63q31 34 77 52.5t101 18.5q100 0 161.5 -60zM398.5 -89.5q18.5 -16.5 18.5 -43.5q0 -31 -18 -65l-35 -68h-73l25 80q-18 6 -27.5 19.5t-9.5 33.5
q0 27 18.5 43.5t50.5 16.5t50.5 -16.5z" />
    <glyph glyph-name="uni1E45" unicode="&#x1e45;" horiz-adv-x="691" 
d="M560.5 486q61.5 -60 61.5 -178v-308h-156v284q0 64 -28 95.5t-81 31.5q-59 0 -94 -36.5t-35 -108.5v-266h-156v538h149v-63q31 34 77 52.5t101 18.5q100 0 161.5 -60zM287.5 636q-23.5 24 -23.5 61q0 36 23.5 60t60.5 24t60.5 -24t23.5 -60q0 -37 -23.5 -61t-60.5 -24
t-60.5 24z" />
    <glyph glyph-name="uni1E47" unicode="&#x1e47;" horiz-adv-x="691" 
d="M560.5 486q61.5 -60 61.5 -178v-308h-156v284q0 64 -28 95.5t-81 31.5q-59 0 -94 -36.5t-35 -108.5v-266h-156v538h149v-63q31 34 77 52.5t101 18.5q100 0 161.5 -60zM298.5 -191.5q-19.5 18.5 -19.5 48.5t19.5 50t49.5 20q29 0 49 -20t20 -50t-19.5 -48.5t-49.5 -18.5
t-49.5 18.5z" />
    <glyph glyph-name="eng" unicode="&#x14b;" horiz-adv-x="691" 
d="M560.5 486q61.5 -60 61.5 -178v-307q0 -94 -53 -148.5t-149 -54.5q-82 0 -126 30l42 113q27 -19 66 -19q31 0 47.5 19.5t16.5 58.5v284q0 64 -28 95.5t-81 31.5q-59 0 -94 -36.5t-35 -108.5v-266h-156v538h149v-63q31 34 77 52.5t101 18.5q100 0 161.5 -60z" />
    <glyph glyph-name="uni01CC" unicode="&#x1cc;" horiz-adv-x="998" 
d="M560.5 486q61.5 -60 61.5 -178v-308h-156v284q0 64 -28 95.5t-81 31.5q-59 0 -94 -36.5t-35 -108.5v-266h-156v538h149v-63q31 34 77 52.5t101 18.5q100 0 161.5 -60zM598 -172l42 113q27 -19 66 -19q30 0 47 19.5t17 58.5v538h156v-537q0 -94 -53.5 -148.5t-149.5 -54.5
q-82 0 -125 30zM778 638q-27 25 -27 62t27 62t70 25t70 -24t27 -60q0 -39 -27 -64.5t-70 -25.5t-70 25z" />
    <glyph glyph-name="uni1E49" unicode="&#x1e49;" horiz-adv-x="691" 
d="M560.5 486q61.5 -60 61.5 -178v-308h-156v284q0 64 -28 95.5t-81 31.5q-59 0 -94 -36.5t-35 -108.5v-266h-156v538h149v-63q31 34 77 52.5t101 18.5q100 0 161.5 -60zM163 -95h370v-87h-370v87z" />
    <glyph glyph-name="ntilde" unicode="&#xf1;" horiz-adv-x="691" 
d="M560.5 486q61.5 -60 61.5 -178v-308h-156v284q0 64 -28 95.5t-81 31.5q-59 0 -94 -36.5t-35 -108.5v-266h-156v538h149v-63q31 34 77 52.5t101 18.5q100 0 161.5 -60zM375.5 614.5q-20.5 10.5 -45.5 28.5q-16 12 -26.5 18t-20.5 6q-21 0 -34 -14.5t-14 -41.5h-79
q2 67 33.5 106.5t83.5 39.5q26 0 46.5 -10.5t46.5 -29.5q16 -12 26.5 -18t20.5 -6q20 0 33.5 14.5t14.5 39.5h79q-2 -65 -33.5 -104t-83.5 -39q-27 0 -47.5 10.5z" />
    <glyph glyph-name="o" unicode="o" horiz-adv-x="655" 
d="M175.5 27.5q-67.5 35.5 -105.5 98.5t-38 143t38 143t105.5 98.5t152.5 35.5t152 -35.5t105 -98.5t38 -143t-38 -143t-105 -98.5t-152 -35.5t-152.5 35.5zM426.5 160.5q38.5 40.5 38.5 108.5t-38.5 108.5t-98.5 40.5t-99 -40.5t-39 -108.5t39 -108.5t99 -40.5t98.5 40.5z
" />
    <glyph glyph-name="oacute" unicode="&#xf3;" horiz-adv-x="655" 
d="M175.5 27.5q-67.5 35.5 -105.5 98.5t-38 143t38 143t105.5 98.5t152.5 35.5t152 -35.5t105 -98.5t38 -143t-38 -143t-105 -98.5t-152 -35.5t-152.5 35.5zM426.5 160.5q38.5 40.5 38.5 108.5t-38.5 108.5t-98.5 40.5t-99 -40.5t-39 -108.5t39 -108.5t99 -40.5t98.5 40.5z
M370 751h168l-181 -144h-122z" />
    <glyph glyph-name="obreve" unicode="&#x14f;" horiz-adv-x="655" 
d="M175.5 27.5q-67.5 35.5 -105.5 98.5t-38 143t38 143t105.5 98.5t152.5 35.5t152 -35.5t105 -98.5t38 -143t-38 -143t-105 -98.5t-152 -35.5t-152.5 35.5zM426.5 160.5q38.5 40.5 38.5 108.5t-38.5 108.5t-98.5 40.5t-99 -40.5t-39 -108.5t39 -108.5t99 -40.5t98.5 40.5z
M196 640q-51 41 -54 111h98q1 -32 25.5 -51.5t60.5 -19.5t60.5 19.5t25.5 51.5h98q-3 -70 -54 -111t-130 -41t-130 41z" />
    <glyph glyph-name="ocircumflex" unicode="&#xf4;" horiz-adv-x="655" 
d="M175.5 27.5q-67.5 35.5 -105.5 98.5t-38 143t38 143t105.5 98.5t152.5 35.5t152 -35.5t105 -98.5t38 -143t-38 -143t-105 -98.5t-152 -35.5t-152.5 35.5zM426.5 160.5q38.5 40.5 38.5 108.5t-38.5 108.5t-98.5 40.5t-99 -40.5t-39 -108.5t39 -108.5t99 -40.5t98.5 40.5z
M413 607l-87 76l-87 -76h-114l132 144h138l132 -144h-114z" />
    <glyph glyph-name="uni1ED1" unicode="&#x1ed1;" horiz-adv-x="655" 
d="M175.5 27.5q-67.5 35.5 -105.5 98.5t-38 143t38 143t105.5 98.5t152.5 35.5t152 -35.5t105 -98.5t38 -143t-38 -143t-105 -98.5t-152 -35.5t-152.5 35.5zM426.5 160.5q38.5 40.5 38.5 108.5t-38.5 108.5t-98.5 40.5t-99 -40.5t-39 -108.5t39 -108.5t99 -40.5t98.5 40.5z
M412 607l-86 57l-86 -57h-115l133 114h136l133 -114h-115zM557 824h159l-157 -121h-113z" />
    <glyph glyph-name="uni1ED9" unicode="&#x1ed9;" horiz-adv-x="655" 
d="M175.5 27.5q-67.5 35.5 -105.5 98.5t-38 143t38 143t105.5 98.5t152.5 35.5t152 -35.5t105 -98.5t38 -143t-38 -143t-105 -98.5t-152 -35.5t-152.5 35.5zM426.5 160.5q38.5 40.5 38.5 108.5t-38.5 108.5t-98.5 40.5t-99 -40.5t-39 -108.5t39 -108.5t99 -40.5t98.5 40.5z
M276.5 -191.5q-19.5 18.5 -19.5 48.5t19.5 50t49.5 20q29 0 49 -20t20 -50t-19.5 -48.5t-49.5 -18.5t-49.5 18.5zM413 607l-87 76l-87 -76h-114l132 144h138l132 -144h-114z" />
    <glyph glyph-name="uni1ED3" unicode="&#x1ed3;" horiz-adv-x="655" 
d="M175.5 27.5q-67.5 35.5 -105.5 98.5t-38 143t38 143t105.5 98.5t152.5 35.5t152 -35.5t105 -98.5t38 -143t-38 -143t-105 -98.5t-152 -35.5t-152.5 35.5zM426.5 160.5q38.5 40.5 38.5 108.5t-38.5 108.5t-98.5 40.5t-99 -40.5t-39 -108.5t39 -108.5t99 -40.5t98.5 40.5z
M412 607l-86 57l-86 -57h-115l133 114h136l133 -114h-115zM349 824h159l110 -121h-112z" />
    <glyph glyph-name="uni1ED5" unicode="&#x1ed5;" horiz-adv-x="655" 
d="M175.5 27.5q-67.5 35.5 -105.5 98.5t-38 143t38 143t105.5 98.5t152.5 35.5t152 -35.5t105 -98.5t38 -143t-38 -143t-105 -98.5t-152 -35.5t-152.5 35.5zM426.5 160.5q38.5 40.5 38.5 108.5t-38.5 108.5t-98.5 40.5t-99 -40.5t-39 -108.5t39 -108.5t99 -40.5t98.5 40.5z
M412 607l-86 57l-86 -57h-115l133 114h136l133 -114h-115zM466 721q37 18 37 42q0 13 -9.5 21t-24.5 8q-21 0 -44 -12l-26 48q34 22 83 22q42 0 67 -21.5t25 -57.5q0 -29 -19.5 -52t-50.5 -35z" />
    <glyph glyph-name="uni1ED7" unicode="&#x1ed7;" horiz-adv-x="655" 
d="M175.5 27.5q-67.5 35.5 -105.5 98.5t-38 143t38 143t105.5 98.5t152.5 35.5t152 -35.5t105 -98.5t38 -143t-38 -143t-105 -98.5t-152 -35.5t-152.5 35.5zM426.5 160.5q38.5 40.5 38.5 108.5t-38.5 108.5t-98.5 40.5t-99 -40.5t-39 -108.5t39 -108.5t99 -40.5t98.5 40.5z
M412 607l-86 57l-86 -57h-115l133 114h136l133 -114h-115zM352 764.5q-21 8.5 -46 24.5q-12 7 -23.5 13t-20.5 6q-20 0 -31 -12t-13 -34h-80q1 60 31.5 92.5t84.5 32.5q26 0 44.5 -8t46.5 -24q16 -10 26.5 -15t20.5 -5q20 0 31 12.5t13 32.5h78q-1 -58 -31 -91t-83 -33
q-27 0 -48 8.5z" />
    <glyph glyph-name="uni020D" unicode="&#x20d;" horiz-adv-x="655" 
d="M175.5 27.5q-67.5 35.5 -105.5 98.5t-38 143t38 143t105.5 98.5t152.5 35.5t152 -35.5t105 -98.5t38 -143t-38 -143t-105 -98.5t-152 -35.5t-152.5 35.5zM426.5 160.5q38.5 40.5 38.5 108.5t-38.5 108.5t-98.5 40.5t-99 -40.5t-39 -108.5t39 -108.5t99 -40.5t98.5 40.5z
M64 751h146l72 -144h-114zM266 751h146l72 -144h-114z" />
    <glyph glyph-name="odieresis" unicode="&#xf6;" horiz-adv-x="655" 
d="M175.5 27.5q-67.5 35.5 -105.5 98.5t-38 143t38 143t105.5 98.5t152.5 35.5t152 -35.5t105 -98.5t38 -143t-38 -143t-105 -98.5t-152 -35.5t-152.5 35.5zM426.5 160.5q38.5 40.5 38.5 108.5t-38.5 108.5t-98.5 40.5t-99 -40.5t-39 -108.5t39 -108.5t99 -40.5t98.5 40.5z
M175 631.5q-20 19.5 -20 49.5t20 49.5t50 19.5t49.5 -19.5t19.5 -49.5t-19.5 -49.5t-49.5 -19.5t-50 19.5zM377.5 631.5q-19.5 19.5 -19.5 49.5t19.5 49.5t49.5 19.5t50 -19.5t20 -49.5t-20 -49.5t-50 -19.5t-49.5 19.5z" />
    <glyph glyph-name="uni022B" unicode="&#x22b;" horiz-adv-x="655" 
d="M175.5 27.5q-67.5 35.5 -105.5 98.5t-38 143t38 143t105.5 98.5t152.5 35.5t152 -35.5t105 -98.5t38 -143t-38 -143t-105 -98.5t-152 -35.5t-152.5 35.5zM426.5 160.5q38.5 40.5 38.5 108.5t-38.5 108.5t-98.5 40.5t-99 -40.5t-39 -108.5t39 -108.5t99 -40.5t98.5 40.5z
M181 630.5q-19 18.5 -19 47.5q0 28 19 47t47 19q29 0 48 -19t19 -47q0 -29 -19 -47.5t-48 -18.5q-28 0 -47 18.5zM377 630.5q-19 18.5 -19 47.5q0 28 19.5 47t46.5 19q28 0 47 -19t19 -47q0 -29 -19 -47.5t-47 -18.5t-47 18.5zM141 867h370v-83h-370v83z" />
    <glyph glyph-name="uni0231" unicode="&#x231;" horiz-adv-x="655" 
d="M175.5 27.5q-67.5 35.5 -105.5 98.5t-38 143t38 143t105.5 98.5t152.5 35.5t152 -35.5t105 -98.5t38 -143t-38 -143t-105 -98.5t-152 -35.5t-152.5 35.5zM426.5 160.5q38.5 40.5 38.5 108.5t-38.5 108.5t-98.5 40.5t-99 -40.5t-39 -108.5t39 -108.5t99 -40.5t98.5 40.5z
M276.5 630q-19.5 19 -19.5 49t19.5 49.5t49.5 19.5t49.5 -19.5t19.5 -49.5t-19.5 -49t-49.5 -19t-49.5 19zM141 874h370v-83h-370v83z" />
    <glyph glyph-name="uni1ECD" unicode="&#x1ecd;" horiz-adv-x="655" 
d="M175.5 27.5q-67.5 35.5 -105.5 98.5t-38 143t38 143t105.5 98.5t152.5 35.5t152 -35.5t105 -98.5t38 -143t-38 -143t-105 -98.5t-152 -35.5t-152.5 35.5zM426.5 160.5q38.5 40.5 38.5 108.5t-38.5 108.5t-98.5 40.5t-99 -40.5t-39 -108.5t39 -108.5t99 -40.5t98.5 40.5z
M276.5 -191.5q-19.5 18.5 -19.5 48.5t19.5 50t49.5 20q29 0 49 -20t20 -50t-19.5 -48.5t-49.5 -18.5t-49.5 18.5z" />
    <glyph glyph-name="ograve" unicode="&#xf2;" horiz-adv-x="655" 
d="M175.5 27.5q-67.5 35.5 -105.5 98.5t-38 143t38 143t105.5 98.5t152.5 35.5t152 -35.5t105 -98.5t38 -143t-38 -143t-105 -98.5t-152 -35.5t-152.5 35.5zM426.5 160.5q38.5 40.5 38.5 108.5t-38.5 108.5t-98.5 40.5t-99 -40.5t-39 -108.5t39 -108.5t99 -40.5t98.5 40.5z
M114 751h168l135 -144h-122z" />
    <glyph glyph-name="uni1ECF" unicode="&#x1ecf;" horiz-adv-x="655" 
d="M175.5 27.5q-67.5 35.5 -105.5 98.5t-38 143t38 143t105.5 98.5t152.5 35.5t152 -35.5t105 -98.5t38 -143t-38 -143t-105 -98.5t-152 -35.5t-152.5 35.5zM426.5 160.5q38.5 40.5 38.5 108.5t-38.5 108.5t-98.5 40.5t-99 -40.5t-39 -108.5t39 -108.5t99 -40.5t98.5 40.5z
M307 649q28 13 39.5 28t11.5 33q0 19 -13 30.5t-34 11.5q-30 0 -59 -19l-32 63q43 34 108 34q53 0 86.5 -29.5t33.5 -77.5q0 -84 -92 -126z" />
    <glyph glyph-name="ohorn" unicode="&#x1a1;" horiz-adv-x="655" 
d="M601.5 379.5q21.5 -50.5 21.5 -110.5q0 -80 -38 -143t-105 -98.5t-152 -35.5t-152.5 35.5t-105.5 98.5t-38 143t38.5 143t106 98.5t152.5 35.5q20 0 70 -5q34 -4 49 -4q31 0 47.5 18t16.5 47q0 32 -21 60l91 34q34 -46 34 -100q0 -43 -20 -76.5t-56 -52.5
q40 -37 61.5 -87.5zM426 160.5q39 40.5 39 108.5t-38.5 108.5t-98.5 40.5t-99 -40.5t-39 -108.5t39 -108.5t99 -40.5q59 0 98 40.5z" />
    <glyph glyph-name="uni1EDB" unicode="&#x1edb;" horiz-adv-x="655" 
d="M601.5 379.5q21.5 -50.5 21.5 -110.5q0 -80 -38 -143t-105 -98.5t-152 -35.5t-152.5 35.5t-105.5 98.5t-38 143t38.5 143t106 98.5t152.5 35.5q20 0 70 -5q34 -4 49 -4q31 0 47.5 18t16.5 47q0 32 -21 60l91 34q34 -46 34 -100q0 -43 -20 -76.5t-56 -52.5
q40 -37 61.5 -87.5zM426 160.5q39 40.5 39 108.5t-38.5 108.5t-98.5 40.5t-99 -40.5t-39 -108.5t39 -108.5t99 -40.5q59 0 98 40.5zM372 751h168l-181 -144h-122z" />
    <glyph glyph-name="uni1EE3" unicode="&#x1ee3;" horiz-adv-x="655" 
d="M601.5 379.5q21.5 -50.5 21.5 -110.5q0 -80 -38 -143t-105 -98.5t-152 -35.5t-152.5 35.5t-105.5 98.5t-38 143t38.5 143t106 98.5t152.5 35.5q20 0 70 -5q34 -4 49 -4q31 0 47.5 18t16.5 47q0 32 -21 60l91 34q34 -46 34 -100q0 -43 -20 -76.5t-56 -52.5
q40 -37 61.5 -87.5zM426 160.5q39 40.5 39 108.5t-38.5 108.5t-98.5 40.5t-99 -40.5t-39 -108.5t39 -108.5t99 -40.5q59 0 98 40.5zM278.5 -191.5q-19.5 18.5 -19.5 48.5t19.5 50t49.5 20q29 0 49 -20t20 -50t-19.5 -48.5t-49.5 -18.5t-49.5 18.5z" />
    <glyph glyph-name="uni1EDD" unicode="&#x1edd;" horiz-adv-x="655" 
d="M601.5 379.5q21.5 -50.5 21.5 -110.5q0 -80 -38 -143t-105 -98.5t-152 -35.5t-152.5 35.5t-105.5 98.5t-38 143t38.5 143t106 98.5t152.5 35.5q20 0 70 -5q34 -4 49 -4q31 0 47.5 18t16.5 47q0 32 -21 60l91 34q34 -46 34 -100q0 -43 -20 -76.5t-56 -52.5
q40 -37 61.5 -87.5zM426 160.5q39 40.5 39 108.5t-38.5 108.5t-98.5 40.5t-99 -40.5t-39 -108.5t39 -108.5t99 -40.5q59 0 98 40.5zM116 751h168l135 -144h-122z" />
    <glyph glyph-name="uni1EDF" unicode="&#x1edf;" horiz-adv-x="655" 
d="M601.5 379.5q21.5 -50.5 21.5 -110.5q0 -80 -38 -143t-105 -98.5t-152 -35.5t-152.5 35.5t-105.5 98.5t-38 143t38.5 143t106 98.5t152.5 35.5q20 0 70 -5q34 -4 49 -4q31 0 47.5 18t16.5 47q0 32 -21 60l91 34q34 -46 34 -100q0 -43 -20 -76.5t-56 -52.5
q40 -37 61.5 -87.5zM426 160.5q39 40.5 39 108.5t-38.5 108.5t-98.5 40.5t-99 -40.5t-39 -108.5t39 -108.5t99 -40.5q59 0 98 40.5zM309 649q28 13 39.5 28t11.5 33q0 19 -13 30.5t-34 11.5q-30 0 -59 -19l-32 63q43 34 108 34q53 0 86.5 -29.5t33.5 -77.5q0 -84 -92 -126z
" />
    <glyph glyph-name="uni1EE1" unicode="&#x1ee1;" horiz-adv-x="655" 
d="M601.5 379.5q21.5 -50.5 21.5 -110.5q0 -80 -38 -143t-105 -98.5t-152 -35.5t-152.5 35.5t-105.5 98.5t-38 143t38.5 143t106 98.5t152.5 35.5q20 0 70 -5q34 -4 49 -4q31 0 47.5 18t16.5 47q0 32 -21 60l91 34q34 -46 34 -100q0 -43 -20 -76.5t-56 -52.5
q40 -37 61.5 -87.5zM426 160.5q39 40.5 39 108.5t-38.5 108.5t-98.5 40.5t-99 -40.5t-39 -108.5t39 -108.5t99 -40.5q59 0 98 40.5zM342.492 614.5q-17.793 10.5 -39.4902 28.5q-13.8867 12 -23 18t-17.793 6q-18.2266 0 -29.5088 -14.5q-11.2832 -14.5 -12.1514 -41.5
h-68.5654q1.73535 67 29.0752 106.5t72.4717 39.5q22.5654 0 40.3584 -10.5q17.792 -10.5 40.3574 -29.5q13.8867 -12 23 -18t17.793 -6q17.3584 0 29.0752 14.5t12.585 39.5h68.5654q-1.73535 -65 -29.0752 -104t-72.4717 -39q-23.4336 0 -41.2256 10.5z" />
    <glyph glyph-name="ohungarumlaut" unicode="&#x151;" horiz-adv-x="655" 
d="M175.5 27.5q-67.5 35.5 -105.5 98.5t-38 143t38 143t105.5 98.5t152.5 35.5t152 -35.5t105 -98.5t38 -143t-38 -143t-105 -98.5t-152 -35.5t-152.5 35.5zM426.5 160.5q38.5 40.5 38.5 108.5t-38.5 108.5t-98.5 40.5t-99 -40.5t-39 -108.5t39 -108.5t99 -40.5t98.5 40.5z
M240 751h146l-104 -144h-114zM442 751h146l-104 -144h-114z" />
    <glyph glyph-name="uni020F" unicode="&#x20f;" horiz-adv-x="655" 
d="M175.5 27.5q-67.5 35.5 -105.5 98.5t-38 143t38 143t105.5 98.5t152.5 35.5t152 -35.5t105 -98.5t38 -143t-38 -143t-105 -98.5t-152 -35.5t-152.5 35.5zM426.5 160.5q38.5 40.5 38.5 108.5t-38.5 108.5t-98.5 40.5t-99 -40.5t-39 -108.5t39 -108.5t99 -40.5t98.5 40.5z
M196 718q51 41 130 41t130 -41t54 -111h-98q-1 32 -25.5 51.5t-60.5 19.5t-60.5 -19.5t-25.5 -51.5h-98q3 70 54 111z" />
    <glyph glyph-name="omacron" unicode="&#x14d;" horiz-adv-x="655" 
d="M175.5 27.5q-67.5 35.5 -105.5 98.5t-38 143t38 143t105.5 98.5t152.5 35.5t152 -35.5t105 -98.5t38 -143t-38 -143t-105 -98.5t-152 -35.5t-152.5 35.5zM426.5 160.5q38.5 40.5 38.5 108.5t-38.5 108.5t-98.5 40.5t-99 -40.5t-39 -108.5t39 -108.5t99 -40.5t98.5 40.5z
M141 723h370v-88h-370v88z" />
    <glyph glyph-name="uni1E53" unicode="&#x1e53;" horiz-adv-x="655" 
d="M175.5 27.5q-67.5 35.5 -105.5 98.5t-38 143t38 143t105.5 98.5t152.5 35.5t152 -35.5t105 -98.5t38 -143t-38 -143t-105 -98.5t-152 -35.5t-152.5 35.5zM426.5 160.5q38.5 40.5 38.5 108.5t-38.5 108.5t-98.5 40.5t-99 -40.5t-39 -108.5t39 -108.5t99 -40.5t98.5 40.5z
M141 706h370v-83h-370v83zM351 889h159l-157 -121h-113z" />
    <glyph glyph-name="uni1E51" unicode="&#x1e51;" horiz-adv-x="655" 
d="M175.5 27.5q-67.5 35.5 -105.5 98.5t-38 143t38 143t105.5 98.5t152.5 35.5t152 -35.5t105 -98.5t38 -143t-38 -143t-105 -98.5t-152 -35.5t-152.5 35.5zM426.5 160.5q38.5 40.5 38.5 108.5t-38.5 108.5t-98.5 40.5t-99 -40.5t-39 -108.5t39 -108.5t99 -40.5t98.5 40.5z
M141 706h370v-83h-370v83zM143 889h159l110 -121h-112z" />
    <glyph glyph-name="uni01EB" unicode="&#x1eb;" horiz-adv-x="655" 
d="M346.5 -45.5q-28.5 -29.5 -28.5 -60.5q0 -21 15.5 -34t42.5 -13q33 0 60 15l23 -71q-19 -10 -46.5 -16.5t-54.5 -6.5q-65 0 -101.5 30.5t-36.5 80.5q0 68 64 116q-74 9 -131 46t-89 96t-32 132q0 80 38 143t105.5 98.5t152.5 35.5t152 -35.5t105 -98.5t38 -143
q0 -88 -47 -155t-128 -101q-73 -29 -101.5 -58.5zM229 160.5q39 -40.5 99 -40.5t98.5 40.5t38.5 108.5t-38.5 108.5t-98.5 40.5t-99 -40.5t-39 -108.5t39 -108.5z" />
    <glyph glyph-name="oslash" unicode="&#xf8;" horiz-adv-x="655" 
d="M175.5 27.5q-67.5 35.5 -105.5 98.5t-38 143t38 143t105.5 98.5t152.5 35.5t152 -35.5t105 -98.5t38 -143t-38 -143t-105 -98.5t-152 -35.5t-152.5 35.5zM426.5 160.5q38.5 40.5 38.5 108.5t-38.5 108.5t-98.5 40.5t-99 -40.5t-39 -108.5t39 -108.5t99 -40.5t98.5 40.5z
M507 604h78l-441 -675h-77z" />
    <glyph glyph-name="oslashacute" unicode="&#x1ff;" horiz-adv-x="655" 
d="M175.5 27.5q-67.5 35.5 -105.5 98.5t-38 143t38 143t105.5 98.5t152.5 35.5t152 -35.5t105 -98.5t38 -143t-38 -143t-105 -98.5t-152 -35.5t-152.5 35.5zM426.5 160.5q38.5 40.5 38.5 108.5t-38.5 108.5t-98.5 40.5t-99 -40.5t-39 -108.5t39 -108.5t99 -40.5t98.5 40.5z
M507 604h78l-441 -675h-77zM367 751h168l-181 -144h-122z" />
    <glyph glyph-name="otilde" unicode="&#xf5;" horiz-adv-x="655" 
d="M175.5 27.5q-67.5 35.5 -105.5 98.5t-38 143t38 143t105.5 98.5t152.5 35.5t152 -35.5t105 -98.5t38 -143t-38 -143t-105 -98.5t-152 -35.5t-152.5 35.5zM426.5 160.5q38.5 40.5 38.5 108.5t-38.5 108.5t-98.5 40.5t-99 -40.5t-39 -108.5t39 -108.5t99 -40.5t98.5 40.5z
M353.5 614.5q-20.5 10.5 -45.5 28.5q-16 12 -26.5 18t-20.5 6q-21 0 -34 -14.5t-14 -41.5h-79q2 67 33.5 106.5t83.5 39.5q26 0 46.5 -10.5t46.5 -29.5q16 -12 26.5 -18t20.5 -6q20 0 33.5 14.5t14.5 39.5h79q-2 -65 -33.5 -104t-83.5 -39q-27 0 -47.5 10.5z" />
    <glyph glyph-name="uni1E4D" unicode="&#x1e4d;" horiz-adv-x="655" 
d="M175.5 27.5q-67.5 35.5 -105.5 98.5t-38 143t38 143t105.5 98.5t152.5 35.5t152 -35.5t105 -98.5t38 -143t-38 -143t-105 -98.5t-152 -35.5t-152.5 35.5zM426.5 160.5q38.5 40.5 38.5 108.5t-38.5 108.5t-98.5 40.5t-99 -40.5t-39 -108.5t39 -108.5t99 -40.5t98.5 40.5z
M352 613.5q-21 8.5 -46 24.5q-12 7 -23.5 13t-20.5 6q-20 0 -31 -12t-13 -34h-80q1 60 31.5 92.5t84.5 32.5q26 0 44.5 -8t46.5 -24q16 -10 26.5 -15t20.5 -5q20 0 31 12.5t13 32.5h78q-1 -58 -31 -91t-83 -33q-27 0 -48 8.5zM351 889h159l-157 -121h-113z" />
    <glyph glyph-name="uni1E4F" unicode="&#x1e4f;" horiz-adv-x="655" 
d="M175.5 27.5q-67.5 35.5 -105.5 98.5t-38 143t38 143t105.5 98.5t152.5 35.5t152 -35.5t105 -98.5t38 -143t-38 -143t-105 -98.5t-152 -35.5t-152.5 35.5zM426.5 160.5q38.5 40.5 38.5 108.5t-38.5 108.5t-98.5 40.5t-99 -40.5t-39 -108.5t39 -108.5t99 -40.5t98.5 40.5z
M352 613.5q-21 8.5 -46 24.5q-12 7 -23.5 13t-20.5 6q-20 0 -31 -12t-13 -34h-80q1 60 31.5 92.5t84.5 32.5q26 0 44.5 -8t46.5 -24q16 -10 26.5 -15t20.5 -5q20 0 31 12.5t13 32.5h78q-1 -58 -31 -91t-83 -33q-27 0 -48 8.5zM181 791.5q-19 18.5 -19 47.5q0 28 19 47t47 19
q29 0 48 -19t19 -47q0 -29 -19 -47.5t-48 -18.5q-28 0 -47 18.5zM377 791.5q-19 18.5 -19 47.5q0 28 19.5 47t46.5 19q28 0 47 -19t19 -47q0 -29 -19 -47.5t-47 -18.5t-47 18.5z" />
    <glyph glyph-name="uni022D" unicode="&#x22d;" horiz-adv-x="655" 
d="M175.5 27.5q-67.5 35.5 -105.5 98.5t-38 143t38 143t105.5 98.5t152.5 35.5t152 -35.5t105 -98.5t38 -143t-38 -143t-105 -98.5t-152 -35.5t-152.5 35.5zM426.5 160.5q38.5 40.5 38.5 108.5t-38.5 108.5t-98.5 40.5t-99 -40.5t-39 -108.5t39 -108.5t99 -40.5t98.5 40.5z
M352 613.5q-21 8.5 -46 24.5q-12 7 -23.5 13t-20.5 6q-20 0 -31 -12t-13 -34h-80q1 60 31.5 92.5t84.5 32.5q26 0 44.5 -8t46.5 -24q16 -10 26.5 -15t20.5 -5q20 0 31 12.5t13 32.5h78q-1 -58 -31 -91t-83 -33q-27 0 -48 8.5zM141 867h370v-83h-370v83z" />
    <glyph glyph-name="oe" unicode="&#x153;" horiz-adv-x="1064" 
d="M1029 225h-408q11 -51 52 -79.5t103 -28.5q40 0 72.5 13t61.5 39l84 -90q-38 -43 -95 -65t-128 -22q-74 0 -132.5 24.5t-96.5 68.5q-38 -44 -93 -68.5t-123 -24.5q-84 0 -151 35.5t-105 98.5t-38 143t38 143t105 98.5t151 35.5q68 0 123.5 -24t91.5 -68q36 44 90.5 68
t120.5 24q79 0 142.5 -34t100.5 -97t37 -147q0 -23 -3 -43zM663 398q-36 -30 -44 -82h264q-8 51 -43 81.5t-88 30.5t-89 -30zM426.5 160.5q38.5 40.5 38.5 108.5t-38.5 108.5t-98.5 40.5t-99 -40.5t-39 -108.5t39 -108.5t99 -40.5t98.5 40.5z" />
    <glyph glyph-name="p" unicode="p" horiz-adv-x="690" 
d="M526.5 511.5q61.5 -34.5 96.5 -97t35 -145.5t-35 -145.5t-96.5 -97t-136.5 -34.5q-103 0 -162 65v-251h-156v732h149v-62q58 70 169 70q75 0 136.5 -34.5zM461.5 160.5q38.5 40.5 38.5 108.5t-38.5 108.5t-98.5 40.5t-98.5 -40.5t-38.5 -108.5t38.5 -108.5t98.5 -40.5
t98.5 40.5z" />
    <glyph glyph-name="thorn" unicode="&#xfe;" horiz-adv-x="690" 
d="M526.5 511.5q61.5 -34.5 96.5 -97t35 -145.5t-35 -145.5t-96.5 -97t-136.5 -34.5q-103 0 -162 65v-251h-156v936h156v-258q58 62 162 62q75 0 136.5 -34.5zM461.5 160.5q38.5 40.5 38.5 108.5t-38.5 108.5t-98.5 40.5t-98.5 -40.5t-38.5 -108.5t38.5 -108.5t98.5 -40.5
t98.5 40.5z" />
    <glyph glyph-name="q" unicode="q" horiz-adv-x="690" 
d="M618 538v-732h-156v251q-58 -65 -161 -65q-76 0 -137.5 34t-96.5 97t-35 146t35 146t96.5 97t137.5 34q110 0 168 -70v62h149zM426 160.5q39 40.5 39 108.5t-39 108.5t-98 40.5q-60 0 -99 -40.5t-39 -108.5t39 -108.5t99 -40.5q59 0 98 40.5z" />
    <glyph glyph-name="r" unicode="r" horiz-adv-x="431" 
d="M296.5 526q47.5 20 109.5 20v-144q-26 2 -35 2q-67 0 -105 -37.5t-38 -112.5v-254h-156v538h149v-71q28 39 75.5 59z" />
    <glyph glyph-name="racute" unicode="&#x155;" horiz-adv-x="431" 
d="M296.5 526q47.5 20 109.5 20v-144q-26 2 -35 2q-67 0 -105 -37.5t-38 -112.5v-254h-156v538h149v-71q28 39 75.5 59zM283 751h168l-181 -144h-122z" />
    <glyph glyph-name="rcaron" unicode="&#x159;" horiz-adv-x="431" 
d="M296.5 526q47.5 20 109.5 20v-144q-26 2 -35 2q-67 0 -105 -37.5t-38 -112.5v-254h-156v538h149v-71q28 39 75.5 59zM440 751l-132 -144h-138l-132 144h114l87 -75l87 75h114z" />
    <glyph glyph-name="rcommaaccent" unicode="&#x157;" horiz-adv-x="431" 
d="M296.5 526q47.5 20 109.5 20v-144q-26 2 -35 2q-67 0 -105 -37.5t-38 -112.5v-254h-156v538h149v-71q28 39 75.5 59zM200.5 -89.5q18.5 -16.5 18.5 -43.5q0 -31 -18 -65l-35 -68h-73l25 80q-18 6 -27.5 19.5t-9.5 33.5q0 27 18.5 43.5t50.5 16.5t50.5 -16.5z" />
    <glyph glyph-name="uni0211" unicode="&#x211;" horiz-adv-x="431" 
d="M296.5 526q47.5 20 109.5 20v-144q-26 2 -35 2q-67 0 -105 -37.5t-38 -112.5v-254h-156v538h149v-71q28 39 75.5 59zM-23 751h146l72 -144h-114zM179 751h146l72 -144h-114z" />
    <glyph glyph-name="uni1E5B" unicode="&#x1e5b;" horiz-adv-x="431" 
d="M296.5 526q47.5 20 109.5 20v-144q-26 2 -35 2q-67 0 -105 -37.5t-38 -112.5v-254h-156v538h149v-71q28 39 75.5 59zM100.5 -191.5q-19.5 18.5 -19.5 48.5t19.5 50t49.5 20q29 0 49 -20t20 -50t-19.5 -48.5t-49.5 -18.5t-49.5 18.5z" />
    <glyph glyph-name="uni0213" unicode="&#x213;" horiz-adv-x="431" 
d="M296.5 526q47.5 20 109.5 20v-144q-26 2 -35 2q-67 0 -105 -37.5t-38 -112.5v-254h-156v538h149v-71q28 39 75.5 59zM109 718q51 41 130 41t130 -41t54 -111h-98q-1 32 -25.5 51.5t-60.5 19.5t-60.5 -19.5t-25.5 -51.5h-98q3 70 54 111z" />
    <glyph glyph-name="uni1E5F" unicode="&#x1e5f;" horiz-adv-x="431" 
d="M296.5 526q47.5 20 109.5 20v-144q-26 2 -35 2q-67 0 -105 -37.5t-38 -112.5v-254h-156v538h149v-71q28 39 75.5 59zM-35 -95h370v-87h-370v87z" />
    </font>
</defs>
</svg>
