<?xml version="1.0" standalone="no"?>
<!DOCTYPE svg PUBLIC "-//W3C//DTD SVG 1.1//EN" "http://www.w3.org/Graphics/SVG/1.1/DTD/svg11.dtd" >
<svg>
<metadata>
Created by FontForge 20090622 at Wed May 15 07:41:38 2019
 By deploy user
Copyright (c) 2011 TypeSETit, LLC (typesetit@att.net),with Reserved Font Name "Allura"
</metadata>
<defs>
<font id="Allura-Regular" horiz-adv-x="226" >
  <font-face 
    font-family="Allura"
    font-weight="400"
    font-stretch="normal"
    units-per-em="1000"
    panose-1="2 0 0 0 0 0 0 0 0 0"
    ascent="800"
    descent="-200"
    x-height="276"
    cap-height="590"
    bbox="-360 -450 1164 800"
    underline-thickness="24"
    underline-position="-132"
    unicode-range="U+0020-U+FB06"
  />
<missing-glyph horiz-adv-x="219" 
 />
    <glyph glyph-name=".notdef" horiz-adv-x="219" 
 />
    <glyph glyph-name=".null" horiz-adv-x="0" 
 />
    <glyph glyph-name="nonmarkingreturn" horiz-adv-x="333" 
 />
    <glyph glyph-name="space" unicode=" " horiz-adv-x="219" 
 />
    <glyph glyph-name="exclam" unicode="!" horiz-adv-x="162" 
d="M148 141q0 4 24.5 74.5t83.5 209t64.5 144t12 5.5t22 -10.5t15.5 -30t-24 -61.5q-3 -6 -11 -13t-11.5 -14.5t-28.5 -55t-33.5 -65l-26.5 -54.5q-34 -71 -51 -126q-3 -10 -19.5 -12.5t-16.5 9.5zM155 44v-17q0 -7 -11 -23t-17 -16q-33 0 -33 16q0 8 20 24q28 22 34.5 22
t6.5 -6z" />
    <glyph glyph-name="quotedbl" unicode="&#x22;" horiz-adv-x="256" 
d="M88 455q7 5 26.5 5t17.5 -18q-1 -27 -10 -45q-3 -13 -12.5 -43.5t-13.5 -45.5q-4 -17 -11.5 -17t-7.5 12l4 100q0 7 -1 21.5t0 20t8 10.5zM225 460q20 0 20 -18q0 -12 -4.5 -27.5t-6 -22t-11.5 -37t-13.5 -47.5t-11.5 -17t-8 11l4 60q1 40 1 41l-2 35q0 16 9.5 19t22.5 3
z" />
    <glyph glyph-name="numbersign" unicode="#" horiz-adv-x="775" 
d="M471 159l156 -2q54 -2 54 -14q0 -6 -19 -11v-2q-5 -1 -202 -5l-34 -105q-9 -33 -24 -33h-1q-14 3 -14 16.5t34 121.5l-202 -2l-33 -99q-9 -33 -24 -33t-15 18q0 12 33 114l-132 -3q-33 0 -33 16q0 9 9.5 16t166.5 7q37 111 68 195q-136 -2 -139 -2h-7q-30 0 -31 15
q0 9 10 16t179 7l68 188q17 47 29 47q7 0 6 -22l1 -1q-2 -16 -68 -212q30 1 65 1l140 -1l30 83l25.5 69.5t11.5 30.5q18 47 29 47q7 0 6 -22h1q-1 -7 -66 -208l146 -2q54 -1 54 -14q0 -6 -19 -11v-1q-9 -3 -193 -5zM501 357l-206 -3l-65 -195h202z" />
    <glyph glyph-name="dollar" unicode="$" horiz-adv-x="436" 
d="M229 49q-29 -7 -53.5 -7t-45.5 7l-26 -56q-7 -17 -26 -17q-11 0 -8.5 14.5t30.5 68.5q-39 19 -39 33q0 5 2 6.5t13 -3t38 -8.5l58 111q-78 80 -78 141.5t43 101.5q69 63 171 63q17 0 34 -2h4q19 27 20 28q9 10 19 10q32 0 22 -13l-9 -13q-9 -13 -14 -21q61 -22 58 -68
q-1 -39 -34 -73.5t-73 -49.5q-9 -4 -11 -2q-5 3 6 14q85 81 85 118q0 30 -46 38q-92 -139 -167 -276l35 -40q33 -39 33 -66q-1 -29 -41 -39zM164 82q67 0 70 41q0 12 -42 54q-5 -11 -15 -30l-17.5 -34.5l-14.5 -29.5q10 -1 19 -1zM122 317q0 -34 60 -100q107 192 147 256
q-72 -5 -139.5 -50.5t-67.5 -105.5z" />
    <glyph glyph-name="percent" unicode="%" horiz-adv-x="464" 
d="M379 131q0 33 -31 33q-25 0 -47 -25t-28.5 -43.5t-8.5 -31t-2 -26t8.5 -22t28 -8.5t40.5 24.5t30.5 52.5t9.5 46zM288 -13q-61 0 -61 65v7q6 54 43.5 87.5t83.5 35.5q28 0 43.5 -14t15.5 -38q0 -7 -1 -15q-5 -49 -42 -88q-39 -40 -82 -40zM394 530q10 10 34 10t24 -9
q0 -2 -2 -4q-62 -74 -176 -242t-174 -290q-10 -19 -30 -19q-9 0 -9 7q0 25 311 516q-36 -12 -66.5 -12t-55.5 8q8 -63 -44 -117q-38 -40 -76 -40t-51.5 18t-13.5 32q0 70 41 107t77.5 37.5t52.5 -14.5q27 -11 50 -11q76 0 108 23zM216 484q0 14 -7.5 22.5t-15 8.5h-8.5
q-24 0 -45.5 -24.5t-28 -44t-9 -31.5t-2.5 -26t8 -22.5t28 -8t40.5 24.5t27.5 43t9.5 31.5t2.5 26.5z" />
    <glyph glyph-name="ampersand" unicode="&#x26;" horiz-adv-x="697" 
d="M652 386q0 -44 -95 -98q16 -17 27 -43t11 -40q0 -62 -41.5 -112.5t-91.5 -76.5q-118 -60 -238 -60q-44 0 -85 13t-65 40q-36 39 -36 90q0 57 46 105q60 63 201 67q32 1 42 2q-58 49 -93 121q-16 35 -16 67t19 59t77 41q34 8 56 8t39 -4.5t41 -19t37 -30.5q23 27 39 28
q13 3 22 -4.5t-2 -18.5q-3 -3 -16 -13q-57 -46 -57 -78q0 -11 5.5 -19t-1 -10t-12.5 3.5t-6 37t16 57.5q-21 23 -50.5 35.5t-46.5 12.5q-75 0 -85 -66q-2 -17 -2 -43t15 -71t34.5 -70.5t17.5 -32t-18 -8.5q-82 -9 -159 -50q-45 -22 -68.5 -54t-23.5 -63.5t19 -59.5t55 -40
t61 -12q122 0 214 62q75 50 104 146q8 30 8 58t-6 40l-59 -32.5t-60 -34.5q-38 -23 -68 -62t-30 -56.5t9.5 -25t11.5 -12t-1 -6t-12 1.5q-26 9 -26 63q0 30 14 57q20 38 145 100l69 35q77 38 95 64q8 11 8 19t-2.5 14t1.5 6t8 -6q5 -11 5 -21z" />
    <glyph glyph-name="quotesingle" unicode="'" horiz-adv-x="145" 
d="M88 455q7 5 26 5t19 -17q0 -12 -5 -28t-7 -23.5t-11.5 -38t-13.5 -45.5q-4 -17 -11.5 -17t-7.5 12l4 100q0 7 -1 21.5t0 20t8 10.5z" />
    <glyph glyph-name="parenleft" unicode="(" horiz-adv-x="380" 
d="M462 563q8 0 8 -7q-2 -10 -18 -17q-111 -36 -203 -122.5t-133 -203.5q-29 -86 -29 -185.5t34 -168.5q5 -10 -5 -21t-22 -11t-18 8q-46 92 -46 196q0 112 51.5 224t155.5 197t218 110q4 1 7 1z" />
    <glyph glyph-name="parenright" unicode=")" horiz-adv-x="517" 
d="M-28 -166q-8 0 -8 6q0 11 17 17q111 36 203 123t133 204q30 80 30 182.5t-35 171.5q-5 10 4 20q11 12 23 12t18 -8q46 -92 46 -197q0 -112 -47 -213q-55 -122 -159 -207t-218 -110q-4 -1 -7 -1z" />
    <glyph glyph-name="asterisk" unicode="*" horiz-adv-x="644" 
d="M260 322q-74 -3 -124 -3q-25 0 -29 13q-1 12 17 22q12 6 145 6q-58 94 -58 122q0 14 12 20q5 3 9 3q13 0 24 -22q16 -33 44 -103l42 49.5l39.5 46.5t21 26t14 12t10.5 3q8 0 8 -11.5t-11 -27.5l-89 -118h144q46 -1 46 -13q0 -5 -13 -11.5t-37 -8.5t-149 -4
q20 -56 36.5 -85.5t18.5 -35.5t2 -15.5t-9 -11.5q-2 -1 -4 -1q-12 0 -28 29l-4 9l-10 18l-26 50l-12 23q-43 -54 -57 -74.5t-17 -23.5q-18 -21 -32 -21h-4q-14 5 -14 18q0 3 1.5 7t29.5 39q24 24 63 74z" />
    <glyph glyph-name="plus" unicode="+" horiz-adv-x="615" 
d="M297 162q-148 -4 -176.5 -4t-28.5 10q0 14 22 24q5 2 10 2h188q54 119 66 141.5t22.5 22.5t10.5 -11q0 -8 -6 -22l-58 -130h174q29 0 29 -13q0 -3 -6 -8.5t-25 -7.5t-185 -4l-75 -173q-6 -14 -26 -19h-6q-19 0 -6 27z" />
    <glyph glyph-name="comma" unicode="," horiz-adv-x="179" 
d="M151 9q0 -20 -44 -72q-54 -70 -68 -70q-5 0 -5 8q0 2 28 34.5t36.5 60t1.5 39.5q-17 33 25 33q11 0 18.5 -11.5t7.5 -21.5z" />
    <glyph glyph-name="hyphen" unicode="-" horiz-adv-x="377" 
d="M176 194l148 1q55 0 55 -12q0 -20 -213 -25h-5q-18 0 -18 9q0 14 22 24q6 3 11 3z" />
    <glyph glyph-name="period" unicode="." horiz-adv-x="181" 
d="M155 44v-17q0 -7 -11 -23t-17 -16q-33 0 -33 16q0 8 20 24q28 22 34.5 22t6.5 -6z" />
    <glyph glyph-name="slash" unicode="/" horiz-adv-x="467" 
d="M411 530q11 10 26.5 10t15.5 -7q0 -2 -3 -6q-66 -72 -193.5 -240.5t-197.5 -291.5q-12 -19 -31 -19q-9 0 -9 6q0 25 177.5 269t214.5 279z" />
    <glyph glyph-name="zero" unicode="0" horiz-adv-x="550" 
d="M95 15q-52 61 -52 146q0 54 23 123q45 134 191 200q58 27 103 27q8 0 21.5 -1t27.5 -13t17.5 -27.5t-3.5 -21.5q-2 0 -4 2q-15 23 -52 23q-56 0 -116 -39.5t-102.5 -99.5t-56.5 -139q-4 -25 -4 -62t20 -79q29 -62 104.5 -62t152.5 67.5t108 152.5t31 144q0 79 -47 122
q-43 42 -121 42q-23 0 -28.5 6t5 11.5t23.5 5.5q87 -5 140 -53q72 -61 72 -170q0 -60 -26 -125q-43 -104 -125.5 -167t-169.5 -63t-132 50z" />
    <glyph glyph-name="one" unicode="1" horiz-adv-x="312" 
d="M116 -12l-110 -21q-6 0 -6 7q0 16 19 27q5 3 9 4t56 8q9 0 33 2q12 55 60 183.5t94 235.5q-67 -65 -120 -100q-14 -9 -14 -1.5t12 17.5q99 86 162 177q7 7 14 7q20 0 33.5 -8t13.5 -14q0 -1 -1 -2q-178 -351 -216 -493q20 1 54.5 1t65.5 -5q13 -3 10.5 -11t-19.5 -8
q-106 0 -116 -1v-1q-5 -6 -17 -8.5t-17 4.5z" />
    <glyph glyph-name="two" unicode="2" horiz-adv-x="584" 
d="M428 13q24 0 52 4q55 8 62 31q4 12 13 11.5t6.5 -10t-6 -14.5t-9 -10.5t-9 -8.5t-11 -8.5t-9.5 -7.5q-38 -28 -100 -28q-27 0 -54 5t-117 28.5t-105 29.5q-18 -21 -43 -38t-32 -17t-7 8q0 79 91 79h11q310 183 359 301q11 25 11 40q0 42 -37 70q-26 20 -69 20t-84 -9
q-43 -13 -81 -32q-61 -32 -61 -62q0 -8 4.5 -18t-1 -13.5t-12.5 3.5q-19 17 -19 39.5t28.5 49.5t70.5 44q77 33 149 33q51 0 93 -13q77 -24 86 -90q1 -4 1 -9q0 -62 -82 -142q-99 -95 -323 -215q38 -6 104 -25.5t86 -22.5t44 -3z" />
    <glyph glyph-name="three" unicode="3" horiz-adv-x="561" 
d="M343 305q55 0 103.5 31t48.5 79q0 33 -28.5 57t-76 24.5t-97 -24t-49.5 -67.5q0 -9 -11 -13t-11 8q0 60 53 94t134 34q52 0 91 -20q52 -29 52 -86q0 -32 -22 -66q-30 -46 -94 -67q39 -2 65 -28t26 -68q0 -68 -48.5 -123t-116.5 -82.5t-135 -27.5q-145 0 -146 97
q0 16 7 33t19 17q4 0 9 -1q12 -7 10 -18q-5 -12 -5 -31q3 -39 36.5 -58.5t71.5 -19.5q85 1 162.5 66.5t77.5 151.5q0 29 -21.5 51.5t-63.5 33.5q-17 -1 -46.5 -6.5t-37.5 -5.5q-26 0 -32 12.5t2.5 21.5t29 5t43.5 -4z" />
    <glyph glyph-name="four" unicode="4" horiz-adv-x="469" 
d="M255 -40q-8 -8 -18.5 -8t-15.5 6v6q0 43 59 205l-151 15q-12 2 -33.5 2t-42 -15t-30 -20t-13.5 1q0 38 39 60l176 127q108 79 199 184l5.5 8t5 7.5t5 5t6.5 2.5q10 0 19 -6q11 -5 17.5 -14t0 -22l-62.5 -122t-84 -172q52 3 100 19.5t55 40.5q4 13 11.5 13.5t7.5 -6.5
q0 -21 -44 -60q-56 -50 -149 -50q-48 -119 -62 -204v-3zM110 227q12 1 27 1t40.5 -2t66.5 -7.5t52 -6.5q57 153 89 222q-79 -79 -275 -207z" />
    <glyph glyph-name="five" unicode="5" horiz-adv-x="547" 
d="M516 234.5q0 -64.5 -33.5 -116.5t-85 -86t-112.5 -53.5t-118 -19.5q-170 0 -170 113q0 20 8.5 39t22.5 19q4 0 9 -2q17 -6 12 -21t-5 -35q2 -46 40.5 -68t77.5 -22h7q64 1 128 34t108 92t44 126q0 35 -19 58q-29 35 -98 35q-35 0 -65 -10t-66.5 -37.5t-44.5 -29.5
q-14 -3 -13 11q1 10 11 27q69 120 115 177q-1 2 -4.5 7.5t-4.5 8.5t-3.5 8.5t-2 8.5t1.5 6q2 8 16 11q48 11 149.5 11t163.5 -8q14 -2 14 -11q0 -15 -27 -15q-222 0 -261 -23q-18 -11 -57 -84q-22 -31 -37 -60q37 25 114.5 25t131 -25.5t53.5 -90z" />
    <glyph glyph-name="six" unicode="6" horiz-adv-x="516" 
d="M396 193q0 40 -25 63.5t-62 23.5q-39 0 -85 -38q-5 -4 -10.5 -4t-6.5 4t10.5 17.5t42.5 27t61 13.5h7q51 0 85 -28t34 -77q0 -93 -81 -165q-69 -61 -151 -61q-64 0 -103 30t-48 77q-4 24 -4 49q0 81 42.5 165.5t122.5 153t147 83.5q13 4 25.5 4t31 -3t40.5 -14
t31.5 -35.5t9.5 -44t-2.5 -34t-12.5 -12t-9 6.5q2 12 2 29t-9.5 38t-28.5 29q-30 12 -49 12t-30 -4q-53 -12 -113 -75q-96 -100 -125 -234q-9 -40 -9 -63v-29q2 -45 30 -74t86.5 -29t101.5 54q54 66 54 144z" />
    <glyph glyph-name="seven" unicode="7" horiz-adv-x="417" 
d="M152 -6q-11 -8 -32 -8t-21 7q0 23 158 215.5t224 259.5q-84 14 -193 14h-28q-113 -4 -134 -85q-4 -18 -13 -12q-5 3 -4 10q15 80 54 104.5t111 24.5q24 0 124 -8.5t116 -11.5q12 22 35 30q5 1 9 1q12 0 12 -14t-11.5 -28.5t-28.5 -22.5q-8 -8 -74.5 -82l-125.5 -144
q-104 -122 -178 -250z" />
    <glyph glyph-name="eight" unicode="8" horiz-adv-x="491" 
d="M217 407q0 -26 19.5 -44.5t85.5 -43.5l10 -4q58 29 99 61q27 21 34.5 39.5t7.5 31t-6 26.5q-20 49 -99 49q-46 0 -90 -24q-61 -33 -61 -91zM400 167q0 66 -98 97q-16 5 -23 8q-63 -31 -130 -82q-77 -56 -77 -112q0 -24 19.5 -40.5t51.5 -20.5q65 -8 118 8q64 22 101.5 62
t37.5 80zM354 307q91 -42 91 -113q0 -60 -55 -114q-50 -49 -116 -76t-126 -27q-114 0 -114 74q0 41 32 87q27 38 61 62q84 60 128 79q-44 16 -65 39.5t-21 60.5q0 76 80 129q58 39 148 39q54 0 84.5 -19.5t30.5 -52.5q0 -91 -158 -168z" />
    <glyph glyph-name="nine" unicode="9" horiz-adv-x="497" 
d="M155 311q0 -39 25 -63t64 -24h3q33 0 80 39q5 4 11 3q13 -1 -2 -18.5t-45.5 -30.5t-60.5 -13h-3q-54 0 -88.5 28.5t-34.5 76.5q0 92 81 165q69 61 151 61q64 0 103 -30t48 -77q4 -24 4 -49q0 -80 -42.5 -165.5t-122.5 -154.5t-147 -82q-34 -4 -48 -4t-32 8t-33 21
q-25 23 -25 72q0 16 3 33q2 11 12 9t9 -7q-2 -13 -2 -26.5t5 -30.5q8 -30 49 -46q14 -5 22 -5t18 1t22 2q54 12 113 74q97 103 126 236q9 40 9 63t-1 29q-1 45 -29 74t-86.5 29t-102 -54t-51.5 -121q-2 -12 -2 -23z" />
    <glyph glyph-name="colon" unicode=":" horiz-adv-x="161" 
d="M155 41v-14q0 -7 -11 -23t-17 -16q-33 0 -33 16q0 8 20 24t26 18.5t9 3.5q6 2 6 -9zM206 202v-18q0 -7 -10.5 -22t-16.5 -15q-34 0 -34 16q0 3 14 16t20 18q13 11 20 11t7 -6z" />
    <glyph glyph-name="semicolon" unicode=";" horiz-adv-x="166" 
d="M151 9q0 -20 -44 -72q-54 -70 -68 -70q-5 0 -5 8q0 2 28 34.5t36.5 60t1.5 39.5q-17 33 25 33q11 0 18.5 -11.5t7.5 -21.5zM206 202v-18q0 -7 -10.5 -22t-16.5 -15q-34 0 -34 16q0 3 14 16t20 18q13 11 20 11t7 -6z" />
    <glyph glyph-name="less" unicode="&#x3c;" horiz-adv-x="379" 
d="M150 219q68 -128 78 -153t10 -37.5t-9.5 -12.5t-19.5 17q-49 75 -114 139q-16 15 -16 23.5t3 12.5t22 21.5l76 73.5q106 103 181 165q6 5 11 5t5 -10.5t-18 -32.5q-59 -68 -209 -211z" />
    <glyph glyph-name="equal" unicode="=" horiz-adv-x="539" 
d="M194 264l291 1q54 0 54 -12q0 -10 -54 -16q-3 0 -300 -9q-24 -2 -23 11t20 22q7 3 12 3zM153 84q-19 0 -19 10q0 15 22 25l10 3h291q54 0 54 -13q0 -7 -12 -9.5t-19 -3.5q-21 -3 -164 -7t-152 -4.5t-11 -0.5z" />
    <glyph glyph-name="greater" unicode="&#x3e;" horiz-adv-x="397" 
d="M309 270q-88 163 -88 188q0 10 4.5 13t6.5 3q9 0 19 -17q45 -71 113 -139q5 -6 8 -10q9 -9 9 -11.5v-6.5t-3.5 -7.5l-5 -5t-7.5 -6.5t-17.5 -16l-53.5 -51.5l-67 -64.5q-127 -121 -139 -121q-6 0 -6 10t18 31q44 54 209 211z" />
    <glyph glyph-name="question" unicode="?" horiz-adv-x="472" 
d="M199 490q-6 -6 -34 -42t-36 -36t-7.5 24t10.5 52q17 38 58 44q11 1 37 14q48 25 110 25l19 -1q35 -2 62 -23q40 -31 40 -93q0 -60 -47 -112q-49 -54 -117 -100q-89 -63 -97 -102q-2 -9 -12 -9t-8.5 15.5t19 38.5t32.5 37t52.5 46.5t58 54.5t37 60t16.5 80.5t-19 66.5
t-51 24q-55 0 -123 -64zM155 27q0 -7 -11 -23t-17 -16q-33 0 -33 16q0 8 32 34q16 12 24 12q5 0 5 -8v-15z" />
    <glyph glyph-name="at" unicode="@" horiz-adv-x="752" 
d="M492 148q7 -6 19.5 -6t38.5 19.5t49 46.5q76 93 76 201q0 72 -57 115t-149 43q-100 0 -194 -55t-152.5 -147t-58.5 -187t58 -152q60 -58 185 -58q75 0 172 42.5t143 92t67 89t21 64.5t-9.5 35.5t-4 15t12.5 -2.5q28 -27 28 -62q0 -83 -71 -154q-58 -60 -165 -99t-196 -39
q-143 0 -218 66.5t-75 163.5q0 80 39.5 157.5t103 134t147.5 92t169 35.5h4q108 0 172.5 -51t64.5 -137.5t-85 -203.5q-64 -92 -141 -92h-2q-42 0 -55 40q-3 12 -3 27q0 47 20 102q-4 -2 -39 -42.5t-80 -77t-83 -36.5t-65 35q-15 22 -15 42q0 59 76 127q47 41 96 71
t73.5 37.5t39.5 7.5q50 0 72 -15q19 -15 19 -29q0 -11 -8 -5q-12 20 -51 20t-88.5 -26t-89 -62t-67 -82t-27.5 -66q0 -37 22 -37q8 0 27 9.5t38 26.5q65 51 116 109q79 88 90 88t28.5 -6.5t11.5 -18.5q-27 -39 -44 -82.5t-18.5 -62.5t-1.5 -27q0 -25 14 -34z" />
    <glyph glyph-name="A" unicode="A" horiz-adv-x="849" 
d="M697 -25q-31 0 -45 27.5t-14 70t18 116.5q-35 3 -119 14q-139 -172 -231 -239q-79 -59 -164 -59q-54 0 -92.5 27t-38.5 80q0 10 5 18.5t10 4.5t5 -23q0 -34 26.5 -51t64.5 -17q82 0 161.5 53.5t216.5 209.5q-147 18 -194 18q-127 0 -157 -83q-4 -11 -4 -20.5t4 -17
t1.5 -12t-8.5 -4t-10 6.5q-11 19 -11 37q0 62 22.5 91.5t52.5 37.5q36 10 84 10t242 -38q54 62 164 199.5t110 139.5h1q1 1 5 3q24 14 52 14q10 0 10 -10q0 -1 -1 -2.5t-2 -4t-2 -4.5q-96 -159 -149 -358l-3 -7l25 -1q8 -1 28.5 -1t43.5 9.5t29.5 20.5t11.5 5t1 -13
q-11 -20 -39 -29q-24 -10 -47.5 -10h-30.5l-27 1q-19 -87 -19 -138.5t28 -51.5q27 0 84 43t107 111q3 4 8 2t5 -5t-1.5 -7.5t-15.5 -22.5q-42 -56 -103 -106q-44 -35 -98 -35zM752 478q1 2 2.5 5.5t2.5 5.5q-125 -171 -201 -264l105 -17q28 109 91 270z" />
    <glyph glyph-name="B" unicode="B" horiz-adv-x="654" 
d="M17 339l-2 16q4 42 48.5 83t112.5 78t216 62q84 13 140.5 13t99.5 -9.5t71 -37.5t28 -66.5t-32.5 -72.5t-81.5 -52q-95 -35 -182 -39q43 -26 71 -45.5t60 -51.5t41 -55t9 -41q0 -59 -45 -113q-30 -37 -83.5 -59t-113.5 -22q-128 0 -140 90q-2 2 -2 6q-38 -61 -63 -61
q-7 0 -22.5 3.5t-16 7.5t-0.5 17t19 62.5t43 97.5l93 174q8 18 8 27t-1 14q4 28 48.5 73.5t80.5 45.5q12 0 32 -9t24 -25q1 -7 0.5 -8.5t-5.5 0.5t-6 2q-32 0 -76.5 -47.5t-85.5 -116.5q-85 -140 -122 -230q-8 -20 -8 -31q0 -15 13 -15t35 27.5t31 27t14.5 -5.5t7.5 -10.5
t3 -15.5t2 -13q16 -71 101 -71h4q69 0 118 32q54 36 54 89.5t-50 112.5q-16 18 -47 45q-66 57 -68 73t13.5 26.5t28.5 10.5q49 0 134 35q125 51 134 113v6q0 18 -16 34q-27 29 -114 29q-119 0 -277 -43q-96 -26 -169 -74q-80 -53 -80 -113q0 -13 8 -25.5t18.5 -18t27.5 -12
t24.5 -10t5 -8.5t-14.5 -3q-33 2 -66 27.5t-33 59.5q0 5 1 10z" />
    <glyph glyph-name="C" unicode="C" horiz-adv-x="535" 
d="M558 504q0 56 -59 56q-51 0 -132.5 -48t-167.5 -146.5t-120 -206.5q-14 -43 -14 -79.5t21 -63.5q37 -48 121 -49h11q93 0 201 47.5t173 139.5q5 7 10.5 3t5.5 -7t-2 -5q-74 -101 -182 -152t-209 -51q-106 0 -160 60q-35 39 -35 102q0 106 80 228q109 166 264 230
q60 24 115 24q68 0 97 -32q19 -22 19 -51q0 -55 -58 -113t-128.5 -92.5t-122.5 -39.5q-21 -2 -20 11q1 18 25 20q80 7 147 48.5t103 110.5q17 27 17 56z" />
    <glyph glyph-name="D" unicode="D" horiz-adv-x="869" 
d="M81 309l-2 16q0 70 61 125q109 97 352 120q37 3 86.5 3t125.5 -14.5t125 -53.5q78 -64 78 -167.5t-61.5 -191t-156.5 -135.5t-203 -48t-175 51q-1 -1 -9.5 -17t-17.5 -31q-46 -73 -82 -20q-21 31 -21 74t9 104q1 6 -8 28q-3 10 7 20q8 6 22.5 10t20 0t-2.5 -21.5
t-8 -32.5t31 -44.5t38 -31.5q24 59 102 221q9 18 9 27t-2 14q5 29 63.5 92t94.5 63q14 0 35 -9.5t24 -26.5q0 -6 -1 -6.5t-5 1.5t-6 2q-32 0 -75.5 -46.5t-86.5 -121.5q-76 -130 -122 -230q62 -45 135 -45q95 0 182 49t140 113q86 105 86 207q0 75 -59.5 134t-188.5 63h-12
q-102 0 -215 -33.5t-193 -95.5t-80 -129q0 -17 10.5 -30t22 -18t29 -11t23 -8.5t6.5 -5.5q2 -8 -14 -8q-37 3 -74.5 27.5t-37.5 57.5q0 5 1 10zM216 90q0 -135 19 -135q14 0 40 70q2 3 2 4q-7 6 -29.5 29.5t-31.5 31.5z" />
    <glyph glyph-name="E" unicode="E" horiz-adv-x="717" 
d="M573 509.5q7 -0.5 12.5 -5.5t17 -33t11.5 -46.5t-4.5 -39t-14.5 -20.5q-17 0 -28 39.5t-16 49.5q-28 59 -60 86q-29 27 -59 27q-13 0 -26 -5q-64 -27 -64 -126q0 -32 12 -75.5t37 -76.5q5 -6 53 -10q25 -3 29 -17.5t-12 -22.5q-9 -11 -69 6q-16 4 -21 5q-54 -1 -122 -24
t-125 -70.5t-57 -104.5q0 -43 35 -69.5t112.5 -26.5t173 24t150 52t107.5 79t53 88q0 6 -0.5 10t1.5 5q6 3 10 -1q13 -25 13 -39q0 -41 -27 -74q-47 -57 -106 -90t-161.5 -56t-170.5 -23t-115.5 12t-82.5 48t-35 88.5t25.5 89t61 56.5t85.5 33q74 20 165 25q-65 74 -77 171
q-1 11 -1 21q0 36 17.5 66.5t58.5 43.5t61 13t29.5 -2.5t16.5 -5t14 -7l12 -7.5t12 -9.5t10 -9t11 -10t10 -8.5q15 -18 29 -21q2 -2 9 -2.5z" />
    <glyph glyph-name="F" unicode="F" horiz-adv-x="530" 
d="M271 58q3 0 3 -6t-14 -20l-10 -15q-27 -41 -39.5 -48t-20 -7t-23 3.5t-16 7.5t-0.5 8q0 49 89 221q-24 -3 -36.5 -3t-21 7.5t-8.5 19.5t21 22t32.5 10t19.5 -9.5t10 -9.5h3l38 70t17 41.5t-3 14.5q6 29 49.5 74t79.5 45q16 0 39 -12.5t20 -32.5q-7 5 -13 5
q-68 0 -187 -204q33 3 69 9q120 15 136 15t20.5 -0.5t8 -2.5t4.5 -4q1 -6 -23 -14q-58 -19 -235 -38q-84 -152 -84 -187q0 -17 14.5 -12.5t25.5 18.5q26 34 35 34zM662 534q29 32 55 32q12 0 19 -6t7 -12t-6 -12t-23 -18.5t-27 -22.5q-48 -47 -48 -81q0 -15 6.5 -25
t-1.5 -12.5t-15 6.5q-9 6 -9 40q0 45 16 75q2 3 6.5 10.5t7.5 10.5h-37.5t-121 8t-136.5 8t-71 -6q-95 -13 -163.5 -52.5t-81.5 -99.5q-2 -6 -2 -14.5t5.5 -20.5t13.5 -19t24.5 -17t22 -14.5t2 -7.5t-7 -3t-7.5 1q-34 10 -57.5 37.5t-23.5 46t5 31.5q0 11 1 16q15 71 91 110
q91 47 222 47q72 0 177 -17t157 -19z" />
    <glyph glyph-name="G" unicode="G" horiz-adv-x="799" 
d="M337 -3q-31 -6 -62 -6q-101 0 -160 65q-41 46 -41 117q0 153 138 280q154 137 375 137q63 0 109 -24q37 -20 37 -60q0 -17 -10 -19q-13 -3 -14 15q-4 66 -102 66q-44 0 -108.5 -21.5t-133.5 -61.5t-129 -88.5t-98.5 -109.5t-38.5 -122t42.5 -93.5t104.5 -32.5
q68 0 158 24q50 15 95 42.5t69 48.5q45 38 91 84q24 61 79 71q23 4 50 0l12 -2q9 -2 9 -5q0 -10 -13 -9h-2q-54 0 -89 -101q-27 -81 -51 -145q53 12 70 12t24 -4t2.5 -9t-9 -3t-16 2t-45 -8.5t-39.5 -24.5q-100 -253 -242 -352q-64 -44 -114 -44q-19 0 -36 6q-46 17 -46 68
q0 61 63 133q122 141 333 209q26 79 48 157q-179 -169 -310 -192zM257 -296q0 -11 3 -22q10 -39 50 -39q59 0 124 79q97 121 158 291q-175 -57 -277 -185q-58 -71 -58 -124z" />
    <glyph glyph-name="H" unicode="H" horiz-adv-x="751" 
d="M590 219l-248 33q-152 -345 -295 -389q-26 -9 -46 -9q-75 0 -92 63q-1 4 -1 8.5t1.5 11t6.5 4.5t10 -19q9 -29 38 -37q22 -4 38.5 -4t28.5 4q146 46 273 372l-53 3q-14 1 -26 1q-127 0 -156 -82q-5 -11 -5 -21t6 -20t-3.5 -12.5t-15.5 6.5q-11 20 -11 37q0 61 22.5 90.5
t52.5 38.5q36 10 80 10l61 -6q32 -3 61 -9q24 64 58 172q-53 -47 -130 -55q-10 -1 -10.5 7t11.5 10q43 4 88.5 44t69.5 94q2 12 33 12t30 -12l-44.5 -115.5t-66.5 -164.5q26 -5 76 -17q102 -23 165 -30q58 123 72.5 157.5t14.5 43.5t-3 14q3 28 43.5 73.5t76.5 45.5
q16 0 38.5 -11.5t22.5 -29.5q0 -4 -5 -1t-7 3q-25 0 -58 -35.5t-65 -91.5q-49 -87 -87 -172q86 0 115 36q5 9 10 2.5t-3.5 -19t-37.5 -24.5t-92 -12q-47 -111 -47 -174q0 -49 28.5 -49t85 44t106.5 111q3 4 9 1.5t3.5 -9t-15.5 -25.5q-42 -57 -103 -106q-45 -35 -98 -35
q-27 0 -41.5 16t-16 30t-1.5 26t4 37q10 64 44 135z" />
    <glyph glyph-name="I" unicode="I" horiz-adv-x="430" 
d="M196 408q0 -16 8.5 -28t15.5 -17q14 -9 36 -20q12 -9 5 -11q-3 0 -7 1q-24 5 -51 29t-28 55q-3 11 -3 19q0 43 36 75q67 57 213 57q0 4 3 10q2 12 31 12q25 0 24 -12q-4 -8 -5 -13q64 -4 107 -26q14 -7 20.5 -17t6.5 -14q0 -9 -36.5 3.5t-111.5 12.5q-5 -21 -34.5 -106
t-37.5 -105.5l-22 -57t-25 -59.5l-25 -52q-24 -49 -57 -92q-25 -29 -38 -39h66t86 2.5t40.5 -0.5t0.5 -7q-6 -10 -16 -15.5t-147 -9.5t-171 -4h-49q-23 1 -23 18q0 9 6 25q7 16 27.5 20.5t36.5 -8.5q27 -22 53 -22t53.5 10t55.5 46q81 108 170 455q-92 -8 -153 -37.5
t-61 -77.5z" />
    <glyph glyph-name="J" unicode="J" horiz-adv-x="574" 
d="M217 494q39 49 138 67q43 7 88 7t93 -8q26 29 53 29q7 0 9.5 -3.5t-0.5 -7.5t-13.5 -7.5t-24.5 -15.5q34 -10 47 -16.5t19.5 -16.5t6.5 -14q0 -9 -27.5 0t-64.5 14q-18 -43 -38 -118l-24 -90q54 13 72.5 13t22.5 -2.5t4.5 -6.5t-1.5 -6.5t-6.5 -0.5t-16.5 2t-45 -8.5
t-39 -25.5q-92 -253 -234 -352q-63 -45 -115 -45q-19 0 -36 6q-51 17 -51 75.5t61 128.5q123 141 332 207l19 59q35 114 65 166h-36t-68 -5q-113 -13 -161 -57q-25 -24 -25 -55q0 -15 8.5 -27t16.5 -17q13 -9 35 -20q12 -9 5 -11q-3 0 -7 1q-24 5 -51 29t-28 55q-3 11 -3 18
q0 33 20 59zM86 -29q0 -11 2 -22q10 -38 50 -38q59 0 124 79q96 117 159 290q-175 -57 -277 -185q-58 -71 -58 -124z" />
    <glyph glyph-name="K" unicode="K" horiz-adv-x="559" 
d="M334 565l-49 -124q-70 -180 -114 -269q29 36 90 102v14.5t1 24.5q3 11 10 16.5t12 -10.5q0 -5 2 -15l1 3q25 28 166 146t168 130.5t45.5 12.5t25.5 -8.5t7 -17t-8.5 -16t-21 -13.5t-78 -43t-119.5 -73q-130 -88 -180 -143q23 -83 46 -131t72.5 -108.5t90.5 -60.5
q17 0 24 9t5 23q-6 28 -18 45.5t-2.5 17.5t18 -8.5t16 -25t7.5 -28.5q-1 -28 -27 -44t-50 -16q-45 0 -82 26.5t-62 72.5q-45 84 -65 194q-112 -131 -154 -189q-103 -167 -197 -196q-27 -9 -47 -9q-74 0 -92 63q-1 4 -1 8.5t1.5 11t6.5 4.5t10 -19q10 -30 38 -37
q22 -4 38.5 -4t28.5 4q103 33 200 210q78 147 144 370q-53 -47 -130 -55q-7 0 -10 3.5t0 8t10 5.5q43 4 89.5 44.5t69.5 93.5q3 13 34.5 13t29.5 -13z" />
    <glyph glyph-name="L" unicode="L" horiz-adv-x="514" 
d="M38 54l67 -6q22 0 33.5 4.5t17 2.5t-2.5 -7.5t-26.5 -8.5t-22.5 -5q16 -6 35 -17l53 -33q24 56 34 88q-6 -3 -16 -4.5t-10 5.5t12 11l22 6q16 46 35.5 111.5t19.5 66.5q60 192 104 242t81 65t56 15q53 0 84 -42q21 -29 21 -73q0 -83 -56.5 -165t-136.5 -138.5t-166 -86.5
q-30 -71 -57 -117q153 -98 217 -119q74 -25 141 -25q73 0 121 40q25 20 25 42t-8.5 39t1.5 18.5t16 -10.5q15 -33 15 -68v-12q-1 -38 -35 -67q-40 -34 -123 -34q-56 0 -98.5 15t-67 24.5t-61 33l-51.5 33.5q-30 20 -102 74q-52 -90 -92 -90q-10 0 -12 3.5t0.5 6.5t5.5 3
q33 3 74 93q-56 37 -94 50q-34 -14 -47 -14t-17 1q-17 6 -17 21q0 21 26 28h2zM594 494q0 76 -57 76q-51 0 -87 -52q-40 -56 -58 -104.5l-26 -71.5q-20 -56 -31 -102q-33 -92 -48 -127q115 52 198.5 141t104.5 201q4 21 4 39z" />
    <glyph glyph-name="M" unicode="M" horiz-adv-x="1096" 
d="M212 81q-90 -169 -170 -169q-51 0 -51 52q0 31 24 69q41 64 127.5 157.5t146.5 148.5l38 129q-50 -47 -130 -55q-10 -1 -10.5 6t8.5 9l4 1q43 4 88.5 45t68.5 94q4 13 35 12.5t30 -12.5l-69 -171q136 115 195 118h14q79 0 109 -52q26 -44 26 -103q0 -88 -54 -252
q-9 -29 -7.5 -29.5t5.5 6l12.5 19.5t40.5 66q115 193 234 322q39 41 78 41q23 0 35 -16t12 -35t-8.5 -53t-51.5 -142q-53 -132 -53 -216q0 -65 36 -65q26 0 69 33q66 55 106 109q5 7 9.5 3t4.5 -6.5t-2 -4.5q-19 -30 -60 -72q-67 -71 -108 -84q-20 -7 -39 -7q-66 1 -66 95
q0 49 12 95t19.5 71t19.5 58.5t20 51.5q26 65 32 81t6 27.5t-6 16t-16 4.5t-31 -18q-77 -66 -173.5 -208t-135.5 -223q-8 -17 -16 -17t-17 14.5t-9 21t1 8.5q26 66 37.5 141t11.5 123q0 169 -73 169q-68 0 -247 -164q-9 -26 -39 -94q-41 -89 -73 -149zM45 -54q62 0 152 173
q50 96 72 156q-53 -50 -117 -122.5t-91 -108.5q-35 -47 -35 -72.5t19 -25.5z" />
    <glyph glyph-name="N" unicode="N" horiz-adv-x="785" 
d="M815 433q-24 0 -64 35q1 -15 1 -31q0 -80 -32 -195t-96.5 -212t-131.5 -97q-56 0 -96.5 44t-61.5 115q-38 135 -38 291q-69 -181 -132 -298q-106 -188 -204 -218q-25 -8 -45 -8t-35 4q-41 14 -51 56q-1 5 -1 9t1 10t6 3.5t10 -18.5q7 -27 35 -34q17 -5 33 -5t31 5
q96 30 190 201q65 125 132 352q-55 -50 -130 -55q-10 -1 -10.5 7t11.5 10q43 4 89 45t69 94q4 13 35 12.5t30 -12.5q-4 -11 -9 -53t-5 -83q0 -176 55 -331q39 -109 99 -109t112 105t71.5 208t19.5 144.5t-4 62t-27 87.5q-1 3 7 10.5t12 8.5q19 0 35.5 -23t33.5 -54
q29 -56 54 -56l12 3q9 0 11 -10q0 -8 -7 -13.5t-15 -6.5z" />
    <glyph glyph-name="O" unicode="O" horiz-adv-x="706" 
d="M717 337q0 -149 -103 -266.5t-229 -146.5q-37 -9 -71 -9q-93 0 -154 69t-61 174q0 139 95 230q60 58 147 79q26 5 48 5q50 0 73 -23.5t13 -23.5l-16 8q-21 8 -36.5 8t-26.5 -3q-120 -28 -194 -144q-57 -90 -57 -181q0 -125 91 -162q30 -13 65.5 -13t72.5 9
q67 15 136 83.5t113 161.5t44 174q0 106 -63 158q-53 42 -139 42q-13 0 -28 -1q-111 -7 -205 -75q-69 -48 -116 -119t-52 -141q-1 -16 -9.5 -7.5t-8.5 25.5q0 72 42.5 141.5t113.5 120.5q50 36 114.5 57.5t123.5 22.5q123 0 200 -67t77 -186z" />
    <glyph glyph-name="P" unicode="P" horiz-adv-x="539" 
d="M187 4q13 0 35 27.5t30 26.5q6 -6 -13 -26q-2 -2 -7 -10.5t-8.5 -13.5l-9.5 -13t-11 -13t-11 -10q-12 -10 -21 -10t-24.5 3.5t-16 7.5t-0.5 7q0 52 85 213q-13 0 -20.5 1t-9 8t4 8t11.5 0t21 -1q51 92 61 112.5t10 29.5t-1 14q4 28 48.5 73.5t80.5 45.5q12 0 32.5 -9
t23.5 -20.5t1.5 -13t-6.5 0.5t-6 2q-72 0 -205 -235q109 5 223.5 43.5t175.5 101.5q35 34 35 72q0 112 -229 112q-131 0 -250 -40q-62 -22 -105.5 -59t-51.5 -84q-1 -5 -1 -13t6.5 -19.5t15.5 -17.5t25.5 -14t22 -12t2.5 -8.5t-13 -2.5q-31 5 -58 31t-27 56q0 9 2 18
q-2 13 -2 16q14 75 147 143q105 49 248 49q88 0 174 -24q58 -20 88 -57t30 -75q0 -58 -46 -102.5t-103 -68.5q-135 -58 -318 -62q-39 -72 -58.5 -117t-19.5 -58t13 -13z" />
    <glyph glyph-name="Q" unicode="Q" horiz-adv-x="670" 
d="M686 327q14 60 14 113.5t-25.5 91t-72.5 41.5q-15 1 -15.5 6t6.5 8t14 2q69 -10 98.5 -59.5t29.5 -117.5q0 -134 -93.5 -267t-215.5 -178q147 -95 216 -117q73 -24 134 -24q77 0 126 39q26 20 26 42.5t-9.5 39.5t1.5 17.5t16 -10.5q16 -31 16 -80q-2 -37 -36 -66.5
t-91 -33.5q-14 -1 -35.5 -1t-57.5 6.5t-68 17.5t-75 35.5t-64 39l-64.5 46.5l-56.5 41q-42 -11 -62 -11h-22q-121 0 -198 65t-77 180q0 144 103 257.5t229 141.5q36 8 62 8q75 0 125 -44q62 -55 62 -161q0 -104 -61 -198q-93 -141 -248 -168q1 -1 27 -11l53 -33
q103 33 181.5 129t107.5 213zM234 55l73 -6q119 35 199.5 154.5t80.5 227.5t-78 138q-25 9 -55 9t-64 -8q-105 -24 -200 -154t-95 -251q0 -103 65 -153q53 -41 137 -41q44 0 78 8q-36 25 -78 40q-45 -12 -54.5 -12h-11.5q-16 1 -22.5 12.5t1 23t24.5 12.5z" />
    <glyph glyph-name="R" unicode="R" horiz-adv-x="539" 
d="M34 373q-2 13 -2 16q14 75 147 143q105 49 248 49q88 0 174 -24q58 -20 88 -57t30 -75q0 -58 -46 -102.5t-103 -68.5q-127 -55 -290 -61l42 -52.5l44 -54.5l43.5 -50.5t48 -50t49.5 -42t57 -38.5q94 -50 164 -50l34 3q34 6 54 27.5t20 47.5q0 10 -2.5 21.5t6.5 11.5
q10 -1 13.5 -14.5t3.5 -33.5t-10 -46q-11 -36 -61 -55q-32 -12 -60 -12q-84 0 -170 47q-57 32 -102.5 79.5t-76 85.5t-68 94.5t-52.5 75.5l-7 1q-76 -140 -76 -169q0 -15 13 -15t35 27.5t30 26.5q6 -6 -13 -26q-2 -2 -7 -10.5t-8.5 -13.5l-9.5 -13t-11 -13t-11 -10
q-12 -10 -21 -10t-25 3.5t-16 13.5q0 45 82 209q-33 3 -33 24q0 4 1 10q7 17 25.5 17t29.5 -9q8 16 19 36q39 70 39 89q0 5 -1 10q4 28 48.5 73.5t80.5 45.5q12 0 32 -9t24 -25q1 -7 0.5 -8.5t-5.5 0.5t-6 2q-70 0 -200 -227q12 -5 23.5 -5t19.5 1q102 11 199.5 48t151.5 93
q35 34 35 72q0 112 -229 112q-131 0 -250 -40q-62 -22 -105.5 -59t-51.5 -84q-1 -5 -1 -13t6.5 -19.5t15.5 -17.5t25.5 -14t22 -12t2.5 -8.5t-13 -2.5q-31 5 -58 31t-27 56q0 9 2 18z" />
    <glyph glyph-name="S" unicode="S" horiz-adv-x="592" 
d="M645 528q0 -22 -18 -51q-15 -27 -33.5 -37t-18.5 2q0 1 11 12q33 31 33 51q0 43 -85 43q-36 0 -95 -13.5t-114 -43.5q-64 -35 -64 -61q0 -21 39 -40q21 -10 83.5 -33.5t101 -41t73 -49.5t34.5 -71t-46 -85q-70 -67 -182 -111.5t-192 -44.5q-158 0 -158 89t97 151
q80 55 168 55q21 0 19 -7t-30 -7.5t-72 -19t-82 -53.5q-50 -45 -50 -90q0 -28 27 -50t103 -22t150 24q160 53 200 116q16 23 16 39q0 46 -56 72q-65 30 -182 69q-45 15 -76.5 39.5t-31.5 59t37.5 68t90.5 53.5q114 43 193 43q110 0 110 -55z" />
    <glyph glyph-name="T" unicode="T" horiz-adv-x="336" 
d="M271 58q3 0 3 -6t-14 -20l-10 -15q-27 -41 -39.5 -48t-20 -7t-23 3.5t-16 7.5t-0.5 17t19 62.5t44 97.5l92 174q9 17 9 26.5t-3 14.5q6 29 49.5 74t79.5 45q16 0 39 -12.5t20 -32.5q-7 5 -13 5q-42 0 -105 -82q-105 -136 -178 -312q-8 -21 -8 -28.5v-9.5q4 -10 16.5 -6
t23.5 18q26 34 35 34zM652 489q8 13 24 30q-44 1 -132 8q-109 9 -149 9t-111 -7q-95 -13 -163.5 -52.5t-81.5 -99.5q-2 -6 -2 -14.5t5.5 -20.5t13.5 -19t24.5 -17t22 -14.5t2 -7.5t-7 -3t-7.5 1q-34 10 -57.5 37.5t-23.5 46t5 31.5q0 11 1 16q15 71 91 110q91 47 224 47
q81 0 212.5 -18t146.5 -18q27 30 41 31q5 1 14 1t16 -6.5t7 -13.5t-6 -14t-24.5 -20.5t-29.5 -24.5q-52 -52 -52 -91q0 -17 7 -27.5t-1 -15t-17 6.5q-10 8 -10 51t18 78z" />
    <glyph glyph-name="U" unicode="U" horiz-adv-x="526" 
d="M114 -32q-71 0 -71 92q0 84 83 254q45 93 53.5 112.5t0.5 18.5q-8 -2 -23 -13q-78 -66 -136 -70q-10 -1 -10 5q2 9 13 11q39 4 116.5 66.5t93.5 92.5q4 12 38 12q26 -2 25 -12q-172 -290 -195 -414q-5 -28 -5 -50q0 -70 50 -70q82 0 242 155q67 436 214 436q52 0 65 -34
q6 -15 6 -31.5t-7 -34.5q-16 -53 -52.5 -108.5t-102 -133t-77.5 -93.5q-14 -71 -18 -179v-11q0 -95 33 -135q14 -16 26.5 -16t22.5 12q5 8 12.5 15.5t12 5t1.5 -12.5q-10 -16 -13 -19q-16 -20 -56 -20h-7q-58 1 -74 98q-4 31 -4 83.5t13 141.5q-160 -154 -270 -154zM636 510
q5 18 5 33t-6.5 21t-12.5 6q-14 0 -37 -25q-91 -101 -134 -322q56 53 111.5 136t73.5 151z" />
    <glyph glyph-name="V" unicode="V" horiz-adv-x="614" 
d="M207 -71q-90 0 -90 75q0 52 81 240q95 220 107 280q-103 0 -181.5 -30.5t-78.5 -86.5q0 -15 8 -27t16 -17q16 -10 36 -20q12 -9 4 -11q-3 0 -7 1q-23 5 -50 29t-28 55q-4 10 -4 18q0 48 44.5 81t100 42.5t89.5 9.5t53 -1q-1 7 -6 15t6 11h3q10 0 19 -15l5 -14
q57 -8 95 -25q15 -6 24 -20.5t-6 -13.5q-9 0 -33 8.5t-79 10.5q-5 -101 -55 -215q-96 -224 -96 -303q0 -51 41 -51q50 0 142 70q109 81 210 242l49 80q69 114 116 172q30 37 67.5 56t58.5 19t32 -5.5t11 -10t-5 -4.5l-11 1q-33 0 -93 -73q-38 -46 -105.5 -137l-97.5 -130
q-128 -161 -221 -233.5t-171 -72.5z" />
    <glyph glyph-name="W" unicode="W" horiz-adv-x="1010" 
d="M92 -91q-79 0 -79 56q0 36 28.5 84.5t55.5 90l65 98l54 80.5q107 153 133 205q-23 2 -57 2q-119 0 -198 -47q-49 -29 -49 -72q0 -14 8 -26t16 -17q16 -10 36 -20q12 -9 4 -11q-3 0 -7 1q-23 5 -50 29t-28 55q-4 10 -4 17q0 43 33.5 74.5t86.5 43.5q72 16 128.5 16
t95.5 -9q3 15 -1 24t7 11q2 1 3 1q11 0 17 -16q2 -11 -1 -26q18 -5 36.5 -12.5t27.5 -22t-6 -13.5q-9 0 -28.5 6.5t-39.5 8.5q-31 -90 -115 -215q-181 -267 -181 -341q0 -33 32 -33q50 0 161 74q171 119 290 287q-1 28 -1 68t6 79q3 21 22.5 39t29.5 18q13 0 17 -23l2 -18
v-18q0 -77 -30 -139v-9q0 -112 49.5 -202t114.5 -90q56 0 99 58q71 97 71 237q0 127 -56 187q-33 35 -79 35q-38 0 -65 -20q-11 -7 -16 1t1 13q53 39 101 39t79 -22q77 -50 77 -197q0 -63 -18 -128q-26 -95 -87 -168t-134 -73h-2q-79 0 -131.5 79t-52.5 177q0 12 1 25
q-49 -62 -123.5 -132.5t-139.5 -115.5q-112 -83 -209 -83z" />
    <glyph glyph-name="X" unicode="X" horiz-adv-x="680" 
d="M21 427q-4 10 -4 17q0 43 35 75t89 44q70 16 128.5 16t97.5 -10q11 13 21 14q17 2 17 -24l21 -9q15 -8 24 -22q12 -21 -30 -6l-20 5q-5 -40 -5 -81q0 -98 27 -204q60 70 150.5 194.5t107.5 145.5q5 5 9.5 5t11 -4t-0.5 -16q-137 -208 -268 -359q22 -70 51 -118.5
t47 -61.5t31 -13t23 3q29 8 78 53t70 77q4 6 9.5 3t5.5 -5q0 -13 -45 -63q-97 -108 -163 -108q-23 0 -45 13.5t-53.5 56.5t-55.5 108q-71 -79 -142.5 -142t-121.5 -94q-119 -74 -198 -74q-54 0 -96 30q-37 27 -37 78q0 13 5 21.5t10 4.5t5 -30.5t27 -44.5q30 -19 68.5 -19
t78 14t85 39.5t87 56t83.5 66.5q66 56 135 128q-33 103 -33 203.5t10 142.5q-23 2 -48 2t-65 -3.5t-88.5 -16.5t-78 -38.5t-29.5 -52.5t13 -39t32.5 -20.5t22.5 -10.5q10 -6 0 -10l-10 -1q-24 6 -51.5 30t-27.5 54z" />
    <glyph glyph-name="Y" unicode="Y" horiz-adv-x="526" 
d="M648 558l46 -6q11 -2 11 -9q0 -1 -1 -3q-3 -8 -11 -7.5t-12 0.5q-32 0 -56 -26t-42 -75t-68 -209t-56 -176q52 13 69.5 13t22.5 -3q7 -6 3 -11t-8 -3t-15.5 2t-45.5 -8.5t-40 -24.5q-100 -253 -242 -352q-63 -44 -114 -44q-19 0 -35 6q-47 17 -47 69q0 60 63 132
q124 142 332 209q7 16 33 113t39 140q-89 -135 -185 -226t-175 -91q-71 0 -71 92q0 84 83 254q45 93 53.5 112.5t0.5 18.5q-8 -2 -23 -13q-78 -66 -136 -70q-10 -1 -10 5q2 9 13 11q39 4 116.5 66.5t93.5 92.5q4 12 38 12q26 -2 25 -12q-172 -289 -195 -414q-5 -28 -5 -50
q0 -70 50 -70q41 0 94 42.5t105 108.5q123 160 190 319q18 42 28 50q21 35 84 35zM61 -296q0 -12 3 -22q10 -39 50 -39q59 0 123 79q97 117 159 291q-173 -57 -277 -185q-58 -71 -58 -124z" />
    <glyph glyph-name="Z" unicode="Z" horiz-adv-x="524" 
d="M594 499q-125 39 -246 39q-57 0 -109 -10q-41 -11 -63.5 -34.5t-22.5 -35.5t4 -20t4 -13.5t-4.5 -4.5t-15.5 14.5t-11 33t14 40.5q29 43 79 60t123 17q115 0 283 -43q23 23 48.5 33.5t39.5 10.5t20 -18v-5q0 -35 -32.5 -55.5t-58.5 -20.5q-9 0 -17 2q-24 -13 -42.5 -29.5
l-28.5 -25t-26 -25l-24 -25l-26.5 -29t-25.5 -27.5q-32 -35 -52 -60q87 7 111 7h30t12 -1.5t9 -3.5q7 -6 -21 -16q-43 -12 -173 -21l-47 -50q-100 -102 -180 -148q-7 -7 -7 -14.5t12 -15.5q28 -15 100.5 -57t111.5 -61t93 -34t82 -15t42 2q49 7 79 40q14 16 14 37t-17 48
q-7 13 1 14.5t15 -10.5q20 -32 28 -80q1 -6 1 -13q0 -30 -23 -57q-27 -32 -91.5 -32t-132.5 23t-123 59q-174 112 -236 135q-33 -17 -46 -17q-38 0 -38 32q0 19 21 29q10 1 30.5 -3.5t30.5 -5.5q66 23 222 190q-48 -3 -64 -3t-22.5 0.5t-15 8.5t-8.5 20t20 20.5t27 8.5h12
t13 -10t11 -10q15 -1 30 -1t29 1l39 42l41 44q109 117 168 149z" />
    <glyph glyph-name="bracketleft" unicode="[" horiz-adv-x="447" 
d="M214 3q18 0 7.5 -11.5t-21.5 -12.5q-46 -5 -109 -5q-20 0 -20 14q0 26 130 250t173 284q8 10 13 13t18 3h115q11 0 11 -4t-7.5 -11.5t-17.5 -8.5q-51 -5 -97 -5q-65 -90 -157 -240.5t-142 -265.5h104z" />
    <glyph glyph-name="backslash" unicode="\" horiz-adv-x="320" 
d="M41 531q0 9 17.5 9t25.5 -10q25 -34 122.5 -271t97.5 -273q0 -10 -10 -10q-22 0 -27 19q-31 122 -105.5 289t-119.5 243q-1 2 -1 4z" />
    <glyph glyph-name="bracketright" unicode="]" horiz-adv-x="447" 
d="M380 509q-18 0 -8 12t22 13q46 4 108 4q21 0 21 -14q0 -26 -130 -250t-173 -284q-12 -16 -31 -16h-115q-11 0 -11 4t6.5 11.5t17.5 9.5q56 4 98 4q64 89 156.5 240.5t142.5 265.5h-104z" />
    <glyph glyph-name="asciicircum" unicode="^" horiz-adv-x="585" 
d="M415 593q36 -45 40.5 -49.5t4.5 -9.5q0 -18 -10 -24q-2 -1 -7.5 -1t-15.5 7.5t-42.5 38t-43.5 38.5q-113 -53 -137 -65t-30 -12t-6 9t20 25q4 3 49 31q101 62 123 62q19 -5 55 -50z" />
    <glyph glyph-name="underscore" unicode="_" horiz-adv-x="631" 
d="M0 -66v28h631v-28h-631z" />
    <glyph glyph-name="grave" unicode="`" horiz-adv-x="342" 
d="M240 335q0 -5 -9 -5q-22 0 -134 60q-4 3 -8.5 6t-10.5 8q-16 13 -16 19q0 12 14 17q3 1 7 1q17 0 33 -11t33.5 -24.5l53 -39.5t36.5 -28t1 -3z" />
    <glyph glyph-name="a" unicode="a" horiz-adv-x="457" 
d="M90 -11q-16 0 -34.5 9.5t-31.5 27t-13 37.5t9 38q20 42 64.5 81.5t92.5 67.5t76 35t54.5 7t45.5 -13.5t19 -28.5q0 -5 -1 -6t-5 1q-12 19 -49.5 19t-85 -24.5t-89.5 -61.5q-35 -33 -61.5 -74.5t-26.5 -60.5q0 -37 21 -37t64 34q71 60 97 88q92 99 99 99q12 0 29 -7
t11 -17q-51 -72 -60 -145q-1 -9 -1 -23t8 -23q15 -16 41 -2t72.5 56t74.5 82q4 5 9 2.5t5 -4.5q0 -15 -47.5 -65.5t-72.5 -68.5q-47 -35 -87 -35q-38 0 -51 38q-3 12 -3 27q0 45 19 95q-4 -2 -37 -40t-76.5 -73t-78.5 -35z" />
    <glyph glyph-name="b" unicode="b" horiz-adv-x="390" 
d="M320 270q18 0 43 -18.5t28 -36.5q1 -7 1 -13q0 -45 -44 -96.5t-99 -87.5q-85 -58 -169 -58q-34 0 -54 9q-16 8 40 8q61 0 158 72q94 66 114 158q3 14 -0.5 28.5t-17.5 14.5q-45 0 -118 -63q-31 -26 -63.5 -70t-32.5 -72q0 -4 1.5 -8.5t-3.5 -14.5q-13 -26 -37 3
q-6 15 -6 31q0 46 14 97q-4 -4 -17.5 -24.5t-31.5 -40.5q-9 -10 -14 0q-1 2 -1 5.5t4 8.5q78 97 91 126q18 50 55 130.5t68 128.5q64 101 132 101q12 0 25 -3l20 -7q29 -17 29 -43.5t-16 -57.5q-26 -53 -112 -133.5t-167 -136.5q-20 -36 -31 -94q37 55 96.5 106t114.5 51z
M288 360q119 120 119 178q0 24 -18 24q-14 0 -38 -18q-103 -79 -200 -297q68 45 137 113z" />
    <glyph glyph-name="c" unicode="c" horiz-adv-x="315" 
d="M291 220l5 20q0 20 -15 20q-41 0 -112 -64t-90 -129q-5 -17 -5 -30.5t6 -22.5q12 -18 37 -18t54 7q64 18 106.5 51.5t89.5 93.5q4 5 9.5 3t5.5 -5.5t-3 -10.5q-48 -65 -100.5 -105.5t-121.5 -52.5q-20 -3 -37 -3q-49 0 -74.5 24t-25.5 53t14 63q25 57 107 117t130 60
q12 0 23 -3q28 -10 28 -32q0 -15 -11 -34t-16.5 -13.5t-3.5 11.5z" />
    <glyph glyph-name="d" unicode="d" horiz-adv-x="375" 
d="M177 250q48 28 76 35t55 7t51 -18q137 318 262 318q42 0 57 -24q7 -12 7 -21q0 -25 -21.5 -63.5t-66.5 -84.5t-129 -113.5t-93 -75.5q-32 -74 -50 -143t-18 -103t12 -54q6 -13 18 -15.5t20.5 3t13 9.5t11 7.5t9.5 1.5t-1 -11q-8 -10 -15 -17q-16 -11 -37.5 -11t-28.5 1
q-48 8 -48 70q0 60 16 111q22 70 40 116q-160 -186 -227 -186q-16 0 -34.5 9.5t-31.5 27t-13 37.5t9 38q20 42 64.5 81.5t92.5 67.5zM351 258q-12 6 -42 6t-77.5 -24.5t-89.5 -61.5q-35 -33 -61.5 -74.5t-26.5 -60.5q0 -37 21 -37t64 34q111 91 198 184zM644 510
q13 24 13 40.5t-14.5 16.5t-38.5 -18q-110 -84 -199 -281q65 42 136 112t103 130z" />
    <glyph glyph-name="e" unicode="e" horiz-adv-x="319" 
d="M271 291q54 0 54 -52q0 -27 -15 -44q-25 -37 -81 -64.5t-95 -30.5q-14 -1 -15 8q-1 4 2.5 5t5.5 1q23 2 59 22q67 36 98 74q13 18 13 34.5t-16 16.5q-13 0 -35 -11q-47 -22 -99 -76.5t-68 -106.5q-5 -16 -5 -31.5t13 -29.5t40 -14q30 0 69 16q113 46 174 139q6 8 11 3
q4 -2 4 -5t-3 -7q-30 -50 -76 -89q-89 -76 -173 -76q-72 0 -101 43q-11 17 -11 41t13 57q25 57 107 117t130 60z" />
    <glyph glyph-name="f" unicode="f" horiz-adv-x="286" 
d="M-12.5 -331q-2.5 -2 -20.5 -12t-32.5 -10t-14.5 7q0 3 2 8q18 34 185 461q-31 -4 -46 -4t-23.5 6.5t-8.5 17t22.5 19t34.5 8.5t20 -8t11 -8h3l29 74q18 50 55 130.5t67 128.5q67 101 134 101l24 -3l20 -7q29 -17 29 -46.5t-16 -63.5q-27 -58 -110 -151t-160 -155
q82 7 105.5 7t24.5 -6q0 -4 -19 -9.5t-154 -25.5q-119 -302 -121 -346q-1 -22 -4.5 -31.5l-8.5 -22l-7.5 -19l-5.5 -14.5t-5 -11.5l-4.5 -8t-5 -6.5zM434 482q17 29 17 55t-19 26q-38 0 -108 -98q-41 -58 -73 -115q-64 -120 -82 -175l-8 -16q70 52 149 148t124 175z" />
    <glyph glyph-name="g" unicode="g" horiz-adv-x="416" 
d="M13 -381q-8 0 -20 3q-51 13 -51 53.5t52.5 101.5t221.5 173q72 147 100 233q-56 -68 -80 -94q-90 -100 -145 -100q-16 0 -34.5 9.5t-31.5 27t-13 37.5q0 53 74 119q44 40 92 68t76 35t54 7t46 -14t20 -28q0 -8 -8 -5q-11 19 -48.5 19t-85 -24.5t-85.5 -58t-64.5 -76
t-26.5 -62.5q0 -35 20 -35q28 0 86 46q86 67 165 163q13 19 54 -1q16 -8 13 -14q-13 -29 -47.5 -100.5l-51.5 -107.5q23 12 78.5 60.5t97.5 97.5q22 26 22 8q0 -25 -120 -132q-69 -62 -98 -78q-85 -175 -114 -220q-75 -111 -148 -111zM197 -88q-120 -90 -172 -142.5
t-52 -98.5q0 -14 9 -20t19 -6t29 15t32.5 29.5t23.5 27t22.5 32l19.5 30.5t19.5 34.5l17 32t17 34.5z" />
    <glyph glyph-name="h" unicode="h" horiz-adv-x="456" 
d="M383 585q18 7 31 7q44 0 58 -24q8 -12 8 -21q0 -68 -114 -171q-101 -89 -186 -153q-28 -63 -58 -155q36 44 91 102q111 115 155 115q22 0 23 -22q2 -23 -9.5 -44l-21.5 -39q-47 -78 -47 -139q0 -20 8 -29q14 -16 40 -2t72.5 56t75.5 82q5 5 9.5 2.5t4.5 -5t-2 -5.5
q-15 -27 -54 -68.5t-63 -59.5q-46 -35 -88 -35q-38 0 -51 38q-3 9 -3 21.5t2 26.5q5 42 53 131q10 18 10 25.5t-8 7.5q-16 0 -62 -40q-31 -29 -91.5 -109.5t-68.5 -85.5q-36 -18 -44.5 -18t-9.5 2.5t1 6.5t16 44q47 133 64 176q-33 -42 -82 -95q-8 -8 -8 3.5t9 23.5
t37.5 46.5t40.5 51.5q-9 5 -9.5 14t6 12.5t21.5 -2.5q10 14 18 31q119 256 226 297zM439 510q13 24 13 40.5t-14.5 16.5t-38.5 -18q-110 -84 -199 -281q65 42 136 112t103 130z" />
    <glyph glyph-name="i" unicode="i" 
d="M136 277q25 0 30 -16q2 -9 -2.5 -17.5t-6.5 -13.5t-3 -8q-5 -10 -10 -19q-57 -114 -60 -145q-1 -9 -1 -23t8 -23q14 -16 40 -2t72.5 56t75.5 82q4 5 9 2.5t5 -5t-2 -5.5q-15 -27 -54 -69q-64 -69 -107 -85q-25 -9 -42 -9q-40 0 -53 38q-2 7 -2 17q0 35 32 106
q-5 -11 -39 -50q-9 -10 -14 0q-1 2 -1 5.5t4 8.5q49 61 77 103q-2 5 2 13q20 56 35 59h7zM215 410l-8 -32q0 -9 -13 -29t-20 -20q-43 0 -43 21q0 4 43 37l17 13q16 14 20 14t4 -4z" />
    <glyph glyph-name="j" unicode="j" horiz-adv-x="215" 
d="M-188 -381q-8 0 -20 3q-52 14 -52 54.5t53 101t222 172.5q72 149 106 255l-33 -39.5t-32 -39.5t-13 -1q-2 7 3 14q19 23 51 66.5t39 51.5q20 18 56 -5q13 -9 10 -15l-108 -244q22 12 77 60.5t99 98.5q22 26 22 8q0 -25 -120 -132q-70 -62 -98 -78q-85 -175 -114 -220
q-77 -111 -148 -111zM-4 -88q-120 -90 -172 -142.5t-52 -98.5q0 -14 9 -20t19 -6t29 15t32.5 29.5t23.5 27t22.5 32l19.5 30.5t19.5 34.5l17 32t17 34.5zM272 410l-8 -32q0 -9 -13.5 -29t-20.5 -20q-43 0 -43 21q0 4 43 37l17 13q18 14 21.5 14t3.5 -4z" />
    <glyph glyph-name="k" unicode="k" horiz-adv-x="344" 
d="M86 -8q-36 -18 -46 -18t-10 3t1.5 6.5t14 37.5l31.5 86t33 87q-23 -25 -54 -69q-5 -7 -13.5 -4t5.5 21q33 40 83 115q-15 8 -15 15.5t2 11.5q5 12 18 5q6 -2 8 -2q44 116 110 207q36 51 75 74.5t73 23.5q24 0 46 -11.5t22 -37.5q0 -50 -86 -145q-46 -49 -103 -90
t-101 -60q-39 -86 -69 -180l65 85q-1 9 -1 19q0 30 13 37q7 3 9 -12l4 -14q77 90 111 106q16 8 29 8t23 -7t10 -15q0 -14 -23 -25q-110 -53 -145 -90q24 -84 47 -132t72.5 -108t90.5 -60q34 0 28 30q-4 27 -16.5 46.5t-2.5 19.5q9 -1 19 -9q6 -7 14 -24.5t8 -29.5
q-1 -28 -27 -44t-50 -16q-47 0 -92 46.5t-75 112.5t-42 135q-18 -25 -40 -60q-45 -69 -54 -75zM440 549q0 18 -15 18t-38 -18q-64 -49 -108 -111.5t-87 -155.5q93 43 169 130q25 29 52 74t27 63z" />
    <glyph glyph-name="l" unicode="l" horiz-adv-x="235" 
d="M387 510q12 22 12 34q0 21 -17 21q-14 0 -35 -16q-80 -62 -155 -196q-60 -108 -88 -185q69 47 154.5 153t128.5 189zM89 128q-12 -34 -13 -45.5t-1 -31t10 -35.5q17 -27 57 -4q30 16 76 58.5t71 77.5q2 3 6 3q9 0 5 -13q-15 -27 -55.5 -69t-73.5 -66.5t-66 -24.5
q-76 0 -76 74v6q4 70 71 211.5t121 213.5l31 39q11 13 32 32q40 38 82.5 38t57.5 -26q5 -9 5 -26t-15 -48q-103 -179 -325 -364z" />
    <glyph glyph-name="m" unicode="m" horiz-adv-x="584" 
d="M171 260q0 -7 -11 -30.5t-63 -161.5q36 44 91 102q111 116 153 116q9 0 17.5 -5t8.5 -22.5t-11 -39t-25 -52.5t-19 -39q84 76 127 92.5t57 16.5t14 -10q0 -6 -15 -29t-33 -68t-20 -63t-2 -32t8 -23q15 -16 41 -2t72.5 56t74.5 82q4 5 9.5 2.5t5.5 -5t-2 -5.5
q-15 -27 -54 -69q-64 -69 -107 -85q-47 -16 -68 -4t-26 27t-5 30q0 47 18.5 94t29.5 64q-38 -16 -65 -40q-41 -36 -66 -63l-20 -22q-9 -22 -31.5 -25t-21.5 15q2 19 37 85t35 73.5t-8 7.5q-18 0 -65 -41q-31 -29 -91.5 -109.5t-68.5 -85.5q-36 -18 -45 -18t-9 3t3 9t61 174
q-22 -34 -40 -52q-8 -9 -8 3.5t7 21.5q45 59 66 100q6 35 24 41q11 4 25.5 0t14.5 -14z" />
    <glyph glyph-name="n" unicode="n" horiz-adv-x="409" 
d="M318 284q23 0 23 -24.5t-23 -67.5t-34 -70q-19 -46 -19 -73.5t8 -36.5q15 -16 41 -1.5t72.5 56t74.5 81.5q4 5 9.5 2.5t5.5 -5t-2 -5.5q-15 -27 -54 -69t-75 -67.5t-71 -25.5q-34 1 -48 15.5t-14 36.5t4 42.5t15 47.5q18 43 31.5 67t13.5 31.5t-8 7.5q-16 0 -61 -39
q-31 -29 -91.5 -109.5t-68.5 -85.5q-36 -18 -45 -18t-9 3t2 8.5l19.5 54.5l38 107.5t25 70.5t6 20.5t3.5 14.5t7.5 13.5t14.5 8t23 -2t14 -12.5q0 -7 -11 -30.5t-63 -161.5q36 44 91 101.5t93 87.5q38 27 62 27z" />
    <glyph glyph-name="o" unicode="o" horiz-adv-x="351" 
d="M247 110q18 37 18 57t-4.5 31.5t4 19.5t21.5 6q20 -5 20 -45t-47 -105q1 -27 28 -27t82 58q26 30 32.5 39t11.5 6.5t5 -4.5q0 -10 -36 -52q-57 -70 -101 -70q-29 0 -41 25q-20 -21 -39 -39q-39 -33 -87 -33q-27 0 -45 13q-35 21 -35 75q0 59 40 120q23 36 54 63
q49 43 93 43q11 0 21 -3q30 -10 30 -38q0 -23 -12 -23q-5 2 -5 15q0 18 -20 18q-35 0 -90 -64t-66 -129q-2 -11 -2 -24.5t9 -31t33.5 -17.5t53.5 22t52 56l-3 6q-4 16 4 26t21 6z" />
    <glyph glyph-name="p" unicode="p" horiz-adv-x="370" 
d="M353 208q0 -44 -36 -89.5t-85 -79.5q-45 -29 -91.5 -45t-70 -16t-38.5 5q-22 -51 -61 -171q-4 -13 -4.5 -32.5t-12 -53t-22.5 -53.5q-5 -12 -29 -19.5t-34 -7.5t-10 10q0 4 3 11q46 94 116 276.5t77 202.5l20 58q22 64 24 96q0 12 32 12t32 -23q0 -17 -19.5 -47.5
t-57.5 -121.5q58 88 94 115q48 39 93 39q18 0 36 -6q39 -14 43 -45q1 -8 1 -15zM304 222q0 35 -27 35q-16 0 -52 -19t-72 -57t-55.5 -71.5t-36.5 -69l-20 -41.5q61 0 134 53t109 115q20 31 20 55z" />
    <glyph glyph-name="q" unicode="q" horiz-adv-x="457" 
d="M166 250.5q46 28.5 68.5 35t62 6.5t62.5 -18l26 59q13 15 40 15q33 0 33 -14.5t-34 -45.5q-43 -34 -119 -269q10 -18 24.5 -18t36 11.5t68 53.5t75.5 82q4 5 9 2.5t5 -5t-2 -5.5q-15 -27 -54 -69t-76 -68q-30 -25 -70 -25h-6q12 -53 18 -120t6 -89.5v-30.5
q-7 -67 -34.5 -96.5t-56.5 -29.5q-40 0 -68 41q-16 23 -16 69q0 50 41 162l20.5 56t49.5 127.5t42 107.5q-160 -186 -227 -186q-16 0 -34.5 9.5t-31.5 27.5t-13 38q0 55 67 118q42 40 88 68.5zM351 258q-12 6 -42 6t-77.5 -24.5t-89.5 -61.5q-35 -33 -61.5 -74.5
t-26.5 -60.5q0 -37 21 -37t64 34q111 91 198 184zM296 -31q0 8 -3 8t-6 -9t-19.5 -49.5t-24.5 -62.5q-27 -71 -30.5 -103t-3.5 -45.5t1 -25.5q3 -43 32 -43q73 0 73 144q0 74 -19 186z" />
    <glyph glyph-name="r" unicode="r" horiz-adv-x="315" 
d="M172 -25q-51 0 -51 61.5t88 151.5q7 7 10 11l7 10q14 19 13 24l-3 9q-4 12 -33 17.5t-47 5.5q-90 -127 -104 -145t-19 -15t-5 7t6 12q54 66 93 141q-12 2 -18 8.5t-1 22t30.5 41.5t44.5 35t24 11t11 2q12 0 -8 -36l-39 -62q45 -3 77 -3l35 1q17 0 25 -4.5t4 -15.5
q-7 -19 -35 -51q-60 -70 -90 -149q-7 -19 -7 -33q0 -29 21 -29q7 0 26.5 11t65.5 52.5t74 81.5q4 5 9.5 2.5t5.5 -5t-2 -5.5q-15 -27 -54 -69t-76 -68q-36 -28 -78 -28z" />
    <glyph glyph-name="s" unicode="s" horiz-adv-x="296" 
d="M50 -10q-13 -15 -5.5 -24t17 -9t19.5 3q43 13 83.5 51.5t40.5 78.5q0 22 -49 48q-23 12 -26 14q-27 18 -34 36q-14 -24 -45 -69q-7 -8 -13 -3.5t-1 12.5q41 56 54 94q7 55 80 99t133 44q38 0 53.5 -13.5t15.5 -26.5t-7.5 -30t-30.5 -32q-6 -4 -10 2q-2 6 8.5 16.5
t13.5 28.5t-16 22h-6q-39 0 -97.5 -29t-91.5 -75q-13 -17 -13 -34.5t24 -31.5q10 -6 34 -19t34 -19t24 -19t15 -24q5 -30 -28 -66q-47 -52 -140 -73q-21 -5 -42.5 -5t-29.5 16q-3 4 -3 12.5t16 27.5q15 15 48 29q3 1 5 -1t1 -5t-10.5 -7t-20.5 -19z" />
    <glyph glyph-name="t" unicode="t" 
d="M200 280q77 7 93.5 7t16.5 -5q0 -6 -23.5 -12.5t-114.5 -16.5l-12 -21q-15 -24 -16 -29q-57 -114 -60 -145q-1 -9 -1 -23t8 -23q14 -16 40 -2t72.5 56t75.5 82q4 5 10 2q15 -7 -52 -79q-64 -69 -107 -85q-25 -9 -42 -9q-40 0 -53 38q-2 7 -2 17q0 35 32 106
q-5 -11 -39 -50q-9 -10 -14 0q-1 2 -1 5.5t4 8.5q49 61 77 103q0 1 22 42q-10 -2 -20.5 -2t-15.5 6.5t-1 15.5q7 16 53 18q1 2 4 2l50 93q4 8 9 16.5l7.5 13l5.5 9.5t5 7l4 4q4 6 23.5 6t26.5 -11q3 -4 3 -13.5t-7 -21t-15 -16.5t-11 -11l-48 -84z" />
    <glyph glyph-name="u" unicode="u" horiz-adv-x="445" 
d="M456 71q-39 -42 -70 -65q-40 -29 -87 -29q-9 0 -23.5 8.5t-19.5 24.5t-5 31q0 52 20 103q-3 -2 -27.5 -42.5t-60 -76.5t-71.5 -36q-17 0 -39 9q-40 18 -40 66q0 59 40.5 121.5t51.5 66.5q15 4 28.5 4t27.5 -5.5t-4 -18.5q-69 -63 -98 -140q-11 -30 -11 -50.5t10.5 -26.5
t20.5 -6q24 0 65.5 33.5t114.5 139.5q10 15 35 58.5t30 51.5q16 0 37.5 -7.5t14.5 -19.5q-48 -80 -67.5 -118t-26.5 -89q-1 -9 -1 -23t8 -23q15 -16 41.5 -1.5t72.5 56t74 81.5q4 5 9.5 2.5t5.5 -5t-2 -5.5q-15 -27 -54 -69z" />
    <glyph glyph-name="v" unicode="v" horiz-adv-x="315" 
d="M92 223q0 48 -28 48q-6 0 -12.5 -1.5t-6.5 2.5t6 10q6 5 41 8q42 0 52.5 -12t10.5 -24t-18.5 -59.5t-19.5 -49.5q-30 -90 -27 -113q90 121 118 151q59 65 84 89q58 54 102 73q13 5 23 5q33 0 45 -20q4 -5 4 -9.5t-3 -10.5t-11 0.5t-36 6.5q-46 0 -154 -108
q-65 -67 -119.5 -140t-58.5 -104q0 -8 -15 -8t-22.5 12.5t-7.5 21t1 15t20 73.5t24 89q-12 -20 -33 -49q-7 -8 -11.5 -4.5t-4.5 6.5t2 7q42 57 55 95z" />
    <glyph glyph-name="w" unicode="w" horiz-adv-x="550" 
d="M140.5 187.5q-38.5 -50.5 -53 -89.5t-14.5 -64t21.5 -25t60.5 31q63 52 142 193q4 7 14.5 7t29 -5.5t18.5 -14.5q0 -3 -2 -6q-42 -68 -53 -154q-4 -29 10 -47q13 -18 53 4q62 31 113.5 97t63.5 119q4 11 4 24q0 56 -32 68q-9 4 -20 2.5t-13 1t-1 5.5q2 9 41 9
q65 0 65 -67t-76 -161q-48 -57 -113 -105q-36 -25 -75 -25q-51 0 -63 38q-7 18 -7 57t10 64q-27 -54 -59 -91t-54.5 -50.5t-45.5 -13.5q-40 0 -56 21.5t-16 46.5q0 33 14.5 71.5t29 61t38 54t30.5 34.5q15 4 28.5 4t23.5 -4t10.5 -10t-14 -18t-53 -62.5z" />
    <glyph glyph-name="x" unicode="x" horiz-adv-x="410" 
d="M427 264q0 -12 -23 -12q-52 -20 -95 -57l-72 -56q0 -29 37 -96q17 -33 43.5 -33t62.5 37q17 18 82 101q5 6 9.5 3t4.5 -6t-2 -7q-46 -70 -92 -114q-47 -43 -87 -43q-8 0 -16 2q-50 11 -85 116q-204 -207 -208 -292q0 -12 -7 -12l-5 2q-4 4 -4 10q0 54 53 130.5t106 132.5
t53 59q0 24 -14 48.5t-23 28t-19 -2.5q-16 -10 -32.5 -31.5t-19 -24.5l-6.5 -8t-9 -10.5t-10.5 -5t-5.5 5.5t4 10.5l23.5 31.5l33 43.5t32 33.5t32.5 16t26 -10t16 -20t11.5 -35.5t10.5 -34.5q75 74 150 121q8 3 15 3l15 -3q15 -7 15 -21z" />
    <glyph glyph-name="y" unicode="y" horiz-adv-x="416" 
d="M13 -381q-8 0 -20 3q-51 13 -51 53.5t52.5 101.5t221.5 173q94 192 119 269q-12 -14 -47 -60.5t-62 -79t-65 -61.5t-70 -29t-49.5 14.5t-19.5 30.5t-2 27q0 37 20 74q30 61 81 105q19 18 33.5 18t26.5 -9q13 -14 8 -24q-38 -22 -87 -85q-26 -34 -36 -86q-1 -7 -1 -17.5
t8.5 -17t17.5 -6.5q31 0 65 33t65 69.5t70.5 87.5l52 67t25.5 16q16 0 33 -9t14.5 -14t-51 -113.5l-70.5 -155.5q24 13 81.5 61.5t97.5 98.5q10 12 13 2q1 -2 1 -6.5t-6 -12.5q-31 -41 -99 -103t-108 -84q-85 -175 -114 -220q-75 -111 -148 -111zM197 -88
q-120 -90 -171.5 -142t-51.5 -89.5t26 -37.5q20 0 46 20.5t50 54.5t36.5 58.5t34.5 72t30 63.5z" />
    <glyph glyph-name="z" unicode="z" horiz-adv-x="422" 
d="M302 212q-71 22 -107.5 22t-69.5 -30.5t-60 -68.5q-16 -19 -22 -14t1 16l67 92q19 27 47 42q9 5 17 5t17 -0.5t15.5 -1t27.5 -6l25 -6.5l77 -18q16 15 34.5 22t28.5 7t15 -11q1 -24 -27.5 -41t-41 -17t-17.5 1q-87 -71 -140 -118t-59 -52l30 -15q69 -40 104 -40
q23 0 51 16t80 64.5t80 87.5q5 7 11.5 4.5t6.5 -4.5q0 -14 -61.5 -77t-91.5 -85q-50 -37 -97 -37t-109 39q-23 14 -39 19q-45 -34 -68 -34q-6 0 -11 2q-7 7 -7 19t12 27q19 26 56 26q18 0 39 -7q28 23 31 27q50 43 155 145z" />
    <glyph glyph-name="braceleft" unicode="{" horiz-adv-x="414" 
d="M401 547q10 0 10 -9.5t-10 -9.5q-49 0 -70.5 -5t-35 -17t-25 -29t-18.5 -33.5t-10.5 -27.5t-9.5 -32q-21 -72 -43 -87.5t-70 -23.5q44 -23 44 -65q0 -27 -18 -49q-1 -2 -13 -19.5t-15.5 -23t-12 -21t-11.5 -24.5q-8 -24 -4.5 -55t37.5 -47q25 -12 40 -12t23 2t8 -6
q-2 -9 -11 -11q-15 -1 -28 -1h-23q-29 1 -57 21q-33 23 -33 65q0 45 29 91q12 19 35 51.5t23 54.5q0 32 -66 43q-9 1 -8.5 10.5t9.5 9.5q90 0 113 31q12 16 14 32.5t3 41t3 36.5q6 38 37 72t83 43q22 4 81 4z" />
    <glyph glyph-name="bar" unicode="|" horiz-adv-x="257" 
d="M162 -61h-33v633h33v-633z" />
    <glyph glyph-name="braceright" unicode="}" horiz-adv-x="466" 
d="M130 -50q-42 -11 -70.5 -11t-28.5 7q0 3 4.5 9t11.5 4t22.5 -2t56.5 14t78 52q21 23 34 51t15.5 41t7.5 44q4 31 34.5 62.5t86.5 51.5q-29 6 -40 12t-11 22.5t10 35.5l27 49q38 68 36 98q-2 16 -6 21t-7 8t-10.5 4.5t-11.5 2.5t-14.5 1.5t-16.5 0.5h-22t-2 9t17 10
q60 0 78 -4q46 -9 46 -49q0 -33 -23 -66l-28.5 -36.5t-31.5 -41t-13 -32t14 -22.5q22 -9 72 -9q11 0 3 -9.5t-18 -10.5q-63 -9 -90.5 -32t-34.5 -70q-13 -94 -62.5 -146t-112.5 -69z" />
    <glyph glyph-name="asciitilde" unicode="~" horiz-adv-x="409" 
d="M362 354q-17 -12 -30 -12t-22 3t-28 11.5t-28 11.5q-40 14 -55 6q-33 -8 -50 -35q-2 -3 -5.5 -3t-6.5 2t-3 3.5t10.5 16t22 28.5t29 23t30.5 9l18 -3q8 -3 37 -17q45 -23 63 -23q29 0 41 33q4 6 10.5 3t6.5 -5q0 -23 -40 -52z" />
    <glyph glyph-name="DEL" horiz-adv-x="1500" 
 />
    <glyph glyph-name="uni00A0" unicode="&#xa0;" horiz-adv-x="219" 
 />
    <glyph glyph-name="exclamdown" unicode="&#xa1;" horiz-adv-x="286" 
d="M204 247q-60 -168 -111.5 -288t-57.5 -128t-12.5 -8t-22 11t-15.5 31t24 60q3 6 11 13t11 14q109 209 139 301q4 9 20.5 11.5t15.5 -10.5zM260 392q0 -7 -23 -25.5t-26.5 -19t-6.5 -0.5t-3.5 3.5t-0.5 10.5v11q0 5 10.5 21t15.5 16q34 0 34 -17z" />
    <glyph glyph-name="cent" unicode="&#xa2;" horiz-adv-x="461" 
d="M409 452l-19 -2q-117 -182 -203 -362q9 -1 29.5 -1t52.5 10q92 25 157 81q20 16 20 4.5t-15 -24.5q-86 -75 -189 -91q-24 -5 -41 -5t-26 1q-10 -24 -30 -68q-8 -17 -31 -19q-16 0 -15 11q2 14 38 85q-77 26 -77 115q0 60 54 129.5t129 116.5t136 52q28 51 41 51
q17 0 14 -18q0 -3 -3 -6l-19 -28l12 -2q38 -14 38 -44q0 -8 -3 -18l-7 -14q-6 -13 -14 -24t-14.5 -2t1 24.5t7.5 28.5q0 19 -23 19zM105 155q0 -43 46 -58q87 162 199 343q-99 -33 -174 -128q-43 -55 -65 -123q-6 -19 -6 -34z" />
    <glyph glyph-name="sterling" unicode="&#xa3;" horiz-adv-x="549" 
d="M16 -8q1 27 20 52.5t46 30.5l62 158q-68 -9 -79 -9t-20 7t-9 17.5t22.5 19.5t34.5 9t20 -8.5t10.5 -8.5t32.5 3q74 173 151 261q35 38 81 54q23 7 45.5 7t45.5 -8q61 -25 60 -82q-4 -34 -20 -57q-6 -8 -12.5 -8.5t-8 5.5t3.5 17q10 16 9.5 48.5t-20.5 45t-34 12.5
q-38 0 -77 -26q-69 -48 -178 -264q61 7 95.5 7t34.5 -4q0 -14 -143 -33l-78 -161l19 -5.5t17 -4.5q99 -34 200 -48q23 -3 44 -3q74 0 120.5 36.5t89.5 95.5q4 5 9.5 2.5t5.5 -5t-2 -5.5q-15 -27 -54 -69t-77.5 -69.5t-99.5 -27.5q-28 0 -55.5 5t-119.5 29.5t-107 30.5
l-24 -22q-13 -18 -19.5 -21t-7.5 -2q-6 -4 -9 -4q-12 -7 -18.5 -7t-6.5 9z" />
    <glyph glyph-name="currency" unicode="&#xa4;" horiz-adv-x="1500" 
 />
    <glyph glyph-name="yen" unicode="&#xa5;" horiz-adv-x="509" 
d="M151 47q0 23 79 69q117 69 189 138q-30 53 -74 95l-38 34.5l-31.5 28.5t-9.5 16.5t5 13t14 5.5q13 0 35 -19.5t76.5 -61t68.5 -55.5t17 -17.5t5 -7.5t3 -5.5t1 -4t-1 -5t-4.5 -6.5t-4.5 -5t-7 -6t-22 -20.5t-61 -48.5t-75 -53q-77 -51 -144 -89q-15 -10 -20 0q-1 2 -1 4z
M435 -12q30 0 30 -13q0 -3 -6 -8.5t-27.5 -7.5t-181 -5t-166 -3.5t-8.5 -0.5q-19 0 -19 10q0 15 22 25q5 2 10 2z" />
    <glyph glyph-name="section" unicode="&#xa7;" horiz-adv-x="532" 
d="M400 58q72 54 72 99q0 25 -23 51t-84 44q-12 3 -47 10q-72 15 -106 35q-37 -16 -62 -42t-25 -46.5t7.5 -32t16.5 -19t27 -14.5t30 -11q38 -11 64 -17q94 -23 130 -57zM447 553q132 0 132 -65q0 -7 -4 -25q-6 -12 -12.5 -7.5t-6.5 16.5q0 27 -42 36q-29 6 -49 6
q-48 0 -102.5 -10t-104 -37t-49.5 -67q0 -25 19 -40q29 -21 100 -39l40 -10t44.5 -14.5t49.5 -24.5q53 -29 53 -84q0 -38 -31 -79t-70 -65q18 -26 18 -55q0 -50 -52 -95q-79 -71 -194 -89q-57 -9 -100.5 -9t-77 17t-33.5 51t16 63q5 10 9.5 5t0 -17.5t-4.5 -30t21 -35.5
q23 -19 72 -19q97 0 156.5 19.5t100 53.5t40.5 69q0 51 -104 81q-14 4 -48.5 11.5t-56.5 14t-47 19.5q-50 24 -49.5 89t115.5 121q-32 26 -32 68v7q0 41 38 77q63 61 164 85q31 8 81 8z" />
    <glyph glyph-name="dieresis" unicode="&#xa8;" horiz-adv-x="392" 
d="M246 401l-6 -27q0 -8 -10 -23.5t-16 -15.5q-34 0 -34 17q0 2 28 24q33 27 35.5 27t2.5 -2zM405 401l-6 -27q0 -8 -10.5 -23.5t-16.5 -15.5q-33 0 -33 17q0 2 28 24q33 27 35.5 27t2.5 -2z" />
    <glyph glyph-name="copyright" unicode="&#xa9;" horiz-adv-x="736" 
d="M434 74.5q-71 -39.5 -143.5 -39.5t-114.5 48q-31 34 -31 86t32 114q44 83 121 144t159 61t82 -64q0 -28 -18 -46.5t-39.5 -25.5t-19.5 6q1 10 19 25.5t18 36t-16 30.5t-26.5 10h-11.5q-52 0 -115.5 -57t-100.5 -133q-31 -60 -31 -104q0 -52 27 -78.5t71 -26.5
q55 0 123 36.5t113 94.5q5 7 12 9t11.5 -8t-4.5 -19q-46 -60 -117 -99.5zM680 284q0 85 -53 156q-85 113 -240 113q-103 0 -193 -61q-107 -74 -132 -194q-6 -31 -6 -61q0 -85 53 -156q85 -114 239 -114q103 0 193 62q108 74 133 194q6 31 6 61zM584.5 28.5
q-115.5 -95.5 -261 -95.5t-235.5 95q-75 79 -75 186q0 164 137 278q115 96 260.5 96t235.5 -96q76 -80 76 -190q0 -20 -3 -42q-19 -136 -134.5 -231.5z" />
    <glyph glyph-name="ordfeminine" unicode="&#xaa;" horiz-adv-x="650" 
d="M303.5 502q-43.5 -35 -80.5 -35t-62 33q-15 20 -15 40q0 55 74 120q44 39 92 67q72 42 125 42q32 0 53 -15q17 -10 17 -26q0 -6 -1 -6.5t-5 1.5q-13 19 -50 19t-85 -25t-86 -60t-64.5 -76.5t-26.5 -60.5q0 -36 21 -36t72 41t89 80q92 99 99 99q13 0 29.5 -6.5t10.5 -17.5
q-51 -73 -60 -145q-1 -9 -1 -22.5t8.5 -22.5t18 -9t28.5 10t65.5 52t75.5 82q4 6 9 3.5t5 -4.5q0 -15 -47.5 -65.5t-72.5 -68.5q-47 -35 -86 -35t-52 38q-3 12 -3 27q0 44 19 94q-4 -2 -37 -39.5t-76.5 -72.5z" />
    <glyph glyph-name="guillemotleft" unicode="&#xab;" horiz-adv-x="379" 
d="M380 342q0 -19 -116 -130q43 -83 54 -108.5t2 -32.5q-1 -1 -3 -1q-6 0 -13 12q-31 49 -85 103q-5 5 -5 9t2 6.5t3 4t15 15l56.5 54.5t62.5 58t23.5 17t3.5 -7zM191.5 304l35.5 31.5t19 13.5t3 -7.5t-13 -22.5q-43 -52 -102 -107q52 -104 58.5 -120t-3.5 -21q-1 -1 -3 -1
q-5 0 -12 12q-30 47 -79 96q-11 11 -11 17.5t1.5 8t18 16.5l42.5 40.5z" />
    <glyph glyph-name="logicalnot" unicode="&#xac;" horiz-adv-x="745" 
d="M658 26q-12 3 -13 13q4 139 22 210q-406 -30 -610 -41q-15 -1 -20 11q-1 2 -1 4q0 12 29 14q93 4 299.5 19.5t316.5 18.5q34 0 34 -16q0 -9 -4.5 -27t-6.5 -29.5t-16.5 -73.5t-18.5 -95q-5 -8 -11 -8z" />
    <glyph glyph-name="uni00AD" unicode="&#xad;" horiz-adv-x="377" 
d="M176 194l148 1q55 0 55 -12q0 -20 -213 -25h-5q-18 0 -18 9q0 14 22 24q6 3 11 3z" />
    <glyph glyph-name="registered" unicode="&#xae;" horiz-adv-x="736" 
d="M150 492q115 96 260.5 96t235.5 -96q76 -80 76 -190q0 -20 -3 -42q-19 -136 -134.5 -231.5t-261 -95.5t-235.5 95q-75 79 -75 186q0 164 137 278zM56 237q0 -85 53 -156q85 -114 239 -114q103 0 193 62q108 74 133 194q6 31 6 61q0 85 -53 156q-85 113 -240 113
q-103 0 -193 -61q-107 -74 -132 -194q-6 -31 -6 -61zM523 364q12 22 12 38q0 53 -65 68q-11 5 -26.5 5t-42 -4t-49 -10t-52 -16.5t-31.5 -10.5q-7 -2 -12.5 7.5t-5.5 14.5q0 12 23 18q76 20 121 20q102 0 147 -40q23 -22 23 -52q0 -38 -23 -70t-56 -50q-65 -36 -134 -50
q24 -47 67 -90l24 -23t29.5 -26.5t29 -26t0.5 -8.5q-5 -6 -15 -6q-26 0 -90.5 67t-90.5 106q-26 -4 -31 -2l-8 4q-40 -89 -52 -162q-6 -4 -16 -5t-14 7q-2 29 59.5 185.5t80.5 180.5q6 6 25.5 -1.5t15.5 -16.5l-45 -84t-46 -87q106 2 186 56q42 29 62 64z" />
    <glyph glyph-name="macron" unicode="&#xaf;" horiz-adv-x="377" 
d="M246.5 356q-68.5 -4 -91.5 -4t-23 9q0 15 22 24l10 3l148 1q53 0 55 -12q0 -10 -26 -13.5t-94.5 -7.5z" />
    <glyph glyph-name="degree" unicode="&#xb0;" horiz-adv-x="354" 
d="M265 548q2 10 2 25.5t-17.5 32t-51.5 16.5q-16 0 -25 -14.5t-9 -27.5q0 -25 22 -39.5t44 -14.5q31 0 35 22zM253 495q-13 -3 -35 -3t-54 20q-43 27 -43 71q0 24 18 46.5t37 26t32 3.5q34 0 63.5 -20.5t29.5 -70.5q0 -61 -48 -73z" />
    <glyph glyph-name="plusminus" unicode="&#xb1;" horiz-adv-x="615" 
d="M89 -13l346 1q20 0 27 -6.5t-1 -13.5t-29.5 -9t-181 -5t-166 -3.5t-8.5 -0.5q-19 0 -19 10q0 15 22 25q5 2 10 2zM512 245q30 0 30 -13q0 -3 -5.5 -8t-26.5 -7t-160 -4l-74 -173q-9 -20 -33 -20q-18 0 -4 27l75 165q-150 -4 -157 -4q-23 -1 -23 10q0 14 20 24q7 3 12 3
h163q61 132 69 148t18.5 16t10.5 -11q0 -8 -6 -21l-56 -132h147z" />
    <glyph glyph-name="acute" unicode="&#xb4;" horiz-adv-x="181" 
d="M298 404l19 -6q12 -7 12 -18q0 -13 -7 -16q-16 -13 -81.5 -44t-76 -31.5t-10.5 2.5t2.5 6t13.5 11t25.5 17.5t21 14.5l23.5 18q38 28 49 44q6 2 9 2z" />
    <glyph glyph-name="mu" unicode="&#xb5;" horiz-adv-x="445" 
d="M-73.5 -331q-2.5 -2 -20.5 -12t-32.5 -10t-14.5 7q0 3 2 8q35 69 98 239q66 178 86 223q21 54 28 66.5l15 27.5q16 32 23 34q15 4 28.5 4t27 -5t-3.5 -21.5t-42 -54.5t-39 -75.5t-14 -58t10.5 -26.5t20.5 -6q24 0 65.5 33.5t114.5 139.5q10 15 35 58.5t30 51.5
q16 0 37.5 -7.5t14.5 -19.5q-48 -80 -67.5 -118t-26.5 -89q-1 -9 -1 -23t8 -23q15 -16 41.5 -1.5t72.5 56t74 81.5q4 5 9.5 2.5t5.5 -5t-2 -5.5q-15 -27 -54 -69q-64 -69 -107 -85q-47 -16 -67.5 -4t-25.5 28t-5 31q0 52 20 103q-3 -2 -27.5 -42.5t-60 -76.5t-71.5 -36
q-15 0 -35.5 8t-30.5 21l-30.5 -82.5l-35 -94.5t-14 -59t-4.5 -31.5t-8.5 -22.5t-7 -19t-5.5 -14t-5 -11.5l-4.5 -8t-5 -6.5z" />
    <glyph glyph-name="paragraph" unicode="&#xb6;" horiz-adv-x="529" 
d="M422 538q-104 -212 -138 -290q40 2 77 9q81 221 118 286q-50 5 -58 5q5 -5 1 -10zM279 -72q-15 0 -15 16q0 45 85 279q-16 -1 -35.5 -1t-41.5 2q-71 -171 -93 -292q-4 -4 -8 -4q-15 0 -17 12q-4 42 86 288q-30 3 -66 14q-59 17 -91 54.5t-32 79t29 83.5q64 91 250 110
q31 3 75.5 3t95.5 -14q13 0 23 -5t10 -9t-3 -9.5t-28.5 -56.5l-33 -66.5l-31 -63.5t-33 -71.5t-28.5 -67t-29 -72.5l-23 -67q-23 -68 -36 -138q-4 -4 -10 -4zM89 354q0 -7 1 -14q12 -65 117 -86q28 -4 42 -5q83 229 122 298q-133 -12 -220 -87q-62 -54 -62 -106z" />
    <glyph glyph-name="periodcentered" unicode="&#xb7;" horiz-adv-x="207" 
d="M177 199v-15q0 -8 -10 -23.5t-16 -15.5q-34 0 -34 17q0 4 16 18t21 18q12 9 17.5 9t5.5 -8z" />
    <glyph glyph-name="cedilla" unicode="&#xb8;" horiz-adv-x="467" 
d="M232 -110l-58 -8q-9 0 -9.5 4t8 14.5t26 41.5t22.5 46q4 9 13 9q21 0 22 -6q0 -3 -27.5 -41t-29.5 -41q21 4 45.5 4t46.5 -13q34 -20 34 -56.5t-35 -68.5q-63 -57 -145 -57l-28 2q-46 6 -65 38q-4 9 -4 14.5t6.5 3t11.5 -10.5q20 -30 68 -30q68 0 118 51q27 27 27 54
t-15 38.5t-32 11.5z" />
    <glyph glyph-name="ordmasculine" unicode="&#xba;" horiz-adv-x="577" 
d="M239 544q0 -54 45 -54q23 0 51.5 22t51.5 56q-2 4 -2 6q-4 16 3.5 26.5t21.5 6.5q19 37 19 56.5t-3.5 27.5t-3.5 13q0 11 12 15q6 2 14 2q12 0 16.5 -14t4.5 -26q0 -45 -48 -111q1 -13 8 -20t19.5 -7t31 12t27 20.5t24.5 26.5q18 18 35 42q3 4 7 4q7 0 7 -7
q0 -10 -35 -51q-60 -70 -101 -70q-29 0 -42 25q-19 -21 -45 -43q-33 -29 -80 -29q-27 0 -46 14q-34 21 -34 73q0 24 8 55q19 71 87 132q49 40 92 40q11 0 21 -3q29 -11 29 -40q0 -20 -11 -20q-6 1 -7 5q3 10 -1.5 19t-17.5 9q-35 0 -90 -65q-68 -79 -68 -148z" />
    <glyph glyph-name="guillemotright" unicode="&#xbb;" horiz-adv-x="379" 
d="M142.5 124q-20.5 -19 -36 -32t-18.5 -13t-3 7t8.5 17l19 22.5l17.5 20.5q22 25 70 71q-49 92 -57 113.5t1 25.5q2 1 3 1q6 0 13 -12q27 -44 79 -96q12 -16 11 -19.5t-16 -19.5l-46.5 -43.5zM382 233l-2 -5q0 -4 -3.5 -6.5t-18 -16.5l-40.5 -39q-91 -87 -99 -87q-4 0 -4 7
q0 19 116 131q-48 88 -57 111.5t0 27.5q2 1 3 1q6 0 13 -12q27 -44 84 -101q3 -3 4.5 -5.5t2.5 -3.5t1 -2z" />
    <glyph glyph-name="questiondown" unicode="&#xbf;" horiz-adv-x="409" 
d="M326 358v12q0 7 10 23t16 16q34 0 34 -17q0 -7 -20 -23t-25.5 -19t-8.5 -4q-6 -2 -6 12zM349 -91q-17 -38 -59 -44q-11 -1 -37 -14.5t-61 -20.5l-49 -4q-50 0 -81 24q-40 31 -40 93q0 81 102 165q26 22 59 45t48 35t31.5 31.5t19.5 37.5q2 9 12.5 9t9 -15.5t-19 -38.5
t-32.5 -37l-47 -42q-64 -55 -91 -95.5t-27 -110.5q0 -36 19.5 -60t52.5 -24q56 0 122 64q9 9 34.5 43.5t34.5 35.5q7 0 7 -27.5t-8 -49.5z" />
    <glyph glyph-name="Agrave" unicode="&#xc0;" horiz-adv-x="470" 
d="M704 185q-21 -79 -21 -134.5t27.5 -55.5t80.5 40q61 46 111 114q3 4 9 1.5t1.5 -15t-56.5 -68.5q-29 -31 -67 -61.5t-92 -30.5q-31 0 -45 28t-14 70t18 116q-75 7 -119 13q-140 -172 -231 -238q-79 -59 -164 -59q-54 0 -92.5 27t-38.5 80q0 10 5 18.5t10 4.5t5 -23
q0 -34 26.5 -51t64.5 -17q82 0 161.5 53.5t216.5 209.5q-91 11 -136.5 14.5t-57.5 3.5q-127 0 -157 -83q-4 -11 -4 -20.5t4 -17t1.5 -12t-8.5 -4t-10 6.5q-11 19 -11 37t1 25q8 86 77 105q33 9 76 9q53 0 247 -38q54 62 273 336q3 4 7 6q24 14 52 14q10 0 10 -10
q0 -1 -1 -2.5t-2 -4t-2 -4.5q-96 -159 -149 -358l-3 -7q5 0 13 -0.5t14 -1t26.5 -0.5t43.5 9.5t29 20t12 5.5t1 -13q-11 -20 -39 -29q-24 -10 -47.5 -10h-30.5zM757 489q-125 -171 -201 -264l105 -17q28 109 91 270zM929 658q5 -2 5 -6.5t-9.5 -4.5t-54 20.5t-65.5 31.5
q-49 26 -49 44q0 9 14 14q3 1 7 1q17 0 50.5 -25z" />
    <glyph glyph-name="Aacute" unicode="&#xc1;" horiz-adv-x="849" 
d="M697 -25q-31 0 -45 27.5t-14 70t18 116.5q-35 3 -119 14q-139 -172 -231 -239q-79 -59 -164 -59q-54 0 -92.5 27t-38.5 80q0 10 5 18.5t10 4.5t5 -23q0 -34 26.5 -51t64.5 -17q82 0 161.5 53.5t216.5 209.5q-147 18 -194 18q-127 0 -157 -83q-4 -11 -4 -20.5t4 -17
t1.5 -12t-8.5 -4t-10 6.5q-11 19 -11 37q0 62 22.5 91.5t52.5 37.5q36 10 84 10t242 -38q54 62 273 336q3 4 7 6q24 14 52 14q10 0 10 -10q0 -1 -1 -2.5t-2 -4t-2 -4.5q-96 -159 -149 -358l-3 -7l25 -1q8 -1 28.5 -1t43.5 9.5t29.5 20.5t11.5 5t1 -13q-11 -20 -39 -29
q-24 -10 -47.5 -10h-30.5l-27 1q-19 -87 -19 -138.5t28 -51.5q27 0 84 43t107 111q3 4 9 1.5t3.5 -9.5t-16.5 -25q-42 -56 -103 -106q-44 -35 -98 -35zM752 478q1 2 2.5 5.5t2.5 5.5q-125 -171 -201 -264l105 -17q28 109 91 270zM937.5 689q-65.5 -31 -76.5 -31.5t-11 2.5
t2.5 6t13.5 10q30 19 41.5 29t28.5 21q36 26 49 44q8 2 11.5 2t17.5 -5q11 -7 11 -19q0 -9 -6 -15q-16 -13 -81.5 -44z" />
    <glyph glyph-name="Acircumflex" unicode="&#xc2;" horiz-adv-x="470" 
d="M704 185q-21 -79 -21 -134.5t27.5 -55.5t80.5 40q61 46 111 114q3 4 9 1.5t1.5 -15t-56.5 -68.5q-29 -31 -67 -61.5t-92 -30.5q-31 0 -45 28t-14 70t18 116q-75 7 -119 13q-140 -172 -231 -238q-79 -59 -164 -59q-54 0 -92.5 27t-38.5 80q0 10 5 18.5t10 4.5t5 -23
q0 -34 26.5 -51t64.5 -17q82 0 161.5 53.5t216.5 209.5q-91 11 -136.5 14.5t-57.5 3.5q-127 0 -157 -83q-4 -11 -4 -20.5t4 -17t1.5 -12t-8.5 -4t-10 6.5q-11 19 -11 37t1 25q8 86 77 105q33 9 76 9q53 0 247 -38q54 62 273 336q3 4 7 6q24 14 52 14q10 0 10 -10
q0 -1 -1 -2.5t-2 -4t-2 -4.5q-96 -159 -149 -358l-3 -7q5 0 13 -0.5t14 -1t26.5 -0.5t43.5 9.5t29 20t12 5.5t1 -13q-11 -20 -39 -29q-24 -10 -47.5 -10h-30.5zM757 489q-125 -171 -201 -264l105 -17q28 109 91 270zM930 706.5q26 -31.5 36 -47t10 -22t-4.5 -6.5t-10.5 5
q-76 66 -82 72q-19 -11 -49 -35.5t-41 -32.5q-19 -10 -19 -3q0 10 6 15t34 30q67 61 81 61q13 -5 39 -36.5z" />
    <glyph glyph-name="Atilde" unicode="&#xc3;" horiz-adv-x="470" 
d="M704 185q-21 -79 -21 -134.5t27.5 -55.5t80.5 40q61 46 111 114q3 4 9 1.5t1.5 -15t-56.5 -68.5q-29 -31 -67 -61.5t-92 -30.5q-31 0 -45 28t-14 70t18 116q-75 7 -119 13q-140 -172 -231 -238q-79 -59 -164 -59q-54 0 -92.5 27t-38.5 80q0 10 5 18.5t10 4.5t5 -23
q0 -34 26.5 -51t64.5 -17q82 0 161.5 53.5t216.5 209.5q-91 11 -136.5 14.5t-57.5 3.5q-127 0 -157 -83q-4 -11 -4 -20.5t4 -17t1.5 -12t-8.5 -4t-10 6.5q-11 19 -11 37t1 25q8 86 77 105q33 9 76 9q53 0 247 -38q54 62 273 336q1 2 1 3h1q28 17 57 17q10 0 10 -10
q0 -1 -1 -2.5t-2 -4t-2 -4.5q-96 -159 -149 -358l-3 -7q5 0 13 -0.5t14 -1t26.5 -0.5t43.5 9.5t29 20t12 5.5t1 -13q-11 -20 -39 -29q-24 -10 -47.5 -10h-30.5zM757 489q-125 -171 -201 -264l105 -17q28 109 91 270zM958 658q-18 -12 -31 -12t-22 3t-28.5 11.5t-27.5 11.5
q-44 13 -55 6q-32 -7 -50 -35q-2 -3 -5.5 -3t-6.5 2t-3 3t10 15.5t22 29t29.5 23.5t31.5 9l17 -3q8 -3 37 -18q42 -22 67.5 -22t36.5 33q4 6 10.5 3t6.5 -5q0 -23 -39 -52z" />
    <glyph glyph-name="Adieresis" unicode="&#xc4;" horiz-adv-x="470" 
d="M704 185q-21 -79 -21 -134.5t27.5 -55.5t80.5 40q61 46 111 114q3 4 9 1.5t1.5 -15t-56.5 -68.5q-29 -31 -67 -61.5t-92 -30.5q-31 0 -45 28t-14 70t18 116q-75 7 -119 13q-140 -172 -231 -238q-79 -59 -164 -59q-54 0 -92.5 27t-38.5 80q0 10 5 18.5t10 4.5t5 -23
q0 -34 26.5 -51t64.5 -17q82 0 161.5 53.5t216.5 209.5q-91 11 -136.5 14.5t-57.5 3.5q-127 0 -157 -83q-4 -11 -4 -20.5t4 -17t1.5 -12t-8.5 -4t-10 6.5q-11 19 -11 37t1 25q8 86 77 105q33 9 76 9q53 0 247 -38q54 62 273 336q1 2 1 3h1q28 17 57 17q10 0 10 -10
q0 -1 -1 -2.5t-2 -4t-2 -4.5q-96 -159 -149 -358l-3 -7q5 0 13 -0.5t14 -1t26.5 -0.5t43.5 9.5t29 20t12 5.5t1 -13q-11 -20 -39 -29q-24 -10 -47.5 -10h-30.5zM757 489q-125 -171 -201 -264l105 -17q28 109 91 270zM815 714l-6 -27q0 -8 -10.5 -23.5t-16.5 -15.5
q-33 0 -33 16q0 2 28 24.5t31.5 24.5t5 2t1.5 -1zM973 713l-6 -26q0 -8 -10 -23.5t-16 -15.5q-34 0 -34 16q0 2 30.5 26t33 24t2.5 -1z" />
    <glyph glyph-name="Aring" unicode="&#xc5;" horiz-adv-x="470" 
d="M704 185q-21 -79 -21 -134.5t27.5 -55.5t80.5 40q61 46 111 114q3 4 9 1.5t1.5 -15t-56.5 -68.5q-29 -31 -67 -61.5t-92 -30.5q-31 0 -45 28t-14 70t18 116q-75 7 -119 13q-140 -172 -231 -238q-79 -59 -164 -59q-54 0 -92.5 27t-38.5 80q0 10 5 18.5t10 4.5t5 -23
q0 -34 26.5 -51t64.5 -17q82 0 161.5 53.5t216.5 209.5q-91 11 -136.5 14.5t-57.5 3.5q-127 0 -157 -83q-4 -11 -4 -20.5t4 -17t1.5 -12t-8.5 -4t-10 6.5q-11 19 -11 37t1 25q8 86 77 105q33 9 76 9q53 0 247 -38q54 62 273 336q1 2 1 3h1q28 17 57 17q10 0 10 -10
q0 -1 -1 -2.5t-2 -4t-2 -4.5q-96 -159 -149 -358l-3 -7q5 0 13 -0.5t14 -1t26.5 -0.5t43.5 9.5t29 20t12 5.5t1 -13q-11 -20 -39 -29q-24 -10 -47.5 -10h-30.5zM950 673q0 -37 -44 -69q-22 -14 -42 -14t-37 7q-32 12 -32 42q0 5 1 10q7 31 39 51q18 15 50 15q65 0 65 -42z
M757 489q-125 -171 -201 -264l105 -17q28 109 91 270zM922 652q5 6 5 14q0 37 -35 37q-26 0 -49 -25.5t-21 -47.5q4 -26 37 -26q22 0 39.5 15.5t23.5 32.5z" />
    <glyph glyph-name="AE" unicode="&#xc6;" horiz-adv-x="854" 
d="M737 411q0 67 43 104q-60 -2 -119 -11t-82 -22q-16 -9 -64 -93t-78 -145q84 -1 146 -1t69 -2t4.5 -9.5t-49.5 -10.5h-5l-11 -1q-97 -5 -166 -5q-19 -53 -19 -87t2 -52q5 -35 32.5 -57t75.5 -22q87 0 179.5 40t146.5 103q7 8 11 -3q1 -3 1 -6.5t-3 -6.5
q-52 -63 -149 -111.5t-215 -48.5q-48 0 -79 16q-57 29 -57 106q0 56 28 128q-68 0 -83 -1h-171q-36 -59 -65 -145.5t-33 -142.5q-4 -8 -5 -8q-5 0 -12 9q-10 13 -10 45.5t26.5 110.5t57.5 127h-19q-20 0 -20.5 14.5t20.5 19.5l11 2q12 0 30 3q50 76 154 180q51 51 107 86
t98 35q14 0 35 -6t25 -18q48 13 136.5 13t143.5 -4q5 1 6 1q16 3 25 -5t-2 -21q-1 -1 -16 -12t-24 -20q-41 -39 -41 -69q0 -12 5.5 -21.5t-1 -11t-13.5 6.5q-7 5 -7 29zM190 245l201 -1q11 24 39 72.5t44 87.5q18 45 18 80.5t-22 48.5q-163 -46 -329 -288h49z" />
    <glyph glyph-name="Ccedilla" unicode="&#xc7;" horiz-adv-x="480" 
d="M558 504q0 56 -59 56q-51 0 -132.5 -48t-167.5 -146.5t-120 -206.5q-14 -43 -14 -79.5t21 -63.5q37 -48 121 -49h11q93 0 201 47.5t173 139.5q5 7 10.5 3t5.5 -7t-2 -5q-74 -101 -182 -152t-209 -51h-8h-13q-7 -11 -25.5 -35t-21.5 -29q21 4 46 4t47 -13q34 -20 34 -57
t-35 -68q-63 -57 -145 -57l-28 1q-46 7 -65 39q-4 9 -4 14.5t6.5 3t11.5 -10.5q20 -30 68 -30q67 0 117 51q27 27 27 54t-15 38.5t-33 11.5l-56 -8q-9 0 -9 3q0 6 15.5 27.5t35.5 63.5q-81 14 -120 72q-24 36 -24 79q0 115 79 236q109 166 264 230q60 24 115 24q68 0 97 -32
q19 -22 19 -51q0 -55 -58 -113t-128.5 -92.5t-122.5 -39.5q-21 -2 -20 11q1 18 25 20q80 7 147 48.5t103 110.5q17 27 17 56z" />
    <glyph glyph-name="Egrave" unicode="&#xc8;" horiz-adv-x="525" 
d="M464.5 584.5q6.5 -2.5 12 -5t11.5 -6.5t10 -7t10 -8.5l12 -10.5t15 -14q15 -18 29 -21q2 -2 9 -2.5t12.5 -5.5t17 -33.5t11.5 -47t-4.5 -39t-14.5 -20.5q-16 0 -31 50q-8 30 -13 40q-28 59 -60 86q-29 27 -59 27q-13 0 -26 -5q-48 -20 -59 -78q-5 -24 -5 -52t12 -71.5
t37 -76.5q5 -6 53 -10q25 -3 29 -17.5t-12 -22.5q-5 -7 -43 0q-10 1 -26 5.5t-21 5.5q-54 -1 -122 -24t-125 -70.5t-57 -104.5q0 -43 35 -69.5t112.5 -26.5t173 24t150 52t107.5 79t53 88q0 6 -0.5 10t3 6.5t8.5 -2.5q13 -25 13 -52.5t-30 -64.5q-24 -29 -50 -50
q-76 -61 -214 -92q-103 -23 -171 -23t-115.5 12t-82.5 48t-35 88.5t25.5 89t60.5 56.5q89 50 251 58q-29 33 -53.5 86t-24.5 106q0 36 17.5 66.5t58.5 43.5t61 13t29 -2.5t15.5 -5zM566 633q0 -5 -9 -5t-54.5 20.5t-65.5 31.5q-49 27 -49 44q0 9 14 14q3 1 7 1q18 0 51 -24
q59 -45 82 -61q24 -18 24 -21z" />
    <glyph glyph-name="Eacute" unicode="&#xc9;" horiz-adv-x="525" 
d="M464.5 584.5q6.5 -2.5 12 -5t11.5 -6.5t10 -7t10 -8.5l12 -10.5t15 -14q15 -18 29 -21q2 -2 9 -2.5t12.5 -5.5t17 -33.5t11.5 -47t-4.5 -39t-14.5 -20.5q-16 0 -31 50q-8 30 -13 40q-28 59 -60 86q-29 27 -59 27q-13 0 -26 -5q-48 -20 -59 -78q-5 -24 -5 -52t12 -71.5
t37 -76.5q5 -6 53 -10q25 -3 29 -17.5t-12 -22.5q-5 -7 -43 0q-10 1 -26 5.5t-21 5.5q-54 -1 -122 -24t-125 -70.5t-57 -104.5q0 -43 35 -69.5t112.5 -26.5t173 24t150 52t107.5 79t53 88q0 6 -0.5 10t3 6.5t8.5 -2.5q13 -25 13 -52.5t-30 -64.5q-24 -29 -50 -50
q-76 -61 -214 -92q-103 -23 -171 -23t-115.5 12t-82.5 48t-35 88.5t25.5 89t60.5 56.5q89 50 251 58q-29 33 -53.5 86t-24.5 106q0 36 17.5 66.5t58.5 43.5t61 13t29 -2.5t15.5 -5zM535 674q-65 -31 -75.5 -31.5t-10.5 3t2 6t13 10.5q33 22 42 29.5t26 20.5q38 26 50 43
q8 2 11.5 2t17.5 -5q12 -7 12 -18q0 -9 -7 -16q-16 -13 -81 -44z" />
    <glyph glyph-name="Ecircumflex" unicode="&#xca;" horiz-adv-x="525" 
d="M464.5 584.5q6.5 -2.5 12 -5t11.5 -6.5t10 -7t10 -8.5l12 -10.5t15 -14q15 -18 29 -21q2 -2 9 -2.5t12.5 -5.5t17 -33.5t11.5 -47t-4.5 -39t-14.5 -20.5q-16 0 -31 50q-8 30 -13 40q-28 59 -60 86q-29 27 -59 27q-13 0 -26 -5q-48 -20 -59 -78q-5 -24 -5 -52t12 -71.5
t37 -76.5q5 -6 53 -10q25 -3 29 -17.5t-12 -22.5q-5 -7 -43 0q-10 1 -26 5.5t-21 5.5q-54 -1 -122 -24t-125 -70.5t-57 -104.5q0 -43 35 -69.5t112.5 -26.5t173 24t150 52t107.5 79t53 88q0 6 -0.5 10t3 6.5t8.5 -2.5q13 -25 13 -52.5t-30 -64.5q-24 -29 -50 -50
q-76 -61 -214 -92q-103 -23 -171 -23t-115.5 12t-82.5 48t-35 88.5t25.5 89t60.5 56.5q89 50 251 58q-29 33 -53.5 86t-24.5 106q0 36 17.5 66.5t58.5 43.5t61 13t29 -2.5t15.5 -5zM590 642q4 -7 4 -13.5t-4 -6.5t-10 5.5t-42 36t-41 35.5q-17 -10 -46 -33q-62 -51 -63 -38
q0 9 7.5 15.5l33.5 30.5q67 60 81 60q25 -9 80 -92z" />
    <glyph glyph-name="Edieresis" unicode="&#xcb;" horiz-adv-x="525" 
d="M464.5 584.5q6.5 -2.5 12 -5t11.5 -6.5t10 -7t10 -8.5l12 -10.5t15 -14q15 -18 29 -21q2 -2 9 -2.5t12.5 -5.5t17 -33.5t11.5 -47t-4.5 -39t-14.5 -20.5q-16 0 -31 50q-8 30 -13 40q-28 59 -60 86q-29 27 -59 27q-13 0 -26 -5q-48 -20 -59 -78q-5 -24 -5 -52t12 -71.5
t37 -76.5q5 -6 53 -10q25 -3 29 -17.5t-12 -22.5q-5 -7 -43 0q-10 1 -26 5.5t-21 5.5q-54 -1 -122 -24t-125 -70.5t-57 -104.5q0 -43 35 -69.5t112.5 -26.5t173 24t150 52t107.5 79t53 88q0 6 -0.5 10t3 6.5t8.5 -2.5q13 -25 13 -52.5t-30 -64.5q-24 -29 -50 -50
q-76 -61 -214 -92q-103 -23 -171 -23t-115.5 12t-82.5 48t-35 88.5t25.5 89t60.5 56.5q89 50 251 58q-29 33 -53.5 86t-24.5 106q0 36 17.5 66.5t58.5 43.5t61 13t29 -2.5t15.5 -5zM460 701l-6 -27q0 -8 -10.5 -23.5t-16.5 -15.5q-33 0 -33 17q0 2 28 24q33 27 35.5 27
t2.5 -2zM586 635q-34 0 -34 17q0 2 30.5 26t33 24t2.5 -2t-2 -10l-4 -16q0 -8 -10 -23.5t-16 -15.5z" />
    <glyph glyph-name="Igrave" unicode="&#xcc;" horiz-adv-x="312" 
d="M575 510q-40 14 -115 14q-2 -8 -32 -96q-4 -14 -18 -54.5t-22 -61l-22 -57t-25 -59.5l-25 -52t-28.5 -51.5t-34 -46t-32.5 -33.5h66t86 2.5t40.5 -0.5t0.5 -7.5t-7 -8.5t-11.5 -8t-144.5 -8t-185.5 -4t-53.5 7q-4 5 -4 12.5t6 23.5q7 16 27.5 20.5t28.5 -3.5
q36 -27 69 -27q58 0 101 56q81 108 170 455q-92 -8 -153 -37.5t-61 -77.5q0 -16 8.5 -28t16 -17t20.5 -12t18 -10.5t4 -6.5t-9 -1q-24 5 -51 29t-28 55q-3 11 -3 19q0 43 35 74q68 58 214 58q0 4 3 10q1 7 15.5 10t27.5 0.5t12 -10.5q-4 -8 -5 -13q73 -5 110 -28
q23 -14 23 -27q0 -6 -7.5 -6t-24.5 6zM535.5 637q-9.5 0 -54 20.5t-65.5 32.5q-49 26 -49 43q0 9 14 14q3 1 5.5 1h5t6 -1t5.5 -1.5t5.5 -2.5t5.5 -3t6.5 -3.5t5.5 -3.5q11 -7 28.5 -21t53 -40t36.5 -28t1 -4.5t-9.5 -2.5z" />
    <glyph glyph-name="Iacute" unicode="&#xcd;" horiz-adv-x="312" 
d="M575 510q-40 14 -115 14q-2 -8 -32 -96q-4 -14 -18 -54.5t-22 -61l-22 -57t-25 -59.5l-25 -52t-28.5 -51.5t-34 -46t-32.5 -33.5h66t86 2.5t40.5 -0.5t0.5 -7.5t-7 -8.5t-11.5 -8t-144.5 -8t-185.5 -4t-53.5 7q-4 5 -4 12.5t6 23.5q7 16 27.5 20.5t28.5 -3.5
q36 -27 69 -27q58 0 101 56q81 108 170 455q-92 -8 -153 -37.5t-61 -77.5q0 -16 8.5 -28t16 -17t20.5 -12t18 -10.5t4 -6.5t-9 -1q-24 5 -51 29t-28 55q-3 11 -3 19q0 43 35 74q68 58 214 58q0 4 3 10q1 7 15.5 10t27.5 0.5t12 -10.5q-4 -8 -5 -13q73 -5 110 -28
q23 -14 23 -27q0 -6 -7.5 -6t-24.5 6zM520 669q-65 -31 -75.5 -31.5t-10.5 3t2 6t13 9.5q33 23 42 30.5t27 19.5q37 27 49 44q8 2 11.5 2t17.5 -5q12 -7 12 -18q0 -9 -7 -16q-16 -13 -81 -44z" />
    <glyph glyph-name="Icircumflex" unicode="&#xce;" horiz-adv-x="312" 
d="M575 510q-40 14 -115 14q-2 -8 -32 -96q-4 -14 -18 -54.5t-22 -61l-22 -57t-25 -59.5l-25 -52t-28.5 -51.5t-34 -46t-32.5 -33.5h66t86 2.5t40.5 -0.5t0.5 -7.5t-7 -8.5t-11.5 -8t-144.5 -8t-185.5 -4t-53.5 7q-4 5 -4 12.5t6 23.5q7 16 27.5 20.5t28.5 -3.5
q36 -27 69 -27q58 0 101 56q81 108 170 455q-92 -8 -153 -37.5t-61 -77.5q0 -16 8.5 -28t16 -17t20.5 -12t18 -10.5t4 -6.5t-9 -1q-24 5 -51 29t-28 55q-3 11 -3 19q0 43 35 74q68 58 214 58q0 4 3 10q1 7 15.5 10t27.5 0.5t12 -10.5q-4 -8 -5 -13q73 -5 110 -28
q23 -14 23 -27q0 -6 -7.5 -6t-24.5 6zM515 701.5q26 -31.5 36 -47t10 -22t-4.5 -6.5t-10.5 4q-6 7 -41 37t-41 36q-19 -11 -49 -35.5t-41 -32.5q-20 -11 -20 -2t6.5 14t33.5 30q68 61 82 61q13 -5 39 -36.5z" />
    <glyph glyph-name="Idieresis" unicode="&#xcf;" horiz-adv-x="312" 
d="M575 510q-40 14 -115 14q-2 -8 -32 -96q-4 -14 -18 -54.5t-22 -61l-22 -57t-25 -59.5l-25 -52t-28.5 -51.5t-34 -46t-32.5 -33.5h66t86 2.5t40.5 -0.5t0.5 -7.5t-7 -8.5t-11.5 -8t-144.5 -8t-185.5 -4t-53.5 7q-4 5 -4 12.5t6 23.5q7 16 27.5 20.5t28.5 -3.5
q36 -27 69 -27q58 0 101 56q81 108 170 455q-92 -8 -153 -37.5t-61 -77.5q0 -16 8.5 -28t16 -17t20.5 -12t18 -10.5t4 -6.5t-9 -1q-24 5 -51 29t-28 55q-3 11 -3 19q0 43 35 74q68 58 214 58q0 4 3 10q1 7 15.5 10t27.5 0.5t12 -10.5q-4 -8 -5 -13q73 -5 110 -28
q23 -14 23 -27q0 -6 -7.5 -6t-24.5 6zM382 679.5l30.5 24t12.5 7.5t-0.5 -11.5t-3.5 -18t-10 -22t-16 -15.5q-34 0 -34 16q0 3 21 19.5zM586 709l-6 -26q0 -8 -10.5 -23.5t-15.5 -15.5q-34 0 -34 16q0 3 20 20q39 31 42.5 31t3.5 -2z" />
    <glyph glyph-name="Eth" unicode="&#xd0;" horiz-adv-x="567" 
d="M32 20q-18 21 -18 34t5 17.5t11 -3.5l11 -14l51 146q-36 -2 -46 -2q-24 -2 -23 11t20 23q7 3 12 3h51q80 205 106 238q8 4 21.5 2.5t25 -9t7.5 -14.5l-58.5 -111.5t-55.5 -105.5h52q53 0 53 -12q2 -15 -52 -15l-69 -5q-41 -91 -61 -176q46 -28 99 -28t100 12.5t98 43.5
t90 72t63 95.5t24 111.5q0 124 -115 165q-48 17 -121.5 17t-183.5 -32q-10 -3 -22 4.5t-12.5 17.5t15.5 18q39 16 129 21q22 2 44 2q89 0 163.5 -28t112 -81.5t37.5 -124.5t-38 -137q-71 -124 -232 -176q-70 -23 -137 -23t-120 21v-4q-7 -6 -21.5 -7.5t-17.5 7.5q-1 7 2 26z
" />
    <glyph glyph-name="Ntilde" unicode="&#xd1;" horiz-adv-x="520" 
d="M826 463q9 0 11 -10q0 -8 -7 -13.5t-15 -6.5q-24 0 -64 35q1 -15 1 -31q0 -80 -32 -195t-96.5 -212t-131.5 -97q-56 0 -96.5 44t-61.5 115q-38 135 -38 291q-69 -181 -132 -298q-128 -226 -249 -226q-20 0 -35 4q-41 14 -51 56q-1 5 -1 9t1 10t6 3.5t10 -18.5
q7 -27 35 -34q17 -5 33 -5t31 5q96 30 190 201q65 125 132 352q-55 -50 -130 -55q-10 -1 -10.5 7t11.5 10q43 4 89 45t69 94q1 4 11 9t22 5t23 -3t8 -12.5t-8 -51.5t-5 -78q0 -181 55 -336q39 -109 99 -109t112 105t71.5 208t19.5 144.5t-4 62t-27 87.5q-1 3 7 10.5t12 8.5
q19 0 35.5 -23t33.5 -54q29 -56 54 -56zM437 644q-3 0 -6.5 2t-3.5 3t9.5 15t22.5 29t30.5 24t28.5 9t18 -3t37 -18q45 -23 64 -23q30 0 42 33q3 7 10 4t7 -5q0 -23 -40 -52q-17 -12 -35 -12l-17 3q-9 3 -28.5 11.5t-27.5 11.5q-43 13 -56 6q-30 -7 -50 -35q-2 -3 -5 -3z
" />
    <glyph glyph-name="Ograve" unicode="&#xd2;" horiz-adv-x="614" 
d="M717 337q0 -149 -103 -267q-136 -154 -307 -154q-43 0 -87 21q-87 44 -113 153q-8 38 -8 74q0 75 37 147q64 123 205 156q26 5 48 5q50 0 73 -23.5t13 -23.5l-16 8q-21 8 -36.5 8t-26.5 -3q-62 -15 -114 -56q-93 -72 -125 -190q-13 -46 -13 -95t29 -94q42 -65 129 -65
q33 0 72 9q67 15 136 83.5t113 161.5t44 174q0 106 -59 154q-57 46 -143 46q-13 0 -28 -1q-111 -7 -205 -75q-69 -48 -116 -119t-52 -141q-1 -14 -10 -8q-8 6 -8 26q0 72 42.5 141.5t113.5 120.5q50 36 114.5 57.5t123.5 22.5q123 0 200 -67t77 -186zM570.5 632
q-9.5 0 -54 20.5t-65.5 31.5q-49 27 -49 44q0 9 14 14q3 1 5.5 1h5t6 -1t5.5 -1.5t5.5 -2.5t5.5 -3t6.5 -3.5t6.5 -3.5q10 -7 27.5 -21t53 -40t36.5 -28t1 -4.5t-9.5 -2.5z" />
    <glyph glyph-name="Oacute" unicode="&#xd3;" horiz-adv-x="614" 
d="M717 337q0 -149 -103 -267q-136 -154 -307 -154q-43 0 -87 21q-87 44 -113 153q-8 38 -8 74q0 75 37 147q64 123 205 156q26 5 48 5q50 0 73 -23.5t13 -23.5l-16 8q-21 8 -36.5 8t-26.5 -3q-62 -15 -114 -56q-93 -72 -125 -190q-13 -46 -13 -95t29 -94q42 -65 129 -65
q33 0 72 9q67 15 136 83.5t113 161.5t44 174q0 106 -59 154q-57 46 -143 46q-13 0 -28 -1q-111 -7 -205 -75q-69 -48 -116 -119t-52 -141q-1 -14 -10 -8q-8 6 -8 26q0 72 42.5 141.5t113.5 120.5q50 36 114.5 57.5t123.5 22.5q123 0 200 -67t77 -186zM507 651
q-65 -31 -75.5 -31.5t-10.5 3t2 6t13.5 10.5l25.5 17t19 13.5t34 26.5t40 37q6 2 9 2l20 -6q11 -7 11 -18t-5 -14l-1 -2q-17 -13 -82 -44z" />
    <glyph glyph-name="Ocircumflex" unicode="&#xd4;" horiz-adv-x="614" 
d="M717 337q0 -149 -103 -267q-136 -154 -307 -154q-43 0 -87 21q-87 44 -113 153q-8 38 -8 74q0 75 37 147q64 123 205 156q26 5 48 5q50 0 73 -23.5t13 -23.5l-16 8q-21 8 -36.5 8t-26.5 -3q-62 -15 -114 -56q-93 -72 -125 -190q-13 -46 -13 -95t29 -94q42 -65 129 -65
q33 0 72 9q67 15 136 83.5t113 161.5t44 174q0 106 -59 154q-57 46 -143 46q-13 0 -28 -1q-111 -7 -205 -75q-69 -48 -116 -119t-52 -141q-1 -14 -10 -8q-8 6 -8 26q0 72 42.5 141.5t113.5 120.5q50 36 114.5 57.5t123.5 22.5q123 0 200 -67t77 -186zM570 695.5
q26 -31.5 35.5 -47.5t9.5 -22.5t-4 -6.5t-10 5q-5 6 -40.5 36.5t-41.5 36.5q-18 -11 -47.5 -35t-46 -34.5t-16.5 -1.5t6.5 14t34.5 30q64 60 81 62q13 -5 39 -36.5z" />
    <glyph glyph-name="Otilde" unicode="&#xd5;" horiz-adv-x="614" 
d="M717 337q0 -149 -103 -267q-136 -154 -307 -154q-43 0 -87 21q-87 44 -113 153q-8 38 -8 74q0 75 37 147q64 123 205 156q26 5 48 5q50 0 73 -23.5t13 -23.5l-16 8q-21 8 -36.5 8t-26.5 -3q-62 -15 -114 -56q-93 -72 -125 -190q-13 -46 -13 -95t29 -94q42 -65 129 -65
q33 0 72 9q67 15 136 83.5t113 161.5t44 174q0 106 -59 154q-57 46 -143 46q-13 0 -28 -1q-111 -7 -205 -75q-69 -48 -116 -119t-52 -141q-1 -14 -10 -8q-8 6 -8 26q0 72 42.5 141.5t113.5 120.5q50 36 114.5 57.5t123.5 22.5q123 0 200 -67t77 -186zM634 662
q-18 -12 -31 -12t-21.5 3t-28.5 11.5l-27 11.5q-43 14 -56 6q-32 -8 -50 -35q-2 -3 -5.5 -3t-6.5 2t-3 3t9.5 15t22.5 29t30.5 24t28.5 9t18.5 -3t37.5 -18q44 -23 63 -23q29 0 41 33q4 8 11 4.5t7 -5.5q0 -22 -40 -52z" />
    <glyph glyph-name="Odieresis" unicode="&#xd6;" horiz-adv-x="614" 
d="M717 337q0 -149 -103 -267q-136 -154 -307 -154q-43 0 -87 21q-87 44 -113 153q-8 38 -8 74q0 75 37 147q64 123 205 156q26 5 48 5q50 0 73 -23.5t13 -23.5l-16 8q-21 8 -36.5 8t-26.5 -3q-62 -15 -114 -56q-93 -72 -125 -190q-13 -46 -13 -95t29 -94q42 -65 129 -65
q33 0 72 9q67 15 136 83.5t113 161.5t44 174q0 106 -59 154q-57 46 -143 46q-13 0 -28 -1q-111 -7 -205 -75q-69 -48 -116 -119t-52 -141q-1 -14 -10 -8q-8 6 -8 26q0 72 42.5 141.5t113.5 120.5q50 36 114.5 57.5t123.5 22.5q123 0 200 -67t77 -186zM440 647q-34 0 -34 16
q0 2 30.5 26t32.5 24q5 0 1 -12l-4 -16q0 -8 -10 -23t-16 -15zM631 712l-6 -27q0 -8 -10.5 -23t-15.5 -15q-34 0 -34 16q0 2 28 25q33 26 35.5 26t2.5 -2z" />
    <glyph glyph-name="multiply" unicode="&#xd7;" horiz-adv-x="467" 
d="M56 -2q-12 -13 -23.5 -13t-11.5 9q0 5 4 11q31 49 205 195q-62 73 -145 148q-14 12 0 20q6 3 12.5 3t14.5 -4q37 -21 142 -147q145 124 185 145q6 3 13.5 3t14.5 -6t7 -11.5t-8 -10.5q-101 -64 -195 -140q122 -145 145 -195q6 -13 -14 -17q-6 -1 -15.5 -1t-16.5 12
q-69 115 -123 181q-93 -77 -191 -182z" />
    <glyph glyph-name="Oslash" unicode="&#xd8;" horiz-adv-x="614" 
d="M171 -18l-17 -28q-13 -19 -32 -19q-10 0 -7 10q9 20 30 53q-65 48 -65 146q0 49 20 99q-39 16 -39 71.5t37 104.5q48 64 116 91q75 33 160 33q74 0 140 -31q12 16 16 18q11 10 20 10t13 -1q16 -2 6 -12l-28 -33l1 -1q79 -63 79 -173q0 -61 -29 -126
q-45 -105 -133.5 -168.5t-189.5 -63.5q-54 0 -98 20zM589 360q0 81 -55 118l-4 2q-76 -93 -178.5 -231.5t-169.5 -246.5q26 -10 64 -10q90 0 179.5 67.5t130.5 163.5q33 75 33 137zM157 17q78 121 279 395q-15 8 -39 8q-57 0 -119 -34q-89 -50 -134 -133q2 -1 11.5 -2
t3.5 -9q-3 -4 -23 -4q-26 -51 -26 -109q0 -77 47 -112zM451 432l50 66q-48 23 -112 23q-48 0 -95 -14q-124 -37 -170 -112q-25 -41 -25 -76.5t12 -49.5q52 113 172 160q61 25 106 25t62 -22z" />
    <glyph glyph-name="Ugrave" unicode="&#xd9;" horiz-adv-x="474" 
d="M622 570q-14 0 -37 -25q-91 -101 -134 -322q56 53 111.5 136t73.5 151q5 18 5 33t-6.5 21t-12.5 6zM114 -32q-71 0 -71 88t83 258q45 93 51.5 108.5t6.5 19.5t-5 4t-22 -14q-78 -66 -136 -70q-10 -1 -10 5q0 10 13 11q39 4 116.5 66.5t93.5 92.5q1 3 9 8t25 5
q34 0 29 -13q-172 -290 -195 -414q-5 -28 -5 -50q0 -70 50 -70q82 0 242 155q67 436 213 436q72 0 72 -66q0 -16 -7 -34q-16 -53 -52.5 -108.5t-102 -133t-77.5 -93.5q-14 -71 -18 -179v-11q0 -95 33 -135q14 -16 26.5 -16t22.5 12q5 8 12.5 15.5t12 5t1.5 -12.5
q-10 -16 -13 -19q-16 -20 -56 -20h-7q-58 1 -74 98q-4 31 -4 83.5t13 141.5q-160 -154 -270 -154zM486 600q0 -5 -9 -5q-23 0 -133 60q-36 21 -36 37q0 9 14 13q4 1 8 1q18 0 50 -23q59 -45 82 -61q24 -19 24 -22z" />
    <glyph glyph-name="Uacute" unicode="&#xda;" horiz-adv-x="474" 
d="M622 570q-14 0 -37 -25q-91 -101 -134 -322q56 53 111.5 136t73.5 151q5 18 5 33t-6.5 21t-12.5 6zM114 -32q-71 0 -71 88t83 258q45 93 51.5 108.5t6.5 19.5t-5 4t-22 -14q-78 -66 -136 -70q-10 -1 -10 5q0 10 13 11q39 4 116.5 66.5t93.5 92.5q1 3 9 8t25 5
q34 0 29 -13q-172 -290 -195 -414q-5 -28 -5 -50q0 -70 50 -70q82 0 242 155q67 436 213 436q72 0 72 -66q0 -16 -7 -34q-16 -53 -52.5 -108.5t-102 -133t-77.5 -93.5q-14 -71 -18 -179v-11q0 -95 33 -135q14 -16 26.5 -16t22.5 12q5 8 12.5 15.5t12 5t1.5 -12.5
q-10 -16 -13 -19q-16 -20 -56 -20h-7q-58 1 -74 98q-4 31 -4 83.5t13 141.5q-160 -154 -270 -154zM452 626q-65 -31 -75.5 -31.5t-10.5 3t2 6t13.5 10.5l25.5 17t19 13.5t34 26.5t40 37q6 2 9 2l20 -6q11 -7 11 -18t-5 -14l-1 -2q-17 -13 -82 -44z" />
    <glyph glyph-name="Ucircumflex" unicode="&#xdb;" horiz-adv-x="474" 
d="M622 570q-14 0 -37 -25q-91 -101 -134 -322q56 53 111.5 136t73.5 151q5 18 5 33t-6.5 21t-12.5 6zM114 -32q-71 0 -71 88t83 258q45 93 51.5 108.5t6.5 19.5t-5 4t-22 -14q-78 -66 -136 -70q-10 -1 -10 5q0 10 13 11q39 4 116.5 66.5t93.5 92.5q1 3 9 8t25 5
q34 0 29 -13q-172 -290 -195 -414q-5 -28 -5 -50q0 -70 50 -70q82 0 242 155q67 436 213 436q72 0 72 -66q0 -16 -7 -34q-16 -53 -52.5 -108.5t-102 -133t-77.5 -93.5q-14 -71 -18 -179v-11q0 -95 33 -135q14 -16 26.5 -16t22.5 12q5 8 12.5 15.5t12 5t1.5 -12.5
q-10 -16 -13 -19q-16 -20 -56 -20h-7q-58 1 -74 98q-4 31 -4 83.5t13 141.5q-160 -154 -270 -154zM479.5 679q25.5 -31 35.5 -47t10 -22.5t-4 -6.5t-10 5q-5 6 -40.5 36t-41.5 36q-18 -11 -47.5 -34.5t-46 -34t-16.5 -1.5t6 14t34 30q66 61 82 61q13 -5 38.5 -36z" />
    <glyph glyph-name="Udieresis" unicode="&#xdc;" horiz-adv-x="474" 
d="M622 570q-14 0 -37 -25q-91 -101 -134 -322q56 53 111.5 136t73.5 151q5 18 5 33t-6.5 21t-12.5 6zM114 -32q-71 0 -71 88t83 258q45 93 51.5 108.5t6.5 19.5t-5 4t-22 -14q-78 -66 -136 -70q-10 -1 -10 5q0 10 13 11q39 4 116.5 66.5t93.5 92.5q1 3 9 8t25 5
q34 0 29 -13q-172 -290 -195 -414q-5 -28 -5 -50q0 -70 50 -70q82 0 242 155q67 436 213 436q72 0 72 -66q0 -16 -7 -34q-16 -53 -52.5 -108.5t-102 -133t-77.5 -93.5q-14 -71 -18 -179v-11q0 -95 33 -135q14 -16 26.5 -16t22.5 12q5 8 12.5 15.5t12 5t1.5 -12.5
q-10 -16 -13 -19q-16 -20 -56 -20h-7q-58 1 -74 98q-4 31 -4 83.5t13 141.5q-160 -154 -270 -154zM481 711l-6 -27q0 -8 -10 -23.5t-16 -15.5q-34 0 -34 17q0 2 28 24q33 27 35.5 27t2.5 -2zM640 711l-6 -27q0 -8 -10.5 -23.5t-16.5 -15.5q-33 0 -33 17q0 2 28 24
q33 27 35.5 27t2.5 -2z" />
    <glyph glyph-name="Yacute" unicode="&#xdd;" horiz-adv-x="526" 
d="M114 -32q-71 0 -71 92q0 84 83 254q45 93 53.5 112.5t0.5 18.5q-8 -2 -23 -13q-78 -66 -136 -70q-10 -1 -10 5q2 9 13 11q39 4 116.5 66.5t93.5 92.5q4 12 38 12q26 -2 25 -12q-172 -289 -195 -414q-5 -28 -5 -50q0 -70 50 -70q41 0 94 42.5t105 108.5q123 160 190 319
q18 42 28 50q17 28 64 34q24 3 44.5 -1t21.5 -4q11 -2 11 -9q0 -1 -1 -3q-3 -8 -11 -7.5t-12 0.5q-32 0 -56 -26t-42 -75t-68 -209t-56 -176q52 13 69.5 13t22.5 -3q7 -6 3 -11t-8 -3t-15.5 2t-45.5 -8.5t-40 -24.5q-100 -253 -242 -352q-63 -44 -114 -44q-19 0 -35 6
q-47 17 -47 69q0 60 63 132q124 142 332 209q7 16 33 113t39 140q-89 -135 -185 -226t-175 -91zM61 -296q0 -12 3 -22q10 -39 50 -39q59 0 123 79q97 117 159 291q-173 -57 -277 -185q-58 -71 -58 -124zM519 648q-66 -31 -77 -32t-11 2.5t2.5 6.5t14.5 11q31 20 40 27l38 29
t40 37q3 1 9.5 1t19.5 -5q12 -7 12 -18q0 -8 -11 -18t-77 -41z" />
    <glyph glyph-name="Thorn" unicode="&#xde;" horiz-adv-x="454" 
d="M497.5 241.5q-29.5 -41.5 -81.5 -66.5t-113.5 -36.5t-92 -11.5t-48 6t-11.5 15q3 5 14.5 2.5t31.5 -2.5t35 1q100 11 178 77t78 124q0 73 -117 95q-34 6 -65.5 6t-58.5 -3q-150 -302 -178 -454q-9 -8 -22.5 -8t-16.5 8q-2 27 47.5 166t107.5 277q-82 -22 -160 -63
q-13 -7 -13 8q0 29 53 56.5t136 35.5q46 108 55 118q5 3 10.5 3t14 -1.5t20.5 -9.5t9 -15l-46 -91q74 0 137 -18t94.5 -55.5t31.5 -79.5t-29.5 -83.5z" />
    <glyph glyph-name="germandbls" unicode="&#xdf;" horiz-adv-x="524" 
d="M109 263q21 0 57 6h9l21 58q17 46 42.5 90t70.5 84q46 41 100.5 41t79.5 -32q16 -18 16 -47q0 -35 -23 -66q-29 -43 -97 -82q-44 -24 -51 -34t-12 -19q-8 -18 18 -39q103 -81 125 -114q14 -25 14 -48.5t-20 -45.5q-35 -40 -87 -62q-34 -15 -96 -15q-72 0 -85 25q-4 8 4 8
q5 0 11 -4q13 -12 28.5 -12t36.5 2t56 14t61.5 41.5t26.5 60.5t-21.5 56.5t-48 43.5t-48 43t-21.5 48q0 18 42 37.5t60 29t45.5 30.5t43.5 46t16 43.5t-7 31.5q-16 33 -62 33h-3q-39 0 -87.5 -43t-90.5 -134.5t-66.5 -179t-60.5 -180.5t-76 -138t-87 -45q-18 0 -38 7
q-56 19 -56 65q0 14 15.5 21.5t18.5 -10.5q1 -3 1 -17.5t10 -26t28 -11.5q39 0 81 55.5t80.5 146t83.5 223.5h-2q-71 -13 -91 -13q-34 0 -34 18q0 9 17 15.5t26.5 6.5t16 -6t9.5 -6z" />
    <glyph glyph-name="agrave" unicode="&#xe0;" horiz-adv-x="457" 
d="M282 137q-4 -2 -37 -40t-76.5 -73t-78.5 -35q-16 0 -34.5 9.5t-31.5 27t-13 37.5t9 38q20 42 64.5 81.5t92.5 67.5t76 35t54.5 7t45.5 -13.5t19 -28.5q0 -5 -1 -6t-5 1q-12 19 -49.5 19t-85 -24.5t-89.5 -61.5q-35 -33 -61.5 -74.5t-26.5 -60.5t6.5 -28t15.5 -9
q20 0 63 34q71 60 97 88q92 99 99 99q12 0 29 -7t11 -17q-61 -87 -61 -168q0 -14 8.5 -23t18.5 -9q25 0 95 63q46 42 74 82q4 5 9 2.5t5 -5t-2 -5.5q-14 -26 -53.5 -68t-71 -65.5t-64.5 -28.5q-12 -1 -21 -1t-24 8.5t-20 25t-5 46.5t19 80zM365 368q0 -5 -9.5 -5t-54 20.5
t-65.5 32.5q-49 26 -49 43q0 9 14 14q3 1 5.5 1h5t6 -1t5.5 -1.5t5.5 -2.5t5.5 -3t6.5 -3.5t5.5 -3.5q11 -7 28.5 -21t53 -39.5t36.5 -27.5t1 -3z" />
    <glyph glyph-name="aacute" unicode="&#xe1;" horiz-adv-x="457" 
d="M90 -11q-16 0 -34.5 9.5t-31.5 27t-13 37.5t9 38q20 42 64.5 81.5t92.5 67.5t76 35t54.5 7t45.5 -13.5t19 -28.5q0 -5 -1 -6t-5 1q-12 19 -49.5 19t-85 -24.5t-89.5 -61.5q-35 -33 -61.5 -74.5t-26.5 -60.5q0 -37 21 -37t64 34q71 60 97 88q92 99 99 99q12 0 29 -7
t11 -17q-51 -72 -60 -145q-1 -9 -1 -23t8 -23q15 -16 41 -2t72.5 56t74.5 82q4 5 9 2.5t5 -4.5q0 -15 -47.5 -65.5t-72.5 -68.5q-47 -35 -87 -35q-38 0 -51 38q-3 12 -3 27q0 45 19 95q-4 -2 -37 -40t-76.5 -73t-78.5 -35zM377 396q-65 -31 -75.5 -31.5t-10.5 3t2 6
t13.5 10.5l25.5 17t19 13.5t34 26.5t40 37q6 2 9 2l20 -6q11 -7 11 -18t-5 -14l-1 -2q-17 -13 -82 -44z" />
    <glyph glyph-name="acircumflex" unicode="&#xe2;" horiz-adv-x="457" 
d="M90 -11q-16 0 -34.5 9.5t-31.5 27t-13 37.5t9 38q20 42 64.5 81.5t92.5 67.5t76 35t54.5 7t45.5 -13.5t19 -28.5q0 -5 -1 -6t-5 1q-12 19 -49.5 19t-85 -24.5t-89.5 -61.5q-35 -33 -61.5 -74.5t-26.5 -60.5q0 -37 21 -37t64 34q71 60 97 88q92 99 99 99q12 0 29 -7
t11 -17q-51 -72 -60 -145q-1 -9 -1 -23t8 -23q15 -16 41 -2t72.5 56t74.5 82q4 5 9 2.5t5 -4.5q0 -15 -47.5 -65.5t-72.5 -68.5q-47 -35 -87 -35q-38 0 -51 38q-3 12 -3 27q0 45 19 95q-4 -2 -37 -40t-76.5 -73t-78.5 -35zM374.5 428q25.5 -31 35.5 -47t10 -22.5t-4 -6.5
t-10 5.5t-41 35.5t-41 36q-18 -11 -47.5 -34.5t-46 -34t-16.5 -1.5t7.5 15t33.5 30q67 60 81 60q13 -5 38.5 -36z" />
    <glyph glyph-name="atilde" unicode="&#xe3;" horiz-adv-x="457" 
d="M90 -11q-16 0 -34.5 9.5t-31.5 27t-13 37.5t9 38q20 42 64.5 81.5t92.5 67.5t76 35t54.5 7t45.5 -13.5t19 -28.5q0 -5 -1 -6t-5 1q-12 19 -49.5 19t-85 -24.5t-89.5 -61.5q-35 -33 -61.5 -74.5t-26.5 -60.5q0 -37 21 -37t64 34q71 60 97 88q92 99 99 99q12 0 29 -7
t11 -17q-51 -72 -60 -145q-1 -9 -1 -23t8 -23q15 -16 41 -2t72.5 56t74.5 82q4 5 9 2.5t5 -4.5q0 -15 -47.5 -65.5t-72.5 -68.5q-47 -35 -87 -35q-38 0 -51 38q-3 12 -3 27q0 45 19 95q-4 -2 -37 -40t-76.5 -73t-78.5 -35zM436 433q2 3 10 3t8 -5q0 -23 -40 -51
q-17 -13 -30.5 -13t-22 3t-28 11.5t-27.5 10.5q-45 14 -56 7q-33 -8 -50 -35q-2 -3 -5.5 -3t-6.5 2t-3 3.5t10 15.5t22.5 28.5t30 23.5t28 9t19.5 -3t37 -18q45 -22 63 -22q29 0 41 33z" />
    <glyph glyph-name="adieresis" unicode="&#xe4;" horiz-adv-x="457" 
d="M282 137q-4 -2 -37 -40t-76.5 -73t-78.5 -35q-16 0 -34.5 9.5t-31.5 27t-13 37.5t9 38q20 42 64.5 81.5t92.5 67.5t76 35t54.5 7t45.5 -13.5t19 -28.5q0 -5 -1 -6t-5 1q-12 19 -49.5 19t-85 -24.5t-89.5 -61.5q-35 -33 -61.5 -74.5t-26.5 -60.5t6.5 -28t15.5 -9
q20 0 63 34q71 60 97 88q92 99 99 99q12 0 29 -7t11 -17q-61 -87 -61 -168q0 -14 8.5 -23t18.5 -9q25 0 95 63q46 42 74 82q4 5 9 2.5t5 -5t-2 -5.5q-14 -26 -53.5 -68t-71 -65.5t-64.5 -28.5q-12 -1 -21 -1t-24 8.5t-20 25t-5 46.5t19 80zM205 380q0 4 30 27.5t33.5 23.5
t0 -11.5t-3.5 -18t-10 -22t-16 -15.5q-34 0 -34 16zM430 429l-6 -26q0 -8 -10.5 -23.5t-16.5 -15.5q-33 0 -33 16q0 3 20 20q39 31 42.5 31t3.5 -2z" />
    <glyph glyph-name="aring" unicode="&#xe5;" horiz-adv-x="457" 
d="M282 137q-4 -2 -37 -40t-76.5 -73t-78.5 -35q-16 0 -34.5 9.5t-31.5 27t-13 37.5t9 38q20 42 64.5 81.5t92.5 67.5t76 35t54.5 7t45.5 -13.5t19 -28.5q0 -5 -1 -6t-5 1q-12 19 -49.5 19t-85 -24.5t-89.5 -61.5q-35 -33 -61.5 -74.5t-26.5 -60.5t6.5 -28t15.5 -9
q20 0 63 34q71 60 97 88q92 99 99 99q12 0 29 -7t11 -17q-61 -87 -61 -168q0 -14 8.5 -23t18.5 -9q25 0 95 63q46 42 74 82q4 5 9 2.5t5 -5t-2 -5.5q-14 -26 -53.5 -68t-71 -65.5t-64.5 -28.5q-12 -1 -21 -1t-24 8.5t-20 25t-5 46.5t19 80zM426 443q0 35 -35 35
q-26 0 -48 -24.5t-22 -41.5q0 -33 36 -33q23 0 40.5 15.5t23.5 32.5q5 6 5 16zM449 448q0 -37 -44 -69q-22 -14 -42 -14t-37 7q-32 12 -32 42q0 36 40 61q18 15 50 15q65 0 65 -42z" />
    <glyph glyph-name="ae" unicode="&#xe6;" horiz-adv-x="565" 
d="M624 151q6 0 6 -6q0 -3 -3 -7q-28 -49 -74 -88.5t-93.5 -59t-83 -19.5t-65.5 16q-45 23 -45 76q0 31 16 74q-4 -2 -37 -40t-76.5 -73t-78.5 -35q-16 0 -34.5 9.5t-31.5 27t-13 37.5t9 38q20 42 64.5 81.5t92.5 67.5t76 35t54.5 7t45.5 -13.5t19 -28.5q0 -5 -1 -6t-5 1
q-12 19 -49.5 19t-85 -24.5t-89.5 -61.5q-35 -33 -61.5 -74.5t-26.5 -60.5q0 -37 21 -37t64 34q71 60 97 88q92 99 99 99q19 0 34 -9q46 39 84.5 56.5t62.5 17.5q54 0 54 -53q0 -27 -15 -44q-25 -37 -80.5 -64.5t-95.5 -30.5q-14 -1 -15 8q-1 4 2.5 5t5.5 1q50 5 125 65
q17 13 31 31t14 34.5t-16 16.5q-13 0 -35 -11q-47 -22 -99 -76.5t-68 -106.5q-5 -16 -5 -31.5t13 -29.5t40 -14q30 0 69 16q104 42 175 139q4 4 8 4z" />
    <glyph glyph-name="ccedilla" unicode="&#xe7;" horiz-adv-x="315" 
d="M291 220l5 20q0 20 -15 20q-41 0 -112 -64t-90 -129q-5 -17 -5 -30.5t6 -22.5q12 -18 37 -18t54 7q64 18 106.5 51.5t89.5 93.5q4 5 9.5 3t5.5 -5.5t-3 -10.5q-94 -131 -209 -156q11 0 9 -9q-3 -8 -29 -42t-28 -36q21 4 46 4t47 -13q34 -20 34 -57t-35 -69
q-63 -57 -145 -57l-28 2q-46 6 -65 38q-5 9 -5 13t5 6t14 -11q20 -31 69 -31q66 0 117 52q26 27 26 54t-15 38t-31 11l-58 -7q-8 0 -9.5 3.5t16 26.5t29 51t15.5 29q-14 -2 -27 -2q-53 0 -82 31q-20 21 -20 49t14 61q25 57 107 117t130 60q12 0 23 -3q28 -10 28 -32
q0 -15 -11 -34t-16.5 -13.5t-3.5 11.5z" />
    <glyph glyph-name="egrave" unicode="&#xe8;" horiz-adv-x="319" 
d="M325 239q0 -27 -15 -44q-25 -37 -81 -64.5t-95 -30.5q-11 -1 -14.5 6t7.5 8q23 2 59 21.5t66 43.5q45 34 45 65q0 17 -16 17q-13 0 -35 -11q-47 -22 -99 -76q-73 -77 -73 -138q0 -16 13 -30t41.5 -14t67.5 16q113 46 174 139q6 8 11 3q4 -2 4 -5t-3 -7q-30 -50 -75.5 -89
t-97.5 -61l-68 -16h-10q-111 8 -111 86q0 85 121 173q82 60 130 60q54 0 54 -52zM347 368.5q0 -4.5 -9 -4.5t-54.5 20.5t-65.5 31.5q-49 29 -49 44q0 9 15 14q3 1 7 1q18 0 50 -23q13 -11 101 -77q5 -2 5 -6.5z" />
    <glyph glyph-name="eacute" unicode="&#xe9;" horiz-adv-x="319" 
d="M271 291q54 0 54 -52q0 -27 -15 -44q-25 -37 -81 -64.5t-95 -30.5q-14 -1 -15 8q-1 4 2.5 5t5.5 1q23 2 59 22q67 36 98 74q13 18 13 34.5t-16 16.5q-13 0 -35 -11q-47 -22 -99 -76.5t-68 -106.5q-5 -16 -5 -31.5t13 -29.5t40 -14q30 0 69 16q113 46 174 139q6 8 11 3
q8 -3 1 -12q-30 -50 -76 -89q-89 -76 -173 -76q-72 0 -101 43q-11 17 -11 41t13 57q25 57 107 117t130 60zM367 479l19 -6q12 -7 12 -18q0 -9 -7 -16q-16 -13 -81.5 -44t-75.5 -31.5t-10 3t2 6t13 10.5l24.5 17t20 14l24.5 18q34 25 49 45q6 2 10 2z" />
    <glyph glyph-name="ecircumflex" unicode="&#xea;" horiz-adv-x="319" 
d="M271 291q54 0 54 -52q0 -27 -15 -44q-25 -37 -81 -64.5t-95 -30.5q-14 -1 -15 8q-1 4 2.5 5t5.5 1q23 2 59 22q67 36 98 74q13 18 13 34.5t-16 16.5q-13 0 -35 -11q-47 -22 -99 -76.5t-68 -106.5q-5 -16 -5 -31.5t13 -29.5t40 -14q30 0 69 16q113 46 174 139q6 8 11 3
q8 -3 1 -12q-30 -50 -76 -89q-89 -76 -173 -76q-72 0 -101 43q-11 17 -11 41t13 57q25 57 107 117t130 60zM390 392q4 -7 4 -13.5t-4 -6.5t-10 5.5t-42 36t-41 35.5q-17 -10 -46 -33.5t-46 -34.5t-17 -2.5t7.5 15l33.5 30.5q67 60 81 60q25 -9 80 -92z" />
    <glyph glyph-name="edieresis" unicode="&#xeb;" horiz-adv-x="319" 
d="M325 239q0 -27 -15 -44q-25 -37 -81 -64.5t-95 -30.5q-11 -1 -14.5 6t7.5 8q23 2 59 21.5t66 43.5q45 34 45 65q0 17 -16 17q-13 0 -35 -11q-47 -22 -99 -76q-73 -77 -73 -138q0 -16 13 -30t41.5 -14t67.5 16q113 46 174 139q6 8 11 3q8 -3 1 -12q-30 -50 -75.5 -89
t-97.5 -61l-68 -16h-10q-111 8 -111 86q0 85 121 173q82 60 130 60q54 0 54 -52zM187 379q0 2 30.5 26t33.5 24t-0.5 -11t-3.5 -17.5t-10 -22t-16 -15.5q-34 0 -34 16zM412 428l-6 -26q0 -8 -10.5 -23.5t-15.5 -15.5q-34 0 -34 16q0 2 30.5 26t33 24t2.5 -1z" />
    <glyph glyph-name="igrave" unicode="&#xec;" 
d="M237 71q-39 -42 -71 -65q-39 -29 -85 -29q-9 0 -24 8q-24 14 -24 48t32 105q-5 -11 -39 -50q-9 -10 -14 0q-1 2 -1 5.5t4 8.5q49 61 77 103q-2 5 2 13q20 56 35 59h7q25 0 30 -16q2 -9 -2.5 -17.5t-6.5 -13.5t-3 -8q-5 -10 -10 -19q-57 -114 -60 -145q-1 -9 -1 -23t8 -23
q14 -16 40 -2t72.5 56t75.5 82q4 5 9 2.5t5 -5t-2 -5.5q-15 -27 -54 -69zM247 368.5q0 -4.5 -9 -4.5t-54.5 20.5t-65.5 31.5q-49 29 -49 44q0 9 15 14q3 1 7 1q18 0 50 -23q13 -11 101 -77q5 -2 5 -6.5z" />
    <glyph glyph-name="iacute" unicode="&#xed;" 
d="M237 71q-39 -42 -71 -65q-39 -29 -85 -29q-9 0 -24 8q-24 14 -24 48t32 105q-5 -11 -39 -50q-9 -10 -14 0q-1 2 -1 5.5t4 8.5q49 61 77 103q-2 5 2 13q20 56 35 59h7q25 0 30 -16q2 -9 -2.5 -17.5t-6.5 -13.5t-3 -8q-5 -10 -10 -19q-57 -114 -60 -145q-1 -9 -1 -23t8 -23
q14 -16 40 -2t72.5 56t75.5 82q4 5 10 2q15 -7 -52 -79zM274 479l20 -6q11 -7 11 -18q0 -10 -6 -16q-17 -13 -82 -44t-76 -31.5t-11 2.5t2.5 6t14 11l25.5 17t20.5 14.5t23.5 17.5q38 29 49 45q6 2 9 2z" />
    <glyph glyph-name="icircumflex" unicode="&#xee;" 
d="M237 71q-39 -42 -71 -65q-39 -29 -85 -29q-9 0 -24 8q-24 14 -24 48t32 105q-5 -11 -39 -50q-9 -10 -14 0q-1 2 -1 5.5t4 8.5q49 61 77 103q-2 5 2 13q20 56 35 59h7q25 0 30 -16q2 -9 -2.5 -17.5t-6.5 -13.5t-3 -8q-5 -10 -10 -19q-57 -114 -60 -145q-1 -9 -1 -23t8 -23
q14 -16 40 -2t72.5 56t75.5 82q4 5 9 2.5t5 -5t-2 -5.5q-15 -27 -54 -69zM235.5 449q25.5 -31 36 -47t10.5 -22.5t-4.5 -6.5t-10.5 5q-5 6 -41 36t-41 36q-18 -11 -47.5 -34.5t-46 -34t-16.5 -1.5t7.5 15t33.5 30q67 60 81 60q13 -5 38.5 -36z" />
    <glyph glyph-name="idieresis" unicode="&#xef;" 
d="M237 71q-39 -42 -71 -65q-39 -29 -85 -29q-9 0 -24 8q-24 14 -24 48t32 105q-5 -11 -39 -50q-9 -10 -14 0q-1 2 -1 5.5t4 8.5q49 61 77 103q-2 5 2 13q20 56 35 59h7q25 0 30 -16q2 -9 -2.5 -17.5t-6.5 -13.5t-3 -8q-5 -10 -10 -19q-57 -114 -60 -145q-1 -9 -1 -23t8 -23
q14 -16 40 -2t72.5 56t75.5 82q4 5 10 2q15 -7 -52 -79zM141 428l-6 -26q0 -8 -10 -23.5t-16 -15.5q-34 0 -34 16q0 2 28 24.5t31.5 24.5t5 2t1.5 -2zM300 428l-6 -26q0 -8 -10.5 -23.5t-16.5 -15.5q-33 0 -33 16q0 2 28 24.5t32 24.5t5 2t1 -2z" />
    <glyph glyph-name="eth" unicode="&#xf0;" horiz-adv-x="432" 
d="M21 59q0 21 13 55q25 57 107 117t130 60q12 0 23 -3q28 -10 28 -32q0 -6 -2 -13q-9 -15 -13 -4q-1 2 -1 5.5t-8.5 9.5t-16.5 6q-41 0 -112 -64t-90 -129q-5 -17 -5 -35t18 -30t43.5 -12t55.5 17q112 61 166 203q27 67 35 157l-70 -22q-9 -3 -14 -3q-12 0 -12 13.5
t19 25.5l6 2l73 20v19q0 75 -26.5 106.5t-53.5 31.5q-28 0 -47.5 -23.5t-29.5 -23.5t-16.5 5.5t-6.5 14.5q0 24 22 37.5t48.5 13.5t53 -10.5t50.5 -37.5q39 -47 43 -124l34 8q28 7 42 7t14 -6.5t-10 -11.5t-16 -7q-18 -8 -21 -8l-42 -15q-2 -79 -33 -165.5t-83 -146.5
q-43 -52 -106 -79q-38 -16 -70 -16q-119 0 -119 87z" />
    <glyph glyph-name="ntilde" unicode="&#xf1;" horiz-adv-x="409" 
d="M318 284q23 0 23 -24.5t-23 -67.5t-34 -70q-19 -46 -19 -73.5t8 -36.5q15 -16 41 -1.5t72.5 56t74.5 81.5q4 5 9.5 2.5t5.5 -5t-2 -5.5q-15 -27 -54 -69t-75 -67.5t-71 -25.5q-34 1 -48 15.5t-14 36.5t4 42.5t15 47.5q18 43 31.5 67t13.5 31.5t-8 7.5q-16 0 -61 -39
q-31 -29 -91.5 -109.5t-68.5 -85.5q-36 -18 -45 -18t-9 3t2 8.5l19.5 54.5l38 107.5t25 70.5t6 20.5t3.5 14.5t7.5 13.5t14.5 8t23 -2t14 -12.5q0 -7 -11 -30.5t-63 -161.5q36 44 91 101.5t93 87.5q38 27 62 27zM374 378q-17 -13 -30 -13t-21.5 3t-28 11.5t-27.5 10.5
q-44 14 -56 7q-32 -8 -50 -35q-2 -3 -5.5 -3t-6.5 2t-3 3t9.5 15t22.5 29t30.5 24t28.5 9t18.5 -3t36.5 -18q45 -23 64 -23q29 0 41 33q4 8 11 4.5t7 -5.5q0 -22 -41 -51z" />
    <glyph glyph-name="ograve" unicode="&#xf2;" horiz-adv-x="351" 
d="M173 16q29 22 52 56l-3 6q-4 16 4 26t21 6q18 37 18 57t-4.5 31.5t4 19.5t21.5 6q20 -5 20 -40q0 -45 -47 -110q1 -27 28 -27t82 58q26 30 32.5 39t11.5 6.5t5 -8.5t-36 -48q-57 -70 -101 -70q-29 0 -41 25q-20 -21 -39 -39q-39 -33 -97 -33q-17 0 -35 13q-35 21 -35 75
q0 100 103 191q39 35 83 35q12 0 22 -3q30 -10 30 -34t-10 -27q-8 -2 -8 6q1 5 1 9q0 18 -20 18q-35 0 -96.5 -71.5t-61.5 -146.5q0 -13 9 -30.5t33.5 -17.5t53.5 22zM319 375q4 -1 4 -6t-9 -5t-53.5 20.5t-65.5 31.5q-49 27 -49 45q0 9 14 13q3 1 7 1q18 0 50 -23
q34 -27 102 -77z" />
    <glyph glyph-name="oacute" unicode="&#xf3;" horiz-adv-x="351" 
d="M247 110q18 37 18 57t-4.5 31.5t4 19.5t21.5 6q20 -5 20 -45t-47 -105q1 -27 28 -27t82 58q26 30 32.5 39t11.5 6.5t5 -4.5q0 -10 -36 -52q-57 -70 -101 -70q-29 0 -41 25q-20 -21 -39 -39q-39 -33 -87 -33q-27 0 -45 13q-35 21 -35 75q0 59 40 120q23 36 54 63
q49 43 93 43q11 0 21 -3q30 -10 30 -38q0 -23 -12 -23q-5 2 -5 15q0 18 -20 18q-35 0 -90 -64t-66 -129q-2 -11 -2 -24.5t9 -31t33.5 -17.5t53.5 22t52 56l-3 6q-4 16 4 26t21 6zM378 480l19 -6q12 -7 12 -18q0 -9 -7 -16q-16 -13 -81.5 -44t-78.5 -32q-8 1 -8 4.5t2.5 5.5
t13.5 10t25.5 17.5t19.5 13.5l34 26t40 37q6 2 9 2z" />
    <glyph glyph-name="ocircumflex" unicode="&#xf4;" horiz-adv-x="351" 
d="M247 110q18 37 18 57t-4.5 31.5t4 19.5t21.5 6q20 -5 20 -45t-47 -105q1 -27 28 -27t82 58q26 30 32.5 39t11.5 6.5t5 -4.5q0 -10 -36 -52q-57 -70 -101 -70q-29 0 -41 25q-20 -21 -39 -39q-39 -33 -87 -33q-27 0 -45 13q-35 21 -35 75q0 59 40 120q23 36 54 63
q49 43 93 43q11 0 21 -3q30 -10 30 -38q0 -23 -12 -23q-5 2 -5 15q0 18 -20 18q-35 0 -90 -64t-66 -129q-2 -11 -2 -24.5t9 -31t33.5 -17.5t53.5 22t52 56l-3 6q-4 16 4 26t21 6zM310.5 449q25.5 -31 36 -47t10.5 -22.5t-4.5 -6.5t-10.5 5.5t-41 35.5t-41 36
q-18 -11 -47.5 -34.5t-46 -34t-16.5 -1.5t7.5 15t34.5 30q66 60 80 60q13 -5 38.5 -36z" />
    <glyph glyph-name="otilde" unicode="&#xf5;" horiz-adv-x="351" 
d="M247 110q18 37 18 57t-4.5 31.5t4 19.5t21.5 6q20 -5 20 -45t-47 -105q1 -27 28 -27t82 58q26 30 32.5 39t11.5 6.5t5 -4.5q0 -10 -36 -52q-57 -70 -101 -70q-29 0 -41 25q-20 -21 -39 -39q-39 -33 -87 -33q-27 0 -45 13q-35 21 -35 75q0 59 40 120q23 36 54 63
q49 43 93 43q11 0 21 -3q30 -10 30 -38q0 -23 -12 -23q-5 2 -5 15q0 18 -20 18q-35 0 -90 -64t-66 -129q-2 -11 -2 -24.5t9 -31t33.5 -17.5t53.5 22t52 56l-3 6q-4 16 4 26t21 6zM367 428q2 3 10 3t8 -5q0 -23 -40 -52q-17 -12 -30.5 -12t-22 3t-28 11.5t-27.5 11.5t-27.5 7
t-28.5 -1q-33 -8 -50 -35q-2 -2 -8.5 -2t-6.5 5l10 14.5t22.5 29t30 23.5t28 9t19.5 -3t38 -17q44 -23 62 -23q29 0 41 33z" />
    <glyph glyph-name="odieresis" unicode="&#xf6;" horiz-adv-x="351" 
d="M173 16q29 22 52 56l-3 6q-4 16 4 26t21 6q18 37 18 57t-4.5 31.5t4 19.5t21.5 6q20 -5 20 -40q0 -45 -47 -110q1 -27 28 -27t82 58q26 30 32.5 39t11.5 6.5t5 -8.5t-36 -48q-57 -70 -101 -70q-29 0 -41 25q-20 -21 -39 -39q-39 -33 -97 -33q-17 0 -35 13q-35 21 -35 75
q0 100 103 191q39 35 83 35q12 0 22 -3q30 -10 30 -34t-10 -27q-8 -2 -8 6q1 5 1 9q0 18 -20 18q-35 0 -96.5 -71.5t-61.5 -146.5q0 -13 9 -30.5t33.5 -17.5t53.5 22zM191 364q-34 0 -34 16q0 3 21 19.5l30.5 24t11.5 7.5q4 0 1 -12l-4 -16q0 -8 -10 -23.5t-16 -15.5z
M350 364q-34 0 -34 16q0 3 21 19.5l30.5 24t12 7.5t2.5 -2t-2 -10l-4 -16q0 -8 -10.5 -23.5t-15.5 -15.5z" />
    <glyph glyph-name="divide" unicode="&#xf7;" horiz-adv-x="469" 
d="M416 195q54 0 54 -12.5t-53 -15.5q-3 0 -301 -9q-23 -1 -23 9q0 15 22 24q6 3 10 3zM272 102q2 -3 2 -8v-12q0 -8 -10.5 -23.5t-16.5 -15.5q-33 0 -33 16q0 2 32 34q23 17 26 9zM346 304v-15q0 -8 -10.5 -23.5t-15.5 -15.5q-34 0 -34 17q0 4 16 18t20 17q13 10 18.5 10
t5.5 -8z" />
    <glyph glyph-name="oslash" unicode="&#xf8;" horiz-adv-x="351" 
d="M130 250q46 41 99 41q22 0 35 -18q45 59 52.5 65.5t14.5 6.5t14 -1.5t1 -8.5q-19 -21 -75 -88v-7q-1 -8 -6 -11t-8 -1q-104 -132 -163 -225q13 -9 31.5 -9t47.5 22t52 56l-3 6q-4 16 4 26t21 6q18 37 18 57t-4.5 31.5t4 19.5t21.5 6q20 -5 20 -45t-47 -105q1 -27 28 -27
t82 58q26 30 32.5 39t11.5 6.5t5 -4.5q0 -10 -36 -52q-57 -70 -101 -70q-29 0 -41 25q-20 -21 -43 -42q-34 -30 -81 -30q-19 0 -34 7l-21 -35q-7 -13 -17.5 -13t-10.5 4q0 9 31 54q-31 22 -31 69q0 24 9 56q23 73 88 131zM235 260q-35 0 -90 -64q-68 -79 -68 -151
q0 -14 4 -25q71 106 169 234q-4 6 -15 6z" />
    <glyph glyph-name="ugrave" unicode="&#xf9;" horiz-adv-x="445" 
d="M456 71q-39 -42 -70 -65q-40 -29 -87 -29q-9 0 -23.5 8.5t-19.5 24.5t-5 31q0 52 20 103q-3 -2 -27.5 -42.5t-60 -76.5t-71.5 -36q-17 0 -39 9q-40 18 -40 66q0 59 40.5 121.5t51.5 66.5q15 4 28.5 4t27.5 -5.5t-4 -18.5q-69 -63 -98 -140q-11 -30 -11 -50.5t10.5 -26.5
t20.5 -6q24 0 65.5 33.5t114.5 139.5q10 15 35 58.5t30 51.5q16 0 37.5 -7.5t14.5 -19.5q-48 -80 -67.5 -118t-26.5 -89q-1 -9 -1 -23t8 -23q15 -16 41.5 -1.5t72.5 56t74 81.5q4 5 9.5 2.5t5.5 -5t-2 -5.5q-15 -27 -54 -69zM360 368q0 -5 -9.5 -5t-54 20.5t-65.5 32.5
q-49 26 -49 43q0 9 14 14q3 1 5.5 1h5t6 -1t5.5 -1.5t5.5 -2.5t5.5 -3t6.5 -3.5t6.5 -3.5q10 -7 27.5 -21t53 -39.5t36.5 -27.5t1 -3z" />
    <glyph glyph-name="uacute" unicode="&#xfa;" horiz-adv-x="445" 
d="M456 71q-39 -42 -70 -65q-40 -29 -87 -29q-9 0 -23.5 8.5t-19.5 24.5t-5 31q0 52 20 103q-3 -2 -27.5 -42.5t-60 -76.5t-71.5 -36q-17 0 -39 9q-40 18 -40 66q0 59 40.5 121.5t51.5 66.5q15 4 28.5 4t27.5 -5.5t-4 -18.5q-69 -63 -98 -140q-11 -30 -11 -50.5t10.5 -26.5
t20.5 -6q24 0 65.5 33.5t114.5 139.5q10 15 35 58.5t30 51.5q16 0 37.5 -7.5t14.5 -19.5q-48 -80 -67.5 -118t-26.5 -89q-1 -9 -1 -23t8 -23q15 -16 41.5 -1.5t72.5 56t74 81.5q4 5 9.5 2.5t5.5 -5t-2 -5.5q-15 -27 -54 -69zM350.5 398q-65.5 -31 -76.5 -32t-11 2.5t2.5 6.5
t13.5 10.5l25 17t20.5 15t23.5 17.5q35 25 49 44q3 1 9.5 1t19.5 -5q12 -7 12 -18q0 -8 -11 -18t-76.5 -41z" />
    <glyph glyph-name="ucircumflex" unicode="&#xfb;" horiz-adv-x="445" 
d="M456 71q-39 -42 -70 -65q-40 -29 -87 -29q-9 0 -23.5 8.5t-19.5 24.5t-5 31q0 52 20 103q-3 -2 -27.5 -42.5t-60 -76.5t-71.5 -36q-17 0 -39 9q-40 18 -40 66q0 59 40.5 121.5t51.5 66.5q15 4 28.5 4t27.5 -5.5t-4 -18.5q-69 -63 -98 -140q-11 -30 -11 -50.5t10.5 -26.5
t20.5 -6q24 0 65.5 33.5t114.5 139.5q10 15 35 58.5t30 51.5q16 0 37.5 -7.5t14.5 -19.5q-48 -80 -67.5 -118t-26.5 -89q-1 -9 -1 -23t8 -23q15 -16 41.5 -1.5t72.5 56t74 81.5q4 5 9.5 2.5t5.5 -5t-2 -5.5q-15 -27 -54 -69zM399 392q4 -7 4 -13.5t-4 -6.5t-9.5 5
t-41.5 35.5t-42 36.5q-17 -11 -46 -35q-64 -50 -64 -35q0 9 11 18q5 4 31 27q66 60 81 60q25 -10 80 -92z" />
    <glyph glyph-name="udieresis" unicode="&#xfc;" horiz-adv-x="445" 
d="M456 71q-39 -42 -70 -65q-40 -29 -87 -29q-9 0 -23.5 8.5t-19.5 24.5t-5 31q0 52 20 103q-3 -2 -27.5 -42.5t-60 -76.5t-71.5 -36q-17 0 -39 9q-40 18 -40 66q0 59 40.5 121.5t51.5 66.5q15 4 28.5 4t27.5 -5.5t-4 -18.5q-69 -63 -98 -140q-11 -30 -11 -50.5t10.5 -26.5
t20.5 -6q24 0 65.5 33.5t114.5 139.5q10 15 35 58.5t30 51.5q16 0 37.5 -7.5t14.5 -19.5q-48 -80 -67.5 -118t-26.5 -89q-1 -9 -1 -23t8 -23q15 -16 41.5 -1.5t72.5 56t74 81.5q4 5 9.5 2.5t5.5 -5t-2 -5.5q-15 -27 -54 -69zM251 428l-6 -26q0 -8 -10 -23.5t-16 -15.5
q-34 0 -34 16q0 2 28 24.5t31.5 24.5t5 2t1.5 -2zM410 428l-6 -26q0 -8 -10.5 -23.5t-16.5 -15.5q-33 0 -33 16q0 2 28 24.5t32 24.5t5 2t1 -2z" />
    <glyph glyph-name="yacute" unicode="&#xfd;" horiz-adv-x="416" 
d="M13 -381q-8 0 -20 3q-51 13 -51 53.5t52.5 101.5t221.5 173q94 192 119 269q-12 -14 -47 -60.5t-62 -79t-65 -61.5t-70 -29t-49.5 14.5t-19.5 30.5t-2 27q0 37 20 74q30 61 81 105q19 18 33.5 18t26.5 -9q13 -14 8 -24q-38 -22 -87 -85q-26 -34 -36 -86q-1 -7 -1 -17.5
t8.5 -17t17.5 -6.5q31 0 65 33t65 69.5t70.5 87.5l52.5 67.5t28.5 15t31 -9.5t13 -13t-51 -113.5l-70.5 -155.5q24 13 81.5 61.5t97.5 98.5q10 12 13 2q1 -2 1 -6.5t-6 -12.5q-31 -41 -99 -103t-108 -84q-85 -175 -114 -220q-75 -111 -148 -111zM197 -88
q-120 -90 -171.5 -142t-51.5 -89.5t26 -37.5q20 0 46 20.5t50 54.5t36.5 58.5t34.5 72t30 63.5zM425 479l20 -6q12 -7 12 -18q0 -9 -7 -16q-16 -13 -81.5 -44t-76.5 -31.5t-11 2.5t2.5 6t14 11l25.5 17t20.5 14.5t22.5 17.5q39 29 50 45q6 2 9 2z" />
    <glyph glyph-name="thorn" unicode="&#xfe;" horiz-adv-x="351" 
d="M304 222q0 35 -27 35q-16 0 -52 -19t-72 -57t-55.5 -71.5t-36.5 -69l-20 -41.5q61 0 134 53t109 115q20 31 20 55zM353 207q0 -43 -36 -89q-67 -87 -187 -128q-36 -12 -59.5 -12t-38.5 5q-22 -51 -61 -171q-4 -13 -4.5 -32.5t-12 -53t-22.5 -53.5q-5 -12 -29 -19.5
t-34 -7.5t-10 10q0 4 3 11q42 86 114.5 272t82.5 216t45 123q83 225 83 246q0 11 32.5 11t32.5 -22q0 -17 -15.5 -41t-46.5 -96.5l-67 -162.5t-37 -93q58 88 94 115q48 39 93 39q18 0 36 -6q39 -14 43 -45q1 -8 1 -16z" />
    <glyph glyph-name="ydieresis" unicode="&#xff;" horiz-adv-x="1500" 
 />
    <glyph glyph-name="Amacron" unicode="&#x100;" horiz-adv-x="470" 
d="M697 -25q-31 0 -45 27.5t-14 70t18 116.5q-35 3 -119 14q-139 -172 -231 -239q-79 -59 -164 -59q-54 0 -92.5 27t-38.5 80q0 10 5 18.5t10 4.5t5 -23q0 -34 26.5 -51t64.5 -17q82 0 161.5 53.5t216.5 209.5q-147 18 -194 18q-127 0 -157 -83q-4 -11 -4 -20.5t4 -17
t1.5 -12t-8.5 -4t-10 6.5q-11 19 -11 37q0 62 22.5 91.5t52.5 37.5q36 10 84 10t242 -38q54 62 164 199.5t110 139.5h1q1 1 5 3q24 14 52 14q10 0 10 -10q0 -1 -1 -2.5t-2 -4t-2 -4.5q-96 -159 -149 -358l-3 -7l25 -1q8 -1 28.5 -1t43.5 9.5t29.5 20.5t11.5 5t1 -13
q-11 -20 -39 -29q-24 -10 -47.5 -10h-30.5l-27 1q-19 -87 -19 -138.5t28 -51.5q27 0 84 43t107 111q3 4 9 1.5t3.5 -9.5t-16.5 -25q-42 -56 -103 -106q-44 -35 -98 -35zM752 478q1 2 2.5 5.5t2.5 5.5q-125 -171 -201 -264l105 -17q28 109 91 270zM780 690l149 2q51 0 55 -13
q0 -7 -12 -10q-64 -12 -201 -15h-4q-19 0 -19 10q0 14 22 24q6 2 10 2z" />
    <glyph glyph-name="amacron" unicode="&#x101;" horiz-adv-x="457" 
d="M90 -11q-16 0 -34.5 9.5t-31.5 27t-13 37.5t9 38q20 42 64.5 81.5t92.5 67.5t76 35t54.5 7t45.5 -13.5t19 -28.5q0 -5 -1 -6t-5 1q-12 19 -49.5 19t-85 -24.5t-89.5 -61.5q-35 -33 -61.5 -74.5t-26.5 -60.5q0 -37 21 -37t64 34q71 60 97 88q92 99 99 99q12 0 29 -7
t11 -17q-51 -72 -60 -145q-1 -9 -1 -23t8 -23q15 -16 41 -2t72.5 56t74.5 82q4 5 9 2.5t5 -4.5q0 -15 -47.5 -65.5t-72.5 -68.5q-47 -35 -87 -35q-38 0 -51 38q-3 12 -3 27q0 45 19 95q-4 -2 -37 -40t-76.5 -73t-78.5 -35zM316.5 356q-68.5 -4 -91.5 -4t-23 9q0 15 22 24
l10 3l148 1q53 0 55 -12q0 -10 -26 -13.5t-94.5 -7.5z" />
    <glyph glyph-name="Abreve" unicode="&#x102;" horiz-adv-x="470" 
d="M697 -25q-31 0 -45 27.5t-14 70t18 116.5q-35 3 -119 14q-139 -172 -231 -239q-79 -59 -164 -59q-54 0 -92.5 27t-38.5 80q0 10 5 18.5t10 4.5t5 -23q0 -34 26.5 -51t64.5 -17q82 0 161.5 53.5t216.5 209.5q-147 18 -194 18q-127 0 -157 -83q-4 -11 -4 -20.5t4 -17
t1.5 -12t-8.5 -4t-10 6.5q-11 19 -11 37q0 62 22.5 91.5t52.5 37.5q36 10 84 10t242 -38q54 62 273 336q3 4 7 6q24 14 52 14q10 0 10 -10q0 -1 -1 -2.5t-2 -4t-2 -4.5q-96 -159 -149 -358l-3 -7l25 -1q8 -1 28.5 -1t43.5 9.5t29.5 20.5t11.5 5t1 -13q-11 -20 -39 -29
q-24 -10 -47.5 -10h-30.5l-27 1q-19 -87 -19 -138.5t28 -51.5q27 0 84 43t107 111q3 4 9 1.5t3.5 -9.5t-16.5 -25q-42 -56 -103 -106q-44 -35 -98 -35zM752 478q1 2 2.5 5.5t2.5 5.5q-125 -171 -201 -264l105 -17q28 109 91 270zM947 657q-38 -18 -67.5 -18t-53.5 11
q-48 22 -48 80q0 36 11 41t18.5 0t7.5 -16q0 -53 41 -76q21 -12 44 -12t50 13q52 25 74 93q1 4 2.5 4t4.5 -3q6 -2 6 -11q-17 -72 -90 -106z" />
    <glyph glyph-name="abreve" unicode="&#x103;" horiz-adv-x="457" 
d="M90 -11q-16 0 -34.5 9.5t-31.5 27t-13 37.5t9 38q20 42 64.5 81.5t92.5 67.5t76 35t54.5 7t45.5 -13.5t19 -28.5q0 -5 -1 -6t-5 1q-12 19 -49.5 19t-85 -24.5t-89.5 -61.5q-35 -33 -61.5 -74.5t-26.5 -60.5q0 -37 21 -37t64 34q71 60 97 88q92 99 99 99q12 0 29 -7
t11 -17q-51 -72 -60 -145q-1 -9 -1 -23t8 -23q15 -16 41 -2t72.5 56t74.5 82q4 5 9 2.5t5 -4.5q0 -15 -47.5 -65.5t-72.5 -68.5q-47 -35 -87 -35q-38 0 -51 38q-3 12 -3 27q0 45 19 95q-4 -2 -37 -40t-76.5 -73t-78.5 -35zM417 377q-38 -18 -67.5 -18t-53.5 11
q-48 22 -48 80q0 36 11 41t18.5 0t7.5 -16q0 -53 41 -76q21 -12 44 -12t50 13q52 25 74 93q1 4 2.5 4t4.5 -3q6 -2 6 -11q-17 -72 -90 -106z" />
    <glyph glyph-name="Aogonek" unicode="&#x104;" horiz-adv-x="849" 
d="M681 -22q-44 15 -44 97q0 39 19 114q-35 3 -119 14q-139 -172 -231 -239q-79 -59 -164 -59q-54 0 -92.5 27t-38.5 80q0 10 5 18.5t10 4.5t5 -23q0 -34 26.5 -51t64.5 -17q82 0 161.5 53.5t216.5 209.5q-147 18 -194 18q-127 0 -157 -83q-4 -11 -4 -20.5t4 -17t1.5 -12
t-8.5 -4t-10 6.5q-11 19 -11 37q0 62 22.5 91.5t52.5 37.5q36 10 84 10t242 -38q54 62 273 336q3 4 7 6q24 14 52 14q10 0 10 -10q0 -1 -1 -2.5t-2 -4t-2 -4.5q-96 -159 -149 -358l-3 -7l25 -1q8 -1 28.5 -1t43.5 9.5t29.5 20.5t11.5 5t1 -13q-11 -20 -39 -29
q-24 -10 -47.5 -10h-30.5l-27 1q-19 -87 -19 -138.5t28 -51.5q27 0 84 43t107 111q3 4 8 2t5 -5t-1.5 -7.5t-15.5 -22.5q-42 -56 -103 -106q-38 -29 -83 -33q-19 -19 -68 -51t-79.5 -59.5t-57 -70t-26.5 -61.5t8 -30q13 -13 36 0.5t38.5 24.5t34 26l32.5 27q35 31 41 36
q15 14 19.5 7t-6.5 -19l-12 -15q-46 -58 -80 -82q-40 -28 -77.5 -28t-62.5 33q-14 20 -14 40t10 39q20 43 71 78q32 23 91 60.5zM752 478q1 2 2.5 5.5t2.5 5.5q-125 -171 -201 -264l105 -17q28 109 91 270z" />
    <glyph glyph-name="aogonek" unicode="&#x105;" horiz-adv-x="457" 
d="M294 -17q-31 12 -31 59q0 45 19 95q-4 -2 -37 -40t-76.5 -73t-78.5 -35q-16 0 -34.5 9.5t-31.5 27t-13 37.5t9 38q20 42 64.5 81.5t92.5 67.5t76 35t54.5 7t45.5 -13.5t19 -28.5q0 -5 -1 -6t-5 1q-12 19 -49.5 19t-85 -24.5t-89.5 -61.5q-35 -33 -61.5 -74.5t-26.5 -60.5
q0 -37 21 -37t64 34q71 60 97 88q92 99 99 99q12 0 29 -7t11 -17q-51 -72 -60 -145q-1 -9 -1 -23t8 -23q15 -16 41 -2t72.5 56t74.5 82q4 5 9 2.5t5 -4.5q0 -15 -47.5 -65.5t-84.5 -77.5q-30 -25 -75 -25q-13 -11 -50.5 -36t-61.5 -46t-45.5 -56.5t-21.5 -50.5t6 -24
q13 -9 30.5 1.5t29.5 19t27.5 21l26.5 21.5l36.5 32t10 5t4 -6t-6.5 -11q0 -4 -24 -31.5t-35 -36l-23 -17.5q-26 -18 -55.5 -18t-50.5 28q-11 16 -11 32q0 49 66 95q62 43 89 60z" />
    <glyph glyph-name="Cacute" unicode="&#x106;" horiz-adv-x="480" 
d="M558 504q0 56 -59 56q-51 0 -132.5 -48t-167.5 -146.5t-120 -206.5q-14 -43 -14 -79.5t21 -63.5q37 -48 121 -49h11q93 0 201 47.5t173 139.5q5 7 11.5 2t2.5 -11q-74 -101 -182 -152t-209 -51q-106 0 -160 60q-35 39 -35 102q0 106 80 228q109 166 264 230q60 24 115 24
q68 0 97 -32q19 -22 19 -51q0 -55 -58 -113t-128.5 -92.5t-122.5 -39.5q-21 -2 -20 11q1 18 25 20q80 7 147 48.5t103 110.5q17 27 17 56zM598 754l19 -6q12 -7 12 -18q0 -13 -7 -16q-16 -13 -81.5 -44t-76 -31.5t-10.5 2.5t2.5 6t13.5 11t25.5 17.5t21 14.5l23.5 18
q38 28 49 44q6 2 9 2z" />
    <glyph glyph-name="cacute" unicode="&#x107;" horiz-adv-x="315" 
d="M291 220l5 20q0 20 -15 20q-41 0 -112 -64t-90 -129q-5 -17 -5 -30.5t6 -22.5q12 -18 37 -18t54 7q64 18 106.5 51.5t89.5 93.5q4 5 11 2.5t1 -15.5q-48 -65 -100.5 -105.5t-121.5 -52.5q-20 -3 -37 -3q-49 0 -74.5 24t-25.5 53t14 63q25 57 107 117t130 60q12 0 23 -3
q28 -10 28 -32q0 -15 -11 -34t-16.5 -13.5t-3.5 11.5zM408 475l19 -6q12 -7 12 -18q0 -9 -7 -16q-16 -13 -81.5 -44t-78.5 -32q-8 1 -8 4.5t2.5 5.5t13.5 10t25.5 17.5t19.5 13.5l34 26t40 37q6 2 9 2z" />
    <glyph glyph-name="Ccircumflex" unicode="&#x108;" horiz-adv-x="480" 
d="M558 504q0 56 -59 56q-51 0 -132.5 -48t-167.5 -146.5t-120 -206.5q-14 -43 -14 -79.5t21 -63.5q37 -48 121 -49h11q93 0 201 47.5t173 139.5q5 7 11.5 2t2.5 -11q-74 -101 -182 -152t-209 -51q-106 0 -160 60q-35 39 -35 102q0 106 80 228q109 166 264 230q60 24 115 24
q68 0 97 -32q19 -22 19 -51q0 -55 -58 -113t-128.5 -92.5t-122.5 -39.5q-21 -2 -20 11q1 18 25 20q80 7 147 48.5t103 110.5q17 27 17 56zM614 637q4 -7 4 -13.5t-4 -6.5t-9.5 5t-41.5 35.5t-42 36.5q-17 -11 -47 -34q-63 -51 -63 -36q0 9 11 18q5 4 30 27q67 60 82 60
q25 -10 80 -92z" />
    <glyph glyph-name="ccircumflex" unicode="&#x109;" horiz-adv-x="315" 
d="M291 220l5 20q0 20 -15 20q-41 0 -112 -64t-90 -129q-5 -17 -5 -30.5t6 -22.5q12 -18 37 -18t54 7q64 18 106.5 51.5t89.5 93.5q4 5 9.5 3t5.5 -5.5t-3 -10.5q-48 -65 -100.5 -105.5t-121.5 -52.5q-20 -3 -37 -3q-49 0 -74.5 24t-25.5 53t14 63q25 57 107 117t130 60
q12 0 23 -3q28 -10 28 -32q0 -15 -11 -34t-16.5 -13.5t-3.5 11.5zM337 405.5q26 -31.5 36 -47.5t10 -22.5t-4 -6.5t-10 5.5t-41.5 35.5t-41.5 37q-17 -11 -46 -35q-64 -51 -64 -36q0 9 7.5 15t34.5 30q65 59 81 61q12 -5 38 -36.5z" />
    <glyph glyph-name="Cdotaccent" unicode="&#x10a;" horiz-adv-x="480" 
d="M558 504q0 56 -59 56q-51 0 -132.5 -48t-167.5 -146.5t-120 -206.5q-14 -43 -14 -79.5t21 -63.5q37 -48 121 -49h11q93 0 201 47.5t173 139.5q5 7 10.5 3t5.5 -7t-2 -5q-74 -101 -182 -152t-209 -51q-106 0 -160 60q-35 39 -35 102q0 106 80 228q109 166 264 230
q60 24 115 24q68 0 97 -32q19 -22 19 -51q0 -55 -58 -113t-128.5 -92.5t-122.5 -39.5q-21 -2 -20 11q1 18 25 20q80 7 147 48.5t103 110.5q17 27 17 56zM566 734q9 0 9 -12v-20q0 -10 -14.5 -31.5t-23.5 -21.5q-46 0 -46 24q0 3 19 21t26 24q21 16 30 16z" />
    <glyph glyph-name="cdotaccent" unicode="&#x10b;" horiz-adv-x="315" 
d="M291 220l5 20q0 20 -15 20q-41 0 -112 -64t-90 -129q-5 -17 -5 -30.5t6 -22.5q12 -18 37 -18t54 7q64 18 106.5 51.5t89.5 93.5q4 5 9.5 3t5.5 -5.5t-3 -10.5q-48 -65 -100.5 -105.5t-121.5 -52.5q-20 -3 -37 -3q-49 0 -74.5 24t-25.5 53t14 63q25 57 107 117t130 60
q12 0 23 -3q28 -10 28 -32q0 -15 -11 -34t-16.5 -13.5t-3.5 11.5zM336 422v-18q0 -7 -10.5 -23t-16.5 -16q-34 0 -34 18q0 3 14 16t20 18q13 11 20 11t7 -6z" />
    <glyph glyph-name="Ccaron" unicode="&#x10c;" horiz-adv-x="480" 
d="M558 504q0 56 -59 56q-51 0 -132.5 -48t-167.5 -146.5t-120 -206.5q-14 -43 -14 -79.5t21 -63.5q37 -48 121 -49h11q93 0 201 47.5t173 139.5q5 7 11.5 2t2.5 -11q-74 -101 -182 -152t-209 -51q-106 0 -160 60q-35 39 -35 102q0 106 80 228q109 166 264 230q60 24 115 24
q68 0 97 -32q19 -22 19 -51q0 -55 -58 -113t-128.5 -92.5t-122.5 -39.5q-21 -2 -20 11q1 18 25 20q80 7 147 48.5t103 110.5q17 27 17 56zM426 729q-4 7 -4 13.5t4.5 6.5t8.5 -3.5t25 -20.5q49 -41 60 -52q16 10 45 33q63 50 64 37q0 -9 -7 -14.5t-34 -30.5q-66 -61 -81 -61
q-22 8 -81 92z" />
    <glyph glyph-name="ccaron" unicode="&#x10d;" horiz-adv-x="315" 
d="M291 220l5 20q0 20 -15 20q-41 0 -112 -64t-90 -129q-5 -17 -5 -30.5t6 -22.5q12 -18 37 -18t54 7q64 18 106.5 51.5t89.5 93.5q4 5 11 2.5t1 -15.5q-48 -65 -100.5 -105.5t-121.5 -52.5q-20 -3 -37 -3q-49 0 -74.5 24t-25.5 53t14 63q25 57 107 117t130 60q12 0 23 -3
q28 -10 28 -32q0 -15 -11 -34t-16.5 -13.5t-3.5 11.5zM206 444q-4 7 -4 13.5t4.5 6.5t8.5 -3.5t25 -20.5q49 -41 60 -52q16 10 45 33t46.5 34t17.5 2t-7 -14t-34 -31q-66 -60 -81 -60q-22 8 -81 92z" />
    <glyph glyph-name="Dcaron" unicode="&#x10e;" horiz-adv-x="567" 
d="M81 309l-2 16q0 70 61 125q109 97 352 120q37 3 86.5 3t125.5 -14.5t125 -53.5q78 -64 78 -167.5t-61.5 -191t-156.5 -135.5t-203 -48t-175 51q-1 -1 -9.5 -17t-17.5 -31q-46 -73 -82 -20q-21 31 -21 74t9 104q1 6 -8 28q-3 10 7 20q8 6 22.5 10t20 0t-2.5 -21.5
t-8 -32.5t31 -44.5t38 -31.5q24 59 102 221q9 18 9 27t-2 14q5 29 63.5 92t94.5 63q14 0 35 -9.5t24 -26.5q0 -6 -1 -6.5t-5 1.5t-6 2q-32 0 -75.5 -46.5t-86.5 -121.5q-76 -130 -122 -230q62 -45 135 -45q95 0 182 49t140 113q86 105 86 207q0 75 -59.5 134t-188.5 63h-12
q-102 0 -215 -33.5t-193 -95.5t-80 -129q0 -17 10.5 -30t22 -18t29 -11t23 -8.5t6.5 -5.5q2 -8 -14 -8q-37 3 -74.5 27.5t-37.5 57.5q0 5 1 10zM216 90q0 -135 19 -135q14 0 40 70q2 3 2 4q-7 6 -29.5 29.5t-31.5 31.5zM564 715q-5 7 -5 13.5t5 6.5t8.5 -3.5t41 -34
t43.5 -38.5q18 11 47 34t45 33.5t17 2.5q0 -9 -8 -16l-34 -30q-66 -60 -79 -60q-26 9 -81 92z" />
    <glyph glyph-name="dcaron" unicode="&#x10f;" horiz-adv-x="704" 
d="M177 250q48 28 76 35t55 7t51 -18q137 318 262 318q42 0 57 -24q7 -12 7 -21q0 -25 -21.5 -63.5t-66.5 -84.5t-129 -113.5t-93 -75.5q-32 -74 -50 -143t-18 -103t12 -54q6 -13 18 -15.5t20.5 3t13 9.5t11 7.5t9.5 1.5t-1 -11q-8 -10 -15 -17q-16 -11 -37.5 -11t-28.5 1
q-48 8 -48 70q0 60 16 111q22 70 40 116q-160 -186 -227 -186q-16 0 -34.5 9.5t-31.5 27t-13 37.5t9 38q20 42 64.5 81.5t92.5 67.5zM351 258q-12 6 -42 6t-77.5 -24.5t-89.5 -61.5q-35 -33 -61.5 -74.5t-26.5 -60.5q0 -37 21 -37t64 34q111 91 198 184zM644 510
q13 24 13 40.5t-14.5 16.5t-38.5 -18q-110 -84 -199 -281q65 42 136 112t103 130zM776 522q0 -20 -42 -73q-50 -57 -59 -63.5t-12.5 -6.5t-3.5 6t29 39t39 68q8 16 1 29.5t-6 22.5q8 10 23.5 10t23 -11t7.5 -21z" />
    <glyph glyph-name="Dcroat" unicode="&#x110;" horiz-adv-x="567" 
d="M81 309l-2 16q0 70 61 125q109 97 352 120q37 3 86.5 3t125.5 -14.5t125 -53.5q78 -64 78 -167.5t-61.5 -191t-156.5 -135.5t-203 -48t-175 51q-1 -1 -9.5 -17t-17.5 -31q-46 -73 -82 -20q-21 31 -21 74t9 104q1 6 -8 28q-3 10 7 20q8 6 22.5 10t20 0t-2.5 -21.5
t-8 -32.5t31 -44.5t38 -31.5l55 121q-21 -1 -48.5 -2t-26 12t20.5 22q6 3 11 3h59q6 14 17 35.5t17 34.5t6 22t-2 14q5 29 63.5 92t94.5 63q14 0 35 -9.5t24 -26.5q0 -6 -1 -6.5t-5 1.5t-6 2q-70 0 -194 -221h41q53 0 55 -12q0 -10 -38 -15l-16 -2l-60 -5q-34 -62 -72 -143
q62 -45 135 -45q95 0 182 49t140 113q86 105 86 207q0 75 -59.5 134t-188.5 63h-12q-102 0 -215 -33.5t-193 -95.5t-80 -129q0 -17 10.5 -30t22 -18t29 -11t23 -8.5t6.5 -5.5q2 -8 -14 -8q-37 3 -74.5 27.5t-37.5 57.5q0 5 1 10zM216 90q0 -135 19 -135q14 0 40 70q2 3 2 4
q-7 6 -29.5 29.5t-31.5 31.5z" />
    <glyph glyph-name="dcroat" unicode="&#x111;" horiz-adv-x="469" 
d="M685 542q0 -36 -48 -97q52 -2 52 -11q0 -11 -73 -17h-5q-54 -59 -134.5 -123.5t-101.5 -83.5q-32 -74 -50 -143t-18 -103t12 -54q6 -13 18 -15.5t20.5 3t13 9.5t11 7.5t9.5 1.5t-1 -11q-8 -10 -15 -17q-16 -11 -37.5 -11t-28.5 1q-48 8 -48 70q0 60 16 111q22 70 40 116
q-160 -186 -227 -186q-16 0 -34.5 9.5t-31.5 27t-13 37.5t9 38q20 42 64.5 81.5t92.5 67.5t76 35t55 7t51 -18q24 59 65 134q-9 -1 -30 -1t-21 10q0 14 28 25l15 3h29q88 147 175 147q43 0 58 -24q7 -12 7 -26zM351 258q-12 6 -42 6t-77.5 -24.5t-89.5 -61.5
q-35 -33 -61.5 -74.5t-26.5 -60.5q0 -37 21 -37t64 34q111 91 198 184zM505 445l95 2q27 34 42 60.5t15 43t-14.5 16.5t-38.5 -18q-58 -44 -99 -104zM405 268q90 60 167 146l-92 -4q-41 -63 -75 -142z" />
    <glyph glyph-name="Emacron" unicode="&#x112;" horiz-adv-x="525" 
d="M573 509.5q7 -0.5 12.5 -5.5t17 -33t11.5 -46.5t-4.5 -39t-14.5 -20.5q-17 0 -28 39.5t-16 49.5q-28 59 -60 86q-29 27 -59 27q-13 0 -26 -5q-64 -27 -64 -126q0 -32 12 -75.5t37 -76.5q5 -6 53 -10q25 -3 29 -17.5t-12 -22.5q-9 -11 -69 6q-16 4 -21 5q-54 -1 -122 -24
t-125 -70.5t-57 -104.5q0 -43 35 -69.5t112.5 -26.5t173 24t150 52t107.5 79t53 88q0 6 -0.5 10t1.5 5q6 3 10 -1q13 -25 13 -39q0 -41 -27 -74q-47 -57 -106 -90t-161.5 -56t-170.5 -23t-115.5 12t-82.5 48t-35 88.5t25.5 89t61 56.5t85.5 33q74 20 165 25q-65 74 -77 171
q-1 11 -1 21q0 36 17.5 66.5t58.5 43.5t61 13t29.5 -2.5t16.5 -5t14 -7l12 -7.5t12 -9.5t10 -9t11 -10t10 -8.5q15 -18 29 -21q2 -2 9 -2.5zM400 675l149 2q51 0 55 -13q0 -7 -12 -10q-64 -12 -201 -15h-4q-19 0 -19 10q0 14 22 24z" />
    <glyph glyph-name="emacron" unicode="&#x113;" horiz-adv-x="319" 
d="M271 291q54 0 54 -52q0 -27 -15 -44q-25 -37 -81 -64.5t-95 -30.5q-14 -1 -15 8q-1 4 2.5 5t5.5 1q23 2 59 22q67 36 98 74q13 18 13 34.5t-16 16.5q-13 0 -35 -11q-47 -22 -99 -76.5t-68 -106.5q-5 -16 -5 -31.5t13 -29.5t40 -14q30 0 69 16q113 46 174 139q6 8 11 3
q8 -3 1 -12q-30 -50 -76 -89q-89 -76 -173 -76q-72 0 -101 43q-11 17 -11 41t13 57q25 57 107 117t130 60zM211 388l149 1q53 0 55 -12q0 -10 -38 -15l-16 -2q-132 -8 -157 -8t-25 9q0 15 22 24z" />
    <glyph glyph-name="Ebreve" unicode="&#x114;" horiz-adv-x="525" 
d="M573 509.5q7 -0.5 12.5 -5.5t17 -33t11.5 -46.5t-4.5 -39t-14.5 -20.5q-17 0 -28 39.5t-16 49.5q-28 59 -60 86q-29 27 -59 27q-13 0 -26 -5q-64 -27 -64 -126q0 -32 12 -75.5t37 -76.5q5 -6 53 -10q25 -3 29 -17.5t-12 -22.5q-9 -11 -69 6q-16 4 -21 5q-54 -1 -122 -24
t-125 -70.5t-57 -104.5q0 -43 35 -69.5t112.5 -26.5t173 24t150 52t107.5 79t53 88q0 6 -0.5 10t1.5 5q6 3 10 -1q13 -25 13 -39q0 -41 -27 -74q-47 -57 -106 -90t-161.5 -56t-170.5 -23t-115.5 12t-82.5 48t-35 88.5t25.5 89t61 56.5t85.5 33q74 20 165 25q-65 74 -77 171
q-1 11 -1 21q0 36 17.5 66.5t58.5 43.5t61 13t29.5 -2.5t16.5 -5t14 -7l12 -7.5t12 -9.5t10 -9t11 -10t10 -8.5q15 -18 29 -21q2 -2 9 -2.5zM547 650q-38 -18 -67.5 -18t-52.5 9q-50 22 -50 81q0 37 11 42t18.5 0t7.5 -17q0 -53 41 -76q21 -12 44 -12t49 13q52 25 74 93
q2 4 4 4t6 -3t4 -11q-17 -71 -89 -105z" />
    <glyph glyph-name="ebreve" unicode="&#x115;" horiz-adv-x="319" 
d="M271 291q54 0 54 -52q0 -27 -15 -44q-25 -37 -81 -64.5t-95 -30.5q-14 -1 -15 8q-1 4 2.5 5t5.5 1q23 2 59 22q67 36 98 74q13 18 13 34.5t-16 16.5q-13 0 -35 -11q-47 -22 -99 -76.5t-68 -106.5q-5 -16 -5 -31.5t13 -29.5t40 -14q30 0 69 16q113 46 174 139q6 8 11 3
q8 -3 1 -12q-30 -50 -76 -89q-89 -76 -173 -76q-72 0 -101 43q-11 17 -11 41t13 57q25 57 107 117t130 60zM195 441q0 45 20 45q5 0 11 -4.5t6 -15.5q0 -53 42 -76q20 -12 43.5 -12t50.5 13q51 25 73 93q1 4 3 4t5 -3q6 -2 6 -11q-17 -71 -90 -105q-38 -19 -68 -19t-53 11
q-49 22 -49 80z" />
    <glyph glyph-name="Edotaccent" unicode="&#x116;" horiz-adv-x="525" 
d="M573 509.5q7 -0.5 12.5 -5.5t17 -33t11.5 -46.5t-4.5 -39t-14.5 -20.5q-17 0 -28 39.5t-16 49.5q-28 59 -60 86q-29 27 -59 27q-13 0 -26 -5q-64 -27 -64 -126q0 -32 12 -75.5t37 -76.5q5 -6 53 -10q25 -3 29 -17.5t-12 -22.5q-9 -11 -69 6q-16 4 -21 5q-54 -1 -122 -24
t-125 -70.5t-57 -104.5q0 -43 35 -69.5t112.5 -26.5t173 24t150 52t107.5 79t53 88q0 6 -0.5 10t1.5 5q6 3 10 -1q13 -25 13 -39q0 -41 -27 -74q-47 -57 -106 -90t-161.5 -56t-170.5 -23t-115.5 12t-82.5 48t-35 88.5t25.5 89t61 56.5t85.5 33q74 20 165 25q-65 74 -77 171
q-1 11 -1 21q0 36 17.5 66.5t58.5 43.5t61 13t29.5 -2.5t16.5 -5t14 -7l12 -7.5t12 -9.5t10 -9t11 -10t10 -8.5q15 -18 29 -21q2 -2 9 -2.5zM524 738v-12v-14q0 -11 -16 -34t-26 -23q-50 0 -50 25q0 7 29 32q42 35 52 35t11 -9z" />
    <glyph glyph-name="edotaccent" unicode="&#x117;" horiz-adv-x="319" 
d="M271 291q54 0 54 -52q0 -27 -15 -44q-25 -37 -81 -64.5t-95 -30.5q-14 -1 -15 8q-1 4 2.5 5t5.5 1q23 2 59 22q67 36 98 74q13 18 13 34.5t-16 16.5q-13 0 -35 -11q-47 -22 -99 -76.5t-68 -106.5q-5 -16 -5 -31.5t13 -29.5t40 -14q30 0 69 16q113 46 174 139q6 8 11 3
q4 -2 4 -5t-3 -7q-30 -50 -76 -89q-89 -76 -173 -76q-72 0 -101 43q-11 17 -11 41t13 57q25 57 107 117t130 60zM329 431q5 0 5 -6v-18q0 -7 -11 -23t-17 -16q-34 0 -34 17q0 7 20 23q30 23 37 23z" />
    <glyph glyph-name="Eogonek" unicode="&#x118;" horiz-adv-x="525" 
d="M152 -177q-35 -33 -61.5 -74.5t-26.5 -69.5t24 -27q27 2 93 57l52 44.5l23 20t9.5 6.5t6.5 0.5t2 -4.5q2 -8 -7 -17l-15 -19q-83 -106 -152 -106q-38 0 -64 34q-14 20 -14 40t10 39q20 42 70 77q30 21 155 101h-6q-62 0 -109.5 12t-82.5 48t-35 88.5t25.5 89t61 56.5
t85.5 33q74 20 165 25q-65 74 -77 171q-1 11 -1 21q0 36 17.5 66.5t58.5 43.5t61 13t29.5 -2.5t16.5 -5t14 -7l12 -7.5t12 -9.5t10 -9t11 -10t10 -8.5q15 -18 29 -21q2 -2 9 -2.5t12.5 -5.5t17 -33t11.5 -46.5t-4.5 -39t-14.5 -20.5q-17 0 -28 39.5t-16 49.5q-28 59 -60 86
q-29 27 -59 27q-13 0 -26 -5q-64 -27 -64 -126q0 -32 12 -75.5t37 -76.5q5 -6 53 -10q25 -3 29 -17.5t-12 -22.5q-9 -11 -69 6q-16 4 -21 5q-54 -1 -122 -24t-125 -70.5t-57 -104.5q0 -43 35 -69.5t112.5 -26.5t173 24t150 52t107.5 79t53 88q0 6 -0.5 10t1.5 5q6 3 10 -1
q13 -25 13 -39q0 -41 -27 -74q-47 -57 -101.5 -87.5t-139.5 -51.5t-159 -27q-20 -19 -69 -51t-74 -54z" />
    <glyph glyph-name="eogonek" unicode="&#x119;" horiz-adv-x="319" 
d="M271 291q54 0 54 -52q0 -27 -15 -44q-25 -37 -81 -64.5t-95 -30.5q-14 -1 -15 8q-1 4 2.5 5t5.5 1q23 2 59 22q67 36 98 74q13 18 13 34.5t-16 16.5q-13 0 -35 -11q-47 -22 -99 -76.5t-68 -106.5q-5 -16 -5 -31.5t13 -29.5t40 -14q30 0 69 16q113 46 174 139q6 8 11 3
q4 -2 4 -5t-3 -7q-30 -50 -75.5 -89t-91 -57.5t-82.5 -18.5q-11 0 -22 1v-1q-15 -15 -56 -41.5t-66.5 -50.5t-46.5 -57t-21 -48t6 -24q18 -12 55 16q34 24 62 48.5l36.5 31.5t11.5 1.5t-2 -11t-13.5 -16.5l-16.5 -20.5t-22 -23t-27 -22.5q-33 -23 -62.5 -23t-45 22t-15.5 38
q0 50 64 94l78.5 51t54.5 35.5t9 3.5q-47 10 -64 43q-8 15 -8 38t12 56q25 57 107 117t130 60z" />
    <glyph glyph-name="Ecaron" unicode="&#x11a;" horiz-adv-x="525" 
d="M573 509.5q7 -0.5 12.5 -5.5t17 -33t11.5 -46.5t-4.5 -39t-14.5 -20.5q-17 0 -28 39.5t-16 49.5q-28 59 -60 86q-29 27 -59 27q-13 0 -26 -5q-64 -27 -64 -126q0 -32 12 -75.5t37 -76.5q5 -6 53 -10q25 -3 29 -17.5t-12 -22.5q-9 -11 -69 6q-16 4 -21 5q-54 -1 -122 -24
t-125 -70.5t-57 -104.5q0 -43 35 -69.5t112.5 -26.5t173 24t150 52t107.5 79t53 88q0 6 -0.5 10t1.5 5q6 3 10 -1q13 -25 13 -39q0 -41 -27 -74q-47 -57 -106 -90t-161.5 -56t-170.5 -23t-115.5 12t-82.5 48t-35 88.5t25.5 89t61 56.5t85.5 33q74 20 165 25q-65 74 -77 171
q-1 11 -1 21q0 36 17.5 66.5t58.5 43.5t61 13t29.5 -2.5t16.5 -5t14 -7l12 -7.5t12 -9.5t10 -9t11 -10t10 -8.5q15 -18 29 -21q2 -2 9 -2.5zM417 725q-4 7 -4 13.5t4.5 6.5t8.5 -3.5l24.5 -20.5l38 -31.5t22.5 -20.5q18 11 47 34t45 33.5t17 2.5q0 -9 -11 -19q-6 -4 -31 -27
q-65 -60 -79 -60q-23 8 -82 92z" />
    <glyph glyph-name="ecaron" unicode="&#x11b;" horiz-adv-x="319" 
d="M271 291q54 0 54 -52q0 -27 -15 -44q-25 -37 -81 -64.5t-95 -30.5q-14 -1 -15 8q-1 4 2.5 5t5.5 1q23 2 59 22q67 36 98 74q13 18 13 34.5t-16 16.5q-13 0 -35 -11q-47 -22 -99 -76.5t-68 -106.5q-5 -16 -5 -31.5t13 -29.5t40 -14q30 0 69 16q113 46 174 139q6 8 11 3
q8 -3 1 -12q-30 -50 -76 -89q-89 -76 -173 -76q-72 0 -101 43q-11 17 -11 41t13 57q25 57 107 117t130 60zM266.5 399.5q-25.5 30.5 -36.5 47.5t-11 23.5t4.5 6.5t10 -5t41.5 -35t42 -37q18 11 47.5 34.5t45.5 34t16 1t-8 -15.5t-34 -30q-65 -60 -79 -60q-13 5 -38.5 35.5z
" />
    <glyph glyph-name="Gcircumflex" unicode="&#x11c;" horiz-adv-x="621" 
d="M337 -3q-31 -6 -62 -6q-101 0 -160 65q-41 46 -41 117q0 153 138 280q154 137 375 137q63 0 109 -24q37 -20 37 -60q0 -17 -10 -19q-13 -3 -14 15q-4 66 -102 66q-44 0 -108.5 -21.5t-133.5 -61.5t-129 -88.5t-98.5 -109.5t-38.5 -122t42.5 -93.5t104.5 -32.5
q68 0 158 24q50 15 95 42.5t69 48.5q45 38 91 84q24 61 79 71q23 4 50 0l12 -2q9 -2 9 -5q0 -10 -13 -9h-2q-54 0 -89 -101q-27 -81 -51 -145q53 12 70 12t24 -4t2.5 -9t-9 -3t-16 2t-45 -8.5t-39.5 -24.5q-100 -253 -242 -352q-64 -44 -114 -44q-19 0 -36 6q-46 17 -46 68
q0 61 63 133q122 141 333 209q26 79 48 157q-179 -169 -310 -192zM257 -296q0 -11 3 -22q10 -39 50 -39q59 0 124 79q97 121 158 291q-175 -57 -277 -185q-58 -71 -58 -124zM670 705.5q26 -31.5 35.5 -47.5t9.5 -22.5t-4 -6.5t-10 5q-5 6 -41 36.5t-41 36.5
q-18 -11 -47.5 -35t-46 -34.5t-16.5 -1.5t6.5 14t34.5 30q64 60 81 62q13 -5 39 -36.5z" />
    <glyph glyph-name="gcircumflex" unicode="&#x11d;" horiz-adv-x="416" 
d="M13 -381q-8 0 -20 3q-51 13 -51 53.5t52.5 101.5t221.5 173q72 147 100 233q-56 -68 -80 -94q-90 -100 -145 -100q-16 0 -34.5 9.5t-31.5 27t-13 37.5q0 53 74 119q44 40 92 68t76 35t54 7t46 -14t20 -28q0 -8 -8 -5q-11 19 -48.5 19t-85 -24.5t-85.5 -58t-64.5 -76
t-26.5 -62.5q0 -35 20 -35q28 0 86 46q86 67 165 163q13 19 54 -1q16 -8 13 -14q-13 -29 -47.5 -100.5l-51.5 -107.5q23 12 78.5 60.5t97.5 97.5q22 26 22 8q0 -25 -120 -132q-69 -62 -98 -78q-85 -175 -114 -220q-75 -111 -148 -111zM197 -88q-120 -90 -172 -142.5
t-52 -98.5q0 -14 9 -20t19 -6t29 15t32.5 29.5t23.5 27t22.5 32l19.5 30.5t19.5 34.5l17 32t17 34.5zM415 357q4 -7 4 -13.5t-4 -6.5t-10 5.5t-42 36t-41 35.5q-17 -10 -46 -33.5t-46 -34.5t-17 -2.5t7.5 15l33.5 29.5q67 61 81 61q25 -9 80 -92z" />
    <glyph glyph-name="Gbreve" unicode="&#x11e;" horiz-adv-x="621" 
d="M337 -3q-31 -6 -62 -6q-101 0 -160 65q-41 46 -41 117q0 153 138 280q154 137 375 137q63 0 109 -24q37 -20 37 -60q0 -17 -10 -19q-13 -3 -14 15q-4 66 -102 66q-44 0 -108.5 -21.5t-133.5 -61.5t-129 -88.5t-98.5 -109.5t-38.5 -122t42.5 -93.5t104.5 -32.5
q68 0 158 24q50 15 95 42.5t69 48.5q45 38 91 84q24 61 79 71q23 4 50 0l12 -2q9 -2 9 -5q0 -10 -13 -9h-2q-54 0 -89 -101q-27 -81 -51 -145q53 12 70 12t24 -4t2.5 -9t-9 -3t-16 2t-45 -8.5t-39.5 -24.5q-100 -253 -242 -352q-64 -44 -114 -44q-19 0 -36 6q-46 17 -46 68
q0 61 63 133q122 141 333 209q26 79 48 157q-179 -169 -310 -192zM257 -296q0 -11 3 -22q10 -39 50 -39q59 0 124 79q97 121 158 291q-175 -57 -277 -185q-58 -71 -58 -124zM668 655q-38 -18 -67.5 -18t-52.5 9q-50 22 -50 81q0 37 11 42t18.5 0t7.5 -17q0 -53 41 -76
q21 -12 44 -12t50 13q52 25 74 93q1 5 3 5t6 -3.5t4 -11.5q-17 -71 -89 -105z" />
    <glyph glyph-name="gbreve" unicode="&#x11f;" horiz-adv-x="416" 
d="M13 -381q-8 0 -20 3q-51 13 -51 53.5t52.5 101.5t221.5 173q72 147 100 233q-56 -68 -80 -94q-90 -100 -145 -100q-16 0 -34.5 9.5t-31.5 27t-13 37.5q0 53 74 119q44 40 92 68t76 35t54 7t46 -14t20 -28q0 -8 -8 -5q-11 19 -48.5 19t-85 -24.5t-85.5 -58t-64.5 -76
t-26.5 -62.5q0 -35 20 -35q28 0 86 46q86 67 165 163q13 19 54 -1q16 -8 13 -14q-13 -29 -47.5 -100.5l-51.5 -107.5q23 12 78.5 60.5t97.5 97.5q22 26 22 8q0 -25 -120 -132q-69 -62 -98 -78q-85 -175 -114 -220q-75 -111 -148 -111zM197 -88q-120 -90 -172 -142.5
t-52 -98.5q0 -14 9 -20t19 -6t29 15t32.5 29.5t23.5 27t22.5 32l19.5 30.5t19.5 34.5l17 32t17 34.5zM411 373q-38 -18 -68 -18t-53 11q-48 22 -48 80q0 37 11 42t18.5 -0.5t7.5 -16.5q0 -53 41 -76q21 -12 44 -12t50 13q51 25 73 93q2 3 4.5 3t3.5 -2q6 -2 6 -11
q-17 -71 -90 -106z" />
    <glyph glyph-name="Gdotaccent" unicode="&#x120;" horiz-adv-x="621" 
d="M337 -3q-31 -6 -62 -6q-101 0 -160 65q-41 46 -41 117q0 153 138 280q154 137 375 137q63 0 109 -24q37 -20 37 -60q0 -17 -10 -19q-13 -3 -14 15q-4 66 -102 66q-44 0 -108.5 -21.5t-133.5 -61.5t-129 -88.5t-98.5 -109.5t-38.5 -122t42.5 -93.5t104.5 -32.5
q68 0 158 24q50 15 95 42.5t69 48.5q45 38 91 84q24 61 79 71q23 4 50 0l12 -2q9 -2 9 -5q0 -10 -13 -9h-2q-54 0 -89 -101q-27 -81 -51 -145q53 12 70 12t24 -4t2.5 -9t-9 -3t-16 2t-45 -8.5t-39.5 -24.5q-100 -253 -242 -352q-64 -44 -114 -44q-19 0 -36 6q-46 17 -46 68
q0 61 63 133q122 141 333 209q26 79 48 157q-179 -169 -310 -192zM257 -296q0 -11 3 -22q10 -39 50 -39q59 0 124 79q97 121 158 291q-175 -57 -277 -185q-58 -71 -58 -124zM663 706l-1 -14q0 -10 -13.5 -30t-21.5 -20q-43 0 -43 22q0 7 25 27.5t32 25t11 4.5h6q5 0 5 -15z
" />
    <glyph glyph-name="gdotaccent" unicode="&#x121;" horiz-adv-x="416" 
d="M13 -381q-8 0 -20 3q-51 13 -51 53.5t52.5 101.5t221.5 173q72 147 100 233q-56 -68 -80 -94q-90 -100 -145 -100q-16 0 -34.5 9.5t-31.5 27t-13 37.5q0 53 74 119q44 40 92 68t76 35t54 7t46 -14t20 -28q0 -8 -8 -5q-11 19 -48.5 19t-85 -24.5t-85.5 -58t-64.5 -76
t-26.5 -62.5q0 -35 20 -35q28 0 86 46q86 67 165 163q13 19 54 -1q16 -8 13 -14q-13 -29 -47.5 -100.5l-51.5 -107.5q23 12 78.5 60.5t97.5 97.5q22 26 22 8q0 -25 -120 -132q-69 -62 -98 -78q-85 -175 -114 -220q-75 -111 -148 -111zM197 -88q-120 -90 -172 -142.5
t-52 -98.5q0 -14 9 -20t19 -6t29 15t32.5 29.5t23.5 27t22.5 32l19.5 30.5t19.5 34.5l17 32t17 34.5zM381 425q5 0 5 -6v-19q0 -6 -10.5 -22t-16.5 -16q-34 0 -34 17q0 7 20 23q29 23 36 23z" />
    <glyph glyph-name="Gcommaaccent" unicode="&#x122;" horiz-adv-x="621" 
d="M337 -3q-31 -6 -62 -6q-101 0 -160 65q-41 46 -41 117q0 153 138 280q154 137 375 137q63 0 109 -24q37 -20 37 -60q0 -17 -10 -19q-13 -3 -14 15q-4 66 -102 66q-44 0 -108.5 -21.5t-133.5 -61.5t-129 -88.5t-98.5 -109.5t-38.5 -122t42.5 -93.5t104.5 -32.5
q68 0 158 24q50 15 95 42.5t69 48.5q45 38 91 84q24 61 79 71q23 4 50 0l12 -2q9 -2 9 -5q0 -10 -13 -9h-2q-54 0 -89 -101q-27 -81 -51 -145q53 12 70 12t24 -4t2.5 -9t-9 -3t-16 2t-45 -8.5t-39.5 -24.5q-100 -253 -242 -352q-64 -44 -114 -44q-19 0 -36 6q-46 17 -46 68
q0 61 63 133q122 141 333 209q26 79 48 157q-179 -169 -310 -192zM257 -296q0 -11 3 -22q10 -39 50 -39q59 0 124 79q97 121 158 291q-175 -57 -277 -185q-58 -71 -58 -124zM226.5 -67q7.5 -11 7.5 -24.5t-42 -68t-65 -68.5q-4 -3 -7.5 -3t-3.5 6.5t23 29.5q62 77 44 107
q-7 11 -3.5 21.5t21.5 10.5t25.5 -11z" />
    <glyph glyph-name="gcommaaccent" unicode="&#x123;" horiz-adv-x="416" 
d="M314.5 371.5q-7.5 11.5 -7.5 25.5t44 68q54 70 69 70q5 0 5 -5.5t-23 -30.5q-62 -76 -44 -106q7 -12 3.5 -22.5t-21.5 -10.5t-25.5 11.5zM13 -381q-8 0 -20 3q-51 13 -51 53.5t52.5 101.5t221.5 173q72 147 100 233q-56 -68 -80 -94q-90 -100 -145 -100q-16 0 -34.5 9.5
t-31.5 27t-13 37.5q0 53 74 119q44 40 92 68t76 35t54 7t46 -14t20 -28q0 -8 -8 -5q-11 19 -48.5 19t-85 -24.5t-85.5 -58t-64.5 -76t-26.5 -62.5q0 -35 20 -35q28 0 86 46q86 67 165 163q13 19 54 -1q16 -8 13 -14q-13 -29 -47.5 -100.5l-51.5 -107.5q23 12 78.5 60.5
t97.5 97.5q22 26 22 8q0 -25 -120 -132q-69 -62 -98 -78q-85 -175 -114 -220q-75 -111 -148 -111zM197 -88q-120 -90 -172 -142.5t-52 -98.5q0 -14 9 -20t19 -6t29 15t32.5 29.5t23.5 27t22.5 32l19.5 30.5t19.5 34.5l17 32t17 34.5z" />
    <glyph glyph-name="Hcircumflex" unicode="&#x124;" horiz-adv-x="529" 
d="M590 219l-248 33q-152 -345 -295 -389q-26 -9 -46 -9q-75 0 -92 63q-1 4 -1 8.5t1.5 11t6.5 4.5t10 -19q9 -29 38 -37q22 -4 38.5 -4t28.5 4q146 46 273 372l-53 3q-14 1 -26 1q-127 0 -156 -82q-5 -11 -5 -21t6 -20t-3.5 -12.5t-15.5 6.5q-11 20 -11 37q0 61 22.5 90.5
t52.5 38.5q36 10 80 10l61 -6q32 -3 61 -9q24 64 58 172q-53 -47 -130 -55q-10 -1 -10.5 7t11.5 10q43 4 88.5 44t69.5 94q2 12 33 12t30 -12l-44.5 -115.5t-66.5 -164.5q26 -5 76 -17q102 -23 165 -30q58 123 72.5 157.5t14.5 43.5t-3 14q3 28 43.5 73.5t76.5 45.5
q16 0 38.5 -11.5t22.5 -29.5q0 -4 -5 -1t-7 3q-25 0 -58 -35.5t-65 -91.5q-49 -87 -87 -172q86 0 115 36q5 9 10 2.5t-3.5 -19t-37.5 -24.5t-92 -12q-47 -111 -47 -174q0 -49 28.5 -49t85 44t106.5 111q3 4 9 1.5t3.5 -9t-15.5 -25.5q-42 -57 -103 -106q-45 -35 -98 -35
q-27 0 -41.5 16t-16 30t-1.5 26t4 37q10 64 44 135zM734 627q4 -7 4 -13.5t-4 -6.5t-9.5 5t-41.5 35.5t-42 36.5q-17 -11 -47 -34q-63 -51 -63 -36q0 9 11 18q5 4 30 27q67 60 82 60q25 -10 80 -92z" />
    <glyph glyph-name="hcircumflex" unicode="&#x125;" horiz-adv-x="456" 
d="M383 585q18 7 31 7q44 0 58 -24q8 -12 8 -21q0 -68 -114 -171q-101 -89 -186 -153q-28 -63 -58 -155q36 44 91 102q111 115 155 115q22 0 23 -22q2 -23 -9.5 -44l-21.5 -39q-47 -78 -47 -139q0 -20 8 -29q14 -16 40 -2t72.5 56t75.5 82q5 5 9.5 2.5t4.5 -5t-2 -5.5
q-15 -27 -54 -68.5t-63 -59.5q-46 -35 -88 -35q-38 0 -51 38q-3 9 -3 21.5t2 26.5q5 42 53 131q10 18 10 25.5t-8 7.5q-16 0 -62 -40q-31 -29 -91.5 -109.5t-68.5 -85.5q-36 -18 -44.5 -18t-9.5 2.5t1 6.5t16 44q47 133 64 176q-33 -42 -82 -95q-8 -8 -8 3.5t9 23.5
t37.5 46.5t40.5 51.5q-9 5 -9.5 14t6 12.5t21.5 -2.5q10 14 18 31q119 256 226 297zM439 510q13 24 13 40.5t-14.5 16.5t-38.5 -18q-110 -84 -199 -281q65 42 136 112t103 130zM457 675.5q26 -31.5 36 -47.5t10 -22.5t-4 -6.5t-10 5.5t-41.5 35.5t-41.5 37q-17 -11 -46 -35
q-64 -51 -64 -36q0 9 7.5 15t34.5 30q65 59 81 61q12 -5 38 -36.5z" />
    <glyph glyph-name="Hbar" unicode="&#x126;" horiz-adv-x="529" 
d="M431 473l251 1h5q16 34 50 66t64 32q16 0 38.5 -11.5t22.5 -29.5q0 -4 -5 -1t-7 3q-34 0 -81 -64q31 -3 33 -9q0 -9 -50 -13q-54 -80 -112 -213q86 0 115 36q5 9 10 2.5t-3.5 -19t-37.5 -24.5t-92 -12q-47 -111 -47 -174q0 -49 28.5 -49t85 44t106.5 111q3 4 9 1.5
t3.5 -9t-15.5 -25.5q-42 -57 -103 -106q-45 -35 -98 -35q-27 0 -41.5 16t-16 30t-1.5 26t4 37q10 64 44 135l-248 33q-152 -345 -295 -389q-26 -9 -46 -9q-75 0 -92 63q-1 4 -1 8.5t1.5 11t6.5 4.5t10 -19q9 -29 38 -37q22 -4 38.5 -4t28.5 4q146 46 273 372l-53 3
q-14 1 -26 1q-127 0 -156 -82q-5 -11 -5 -21t6 -20t-3.5 -12.5t-15.5 6.5q-11 20 -11 37q0 61 22.5 90.5t52.5 38.5q36 10 80 10l61 -6q32 -3 61 -9q16 43 47 139h-40q-34 -16 -79 -22q-10 -1 -10.5 7t16.5 9.5t40 15.5q-1 6 11 13.5t29 12.5q47 41 73 97q2 12 33 12t30 -12
zM597 238q87 184 87 204l-268 -9q-32 -85 -60 -148q26 -5 76 -17q102 -23 165 -30z" />
    <glyph glyph-name="hbar" unicode="&#x127;" horiz-adv-x="456" 
d="M418 592q40 0 54 -24q8 -12 8 -21q0 -68 -114 -171q-101 -89 -186 -153q-28 -63 -58 -155q36 44 91 102q111 115 155 115q22 0 23 -22q2 -23 -9.5 -44l-21.5 -39q-47 -78 -47 -139q0 -20 8 -29q14 -16 40 -2t72.5 56t75.5 82q5 5 9.5 2.5t4.5 -5t-2 -5.5
q-15 -27 -54 -68.5t-63 -59.5q-46 -35 -88 -35q-38 0 -51 38q-3 9 -3 21.5t2 26.5q5 42 53 131q10 18 10 25.5t-8 7.5q-16 0 -62 -40q-31 -29 -91.5 -109.5t-68.5 -85.5q-36 -18 -44.5 -18t-9.5 2.5t1 6.5t16 44q47 133 64 176q-33 -42 -82 -95q-8 -8 -8 3.5t9 23.5
t37.5 46.5t40.5 51.5q-9 5 -9.5 14t6 12.5t21.5 -2.5q10 15 19 34q23 50 34 69q-56 -2 -76 -3t-19 12q2 14 22 22l10 3q47 0 82 1q114 197 207 197zM439 510q13 24 13 40.5t-14.5 16.5t-38.5 -18q-75 -56 -134 -154h12q53 0 55 -12q0 -12 -45 -15q-7 -1 -15 -2.5t-25 -1.5
q-24 -43 -47 -96q65 42 136 112t103 130z" />
    <glyph glyph-name="Itilde" unicode="&#x128;" horiz-adv-x="312" 
d="M196 408q0 -16 8.5 -28t15.5 -17q14 -9 36 -20q12 -9 5 -11q-3 0 -7 1q-24 5 -51 29t-28 55q-3 11 -3 19q0 43 36 75q67 57 213 57q0 4 3 10q1 7 15.5 10t27.5 0.5t12 -10.5q-4 -8 -5 -13q64 -4 107 -26q14 -7 20.5 -17t6.5 -14q0 -9 -36.5 3.5t-111.5 12.5
q-5 -21 -34.5 -106t-37.5 -105.5l-22 -57t-25 -59.5l-25 -52q-24 -49 -57 -92q-25 -29 -38 -39h66t86 2.5t40.5 -0.5t0.5 -7q-6 -10 -16 -15.5t-147 -9.5t-171 -4h-49q-23 1 -23 18q0 9 6 25q7 16 27.5 20.5t36.5 -8.5q27 -22 53 -22t53.5 10t55.5 46q81 108 170 455
q-92 -8 -153 -37.5t-61 -77.5zM587 702q2 3 10 3t8 -5q0 -23 -40 -52q-17 -12 -30.5 -12t-22 3t-28 11.5t-27.5 11.5q-44 13 -56 6q-32 -8 -50 -35q-2 -2 -8.5 -2t-6.5 5l10 14.5t22.5 29t30 23.5t28.5 9t19 -3t37 -18q43 -22 68 -22t36 33z" />
    <glyph glyph-name="itilde" unicode="&#x129;" 
d="M237 71q-39 -42 -71 -65q-39 -29 -85 -29q-9 0 -24 8q-24 14 -24 48t32 105q-5 -11 -39 -50q-9 -10 -14 0q-1 2 -1 5.5t4 8.5q49 61 77 103q-2 5 2 13q20 56 35 59h7q25 0 30 -16q2 -9 -2.5 -17.5t-6.5 -13.5t-3 -8q-5 -10 -10 -19q-57 -114 -60 -145q-1 -9 -1 -23t8 -23
q14 -16 40 -2t72.5 56t75.5 82q4 5 10 2q15 -7 -52 -79zM61 370q-2 -2 -8.5 -2t-6.5 5q0 1 9.5 15t22.5 29t30.5 24t28.5 9t18.5 -3t36.5 -18q46 -23 64 -23q29 0 41 33q4 7 11 4t7 -5q0 -22 -41 -52q-17 -12 -30 -12t-22 3t-27.5 11t-27.5 11q-42 14 -56 6q-33 -8 -50 -35z
" />
    <glyph glyph-name="Imacron" unicode="&#x12a;" horiz-adv-x="312" 
d="M196 408q0 -16 8.5 -28t15.5 -17q14 -9 36 -20q12 -9 5 -11q-3 0 -7 1q-24 5 -51 29t-28 55q-3 11 -3 19q0 43 36 75q67 57 213 57q0 4 3 10q1 7 15.5 10t27.5 0.5t12 -10.5q-4 -8 -5 -13q64 -4 107 -26q14 -7 20.5 -17t6.5 -14q0 -9 -36.5 3.5t-111.5 12.5
q-5 -21 -34.5 -106t-37.5 -105.5l-22 -57t-25 -59.5l-25 -52q-24 -49 -57 -92q-25 -29 -38 -39h66t86 2.5t40.5 -0.5t0.5 -7q-6 -10 -16 -15.5t-147 -9.5t-171 -4h-49q-23 1 -23 18q0 9 6 25q7 16 27.5 20.5t36.5 -8.5q27 -22 53 -22t53.5 10t55.5 46q81 108 170 455
q-92 -8 -153 -37.5t-61 -77.5zM389 685l148 2q53 0 55 -13q0 -7 -12 -10q-64 -12 -200 -15h-4q-19 0 -19 10q0 14 22 24z" />
    <glyph glyph-name="imacron" unicode="&#x12b;" 
d="M237 71q-39 -42 -71 -65q-39 -29 -85 -29q-9 0 -24 8q-24 14 -24 48t32 105q-5 -11 -39 -50q-9 -10 -14 0q-1 2 -1 5.5t4 8.5q49 61 77 103q-2 5 2 13q20 56 35 59h7q25 0 30 -16q2 -9 -2.5 -17.5t-6.5 -13.5t-3 -8q-5 -10 -10 -19q-57 -114 -60 -145q-1 -9 -1 -23t8 -23
q14 -16 40 -2t72.5 56t75.5 82q4 5 10 2q15 -7 -52 -79zM100 405l149 2q51 0 55 -13q0 -7 -12 -10q-64 -12 -201 -15h-4q-19 0 -19 10q0 14 22 24q6 2 10 2z" />
    <glyph glyph-name="Ibreve" unicode="&#x12c;" horiz-adv-x="312" 
d="M196 408q0 -16 8.5 -28t15.5 -17q14 -9 36 -20q12 -9 5 -11q-3 0 -7 1q-24 5 -51 29t-28 55q-3 11 -3 19q0 43 36 75q67 57 213 57q0 4 3 10q1 7 15.5 10t27.5 0.5t12 -10.5q-4 -8 -5 -13q64 -4 107 -26q14 -7 20.5 -17t6.5 -14q0 -9 -36.5 3.5t-111.5 12.5
q-5 -21 -34.5 -106t-37.5 -105.5l-22 -57t-25 -59.5l-25 -52q-24 -49 -57 -92q-25 -29 -38 -39h66t86 2.5t40.5 -0.5t0.5 -7q-6 -10 -16 -15.5t-147 -9.5t-171 -4h-49q-23 1 -23 18q0 9 6 25q7 16 27.5 20.5t36.5 -8.5q27 -22 53 -22t53.5 10t55.5 46q81 108 170 455
q-92 -8 -153 -37.5t-61 -77.5zM434 626q-39 -18 -68.5 -18t-52.5 10q-49 22 -49 80q0 37 11 42t18.5 0t7.5 -16q0 -53 41 -76q21 -12 44.5 -12t49.5 13q52 25 74 93q1 4 2.5 4t6.5 -3.5t5 -10.5q-18 -72 -90 -106z" />
    <glyph glyph-name="ibreve" unicode="&#x12d;" 
d="M237 71q-39 -42 -71 -65q-39 -29 -85 -29q-9 0 -24 8q-24 14 -24 48t32 105q-5 -11 -39 -50q-9 -10 -14 0q-1 2 -1 5.5t4 8.5q49 61 77 103q-2 5 2 13q20 56 35 59h7q25 0 30 -16q2 -9 -2.5 -17.5t-6.5 -13.5t-3 -8q-5 -10 -10 -19q-57 -114 -60 -145q-1 -9 -1 -23t8 -23
q14 -16 40 -2t72.5 56t75.5 82q4 5 10 2q15 -7 -52 -79zM235 377q-38 -18 -68 -18t-53 11q-49 22 -49 80q0 36 11 41t18.5 0t7.5 -16q0 -53 42 -76q20 -12 43.5 -12t50.5 13q51 25 73 93q1 3 3 3t6.5 -2t4.5 -11q-17 -72 -90 -106z" />
    <glyph glyph-name="Iogonek" unicode="&#x12e;" horiz-adv-x="312" 
d="M37 -21q-29 1 -29 18q0 9 6 25q7 16 27.5 20.5t36.5 -8.5q27 -22 53 -22t53.5 10t55.5 46q81 108 170 455q-92 -8 -153 -37.5t-61 -77.5q0 -16 8.5 -28t15.5 -17q14 -9 36 -20q12 -9 5 -11q-3 0 -7 1q-24 5 -51 29t-28 55q-3 11 -3 19q0 43 36 75q67 57 213 57q0 4 3 10
q2 12 31 12q25 0 24 -12q-4 -8 -5 -13q64 -4 107 -26q14 -7 20.5 -17t6.5 -14q0 -9 -36.5 3.5t-111.5 12.5q-5 -21 -34.5 -106t-37.5 -105.5l-22 -57t-25 -59.5l-25 -52q-24 -49 -57 -92q-25 -29 -38 -39h66t86 2.5t40.5 -0.5t0.5 -7q-6 -10 -17 -16t-201 -10
q-14 -11 -58.5 -40t-68.5 -52q-35 -31 -61.5 -73.5t-26.5 -61.5t8 -30q13 -13 36 0.5t38.5 24.5t34 26l32.5 27q35 31 41 36q15 14 19.5 7t-6.5 -19l-12 -15q-46 -58 -80 -82q-40 -28 -77.5 -28t-62.5 33q-14 20 -14 40t10 39q20 43 72.5 79.5t134.5 86.5q-55 -1 -118 -1z
" />
    <glyph glyph-name="iogonek" unicode="&#x12f;" 
d="M62 -17q-29 12 -29 48t32 107q-5 -11 -39 -50q-9 -10 -13 -1.5t2 15.5q49 61 77 103q-2 5 2 13q20 56 35 59h7q25 0 30 -16q2 -9 -2.5 -17.5t-6.5 -13.5t-3 -8q-5 -10 -10 -19q-57 -114 -60 -145q-1 -9 -1 -23t8 -23q14 -16 40 -2t72.5 56t75.5 82q4 5 9 2.5t5 -5
t-2 -5.5q-15 -27 -54 -69t-74.5 -67.5t-72.5 -25.5h-6q-13 -13 -52.5 -38t-64.5 -49t-46 -57t-21 -48t6 -24q18 -12 56 16q33 24 61 48.5l36 31.5t11.5 1.5t-1.5 -11t-16.5 -20t-23 -27t-27.5 -27.5q-36 -31 -69.5 -31t-55.5 27q-11 16 -11 33q0 50 65 94l74 49zM215 410
l-8 -32q0 -9 -13 -29t-20 -20q-43 0 -43 21q0 4 43 37l17 13q16 14 20 14t4 -4z" />
    <glyph glyph-name="Idotaccent" unicode="&#x130;" horiz-adv-x="312" 
d="M196 408q0 -16 8.5 -28t15.5 -17q14 -9 36 -20q12 -9 5 -11q-3 0 -7 1q-24 5 -51 29t-28 55q-3 11 -3 19q0 43 36 75q67 57 213 57q0 4 3 10q1 7 15.5 10t27.5 0.5t12 -10.5q-4 -8 -5 -13q64 -4 107 -26q14 -7 20.5 -17t6.5 -14q0 -9 -36.5 3.5t-111.5 12.5
q-5 -21 -34.5 -106t-37.5 -105.5l-22 -57t-25 -59.5l-25 -52q-24 -49 -57 -92q-25 -29 -38 -39h66t86 2.5t40.5 -0.5t0.5 -7q-6 -10 -16 -15.5t-147 -9.5t-171 -4h-49q-23 1 -23 18q0 9 6 25q7 16 27.5 20.5t36.5 -8.5q27 -22 53 -22t53.5 10t55.5 46q81 108 170 455
q-92 -8 -153 -37.5t-61 -77.5zM540 736v-21q0 -10 -15 -32.5t-24 -22.5q-49 0 -49 25q0 3 20 21.5t28 24.5q23 17 31.5 17t8.5 -12z" />
    <glyph glyph-name="dotlessi" unicode="&#x131;" 
d="M237 71q-39 -42 -71 -65q-39 -29 -85 -29q-9 0 -24 8q-24 14 -24 48t32 105q-5 -11 -39 -50q-9 -10 -14 0q-1 2 -1 5.5t4 8.5q49 61 77 103q-2 5 2 13q20 56 35 59h7q25 0 30 -16q2 -9 -2.5 -17.5t-6.5 -13.5t-3 -8q-5 -10 -10 -19q-57 -114 -60 -145q-1 -9 -1 -23t8 -23
q14 -16 40 -2t72.5 56t75.5 82q4 5 9 2.5t5 -5t-2 -5.5q-15 -27 -54 -69z" />
    <glyph glyph-name="IJ" unicode="&#x132;" horiz-adv-x="696" 
d="M585 537q66 31 176 31q49 0 88 -8q26 29 52 29q8 0 10 -3.5t-1 -7.5t-14.5 -8t-23.5 -15q31 -9 46 -16t21 -16.5t6 -14.5q0 -9 -27.5 0t-63.5 14q-19 -44 -38 -116t-25 -92q54 13 72.5 13t25 -4t3 -9.5t-8 -3t-17 2.5t-45.5 -8.5t-39 -25.5q-92 -253 -233 -352
q-64 -45 -116 -45q-19 0 -36 6q-51 18 -51 74q0 13 3 26q-153 -10 -220.5 -10t-90 1t-26.5 6.5t-4 13t6 23.5q7 16 27.5 20.5t36.5 -8.5q27 -22 53 -22t53.5 10t55.5 46q81 108 170 455q-92 -8 -153 -37.5t-61 -77.5q0 -16 8.5 -28t15.5 -17q14 -9 36 -20q12 -9 5 -11
q-3 0 -7 1q-24 5 -51 29t-28 55q-3 11 -3 19q0 43 36 75q67 57 213 57q0 4 3 10q2 12 31 12q25 0 24 -12q-4 -8 -5 -13q63 -4 111 -28zM221 13h51t85 1q14 35 50 78q123 141 333 207q3 9 14 44.5t20 60.5q25 77 50 120h-36.5t-68.5 -5q-112 -13 -159 -57q-26 -24 -26 -55
q0 -25 18 -39q13 -11 26 -17t20.5 -11.5t-0.5 -7.5q-3 0 -7 1q-23 5 -50.5 29t-28.5 55q-2 12 -2 20q0 45 42 78q-45 9 -92 9q-5 -21 -34.5 -106t-37.5 -105.5l-22 -57t-25 -59.5l-25 -52q-24 -49 -57 -92q-25 -29 -38 -39zM398 -33q0 -36 28 -50q12 -6 27 -6q34 0 78 35
q22 18 44 44q93 114 159 290q-174 -57 -278 -185q-33 -39 -47 -78q9 -4 5 -11t-13 -12q-3 -15 -3 -27z" />
    <glyph glyph-name="ij" unicode="&#x133;" horiz-adv-x="441" 
d="M347 205l-65 -80q-20 -29 -54.5 -64.5t-57.5 -51.5q-45 -32 -84 -32q-38 0 -51 38q-2 7 -2 17q0 35 32 106q-5 -11 -39 -50q-9 -10 -13 -1.5t2 15.5q49 61 77 103q-2 5 2 13q20 56 35 59h7q25 0 30 -16q2 -9 -2.5 -17.5t-6.5 -13.5t-3 -8q-5 -10 -10 -19
q-57 -114 -60 -145q-1 -9 -1 -23t8 -23q14 -16 40 -2t72.5 56t75.5 82q9 9 83 109q20 18 56 -5q14 -9 11 -15l-109 -244q23 12 78 60.5t98 98.5q22 26 22 8q0 -25 -120 -132q-69 -62 -98 -78q-85 -175 -114 -220q-75 -111 -148 -111q-8 0 -20 3q-51 13 -51 53.5t52.5 101.5
t221.5 173q75 156 106 255zM222 -88q-120 -90 -172 -142.5t-52 -98.5q0 -14 9 -20t19 -6t29 15t32.5 29.5t23.5 27t22.5 32l19.5 30.5t19.5 34.5l17 32t17 34.5zM498 410l-8 -32q0 -9 -13.5 -29t-20.5 -20q-42 0 -42 21q0 7 60 50q16 14 20 14t4 -4zM215 410l-8 -32
q0 -9 -13 -29t-20 -20q-43 0 -43 21q0 4 43 37l17 13q16 14 20 14t4 -4z" />
    <glyph glyph-name="Jcircumflex" unicode="&#x134;" horiz-adv-x="384" 
d="M217 494q39 49 138 67q43 7 88 7t93 -8q26 29 53 29q7 0 9.5 -3.5t-0.5 -7.5t-13.5 -7.5t-24.5 -15.5q34 -10 47 -16.5t22 -20.5t-7 -13q-8 0 -26 6t-55 11q-18 -43 -38 -118l-24 -90q54 13 72.5 13t22.5 -2.5t4.5 -6.5t-1.5 -6.5t-6.5 -0.5t-16.5 2t-45 -8.5t-39 -25.5
q-92 -253 -234 -352q-63 -45 -115 -45q-19 0 -36 6q-51 17 -51 75.5t61 128.5q123 141 332 207l19 59q35 114 65 166h-36t-68 -5q-113 -13 -161 -57q-25 -24 -25 -55q0 -15 8.5 -27t16.5 -17q13 -9 35 -20q12 -9 5 -11q-3 0 -7 1q-24 5 -51 29t-28 55q-3 11 -3 18
q0 33 20 59zM86 -29q0 -11 2 -22q10 -38 50 -38q59 0 124 79q96 117 159 290q-175 -57 -277 -185q-58 -71 -58 -124zM659 637q4 -7 4 -13.5t-4 -6.5t-9.5 5t-41.5 35.5t-42 36.5q-17 -11 -46 -34q-64 -51 -64 -36q0 9 11 18q5 4 31 27q66 60 81 60q25 -10 80 -92z" />
    <glyph glyph-name="jcircumflex" unicode="&#x135;" horiz-adv-x="215" 
d="M-314 -309q0 -43 36 -58q13 -6 28 -6q38 0 84 37q36 30 74 87.5t54.5 89.5l49.5 101q-131 -55 -173 -78t-68 -42q-85 -62 -85 -131zM-325.5 -371q-34.5 20 -34.5 65q0 98 170 182q48 24 119 53t95 40q62 126 97 236l-33 -39.5t-32 -39.5t-13 -1q-2 7 3 14q19 23 51 66.5
t39 51.5q20 18 56 -5q13 -9 10 -15l-97 -218q92 50 165 133q22 26 22 8q0 -29 -111 -116q-63 -50 -96 -69l-29.5 -63.5l-31.5 -67.5t-32.5 -60.5t-40.5 -60.5q-51 -62 -97 -86q-54 -28 -99.5 -28t-80 20zM246 410.5q26 -31.5 36 -47.5t10 -22.5t-4.5 -6.5t-10.5 5
q-5 7 -40.5 37t-41.5 36q-18 -11 -47.5 -35t-46 -34.5t-16.5 -1.5t7.5 15t33.5 30q64 59 81 61q13 -5 39 -36.5z" />
    <glyph glyph-name="Kcommaaccent" unicode="&#x136;" horiz-adv-x="529" 
d="M334 565l-49 -124q-70 -180 -114 -269q29 36 90 102v14.5t1 24.5q3 11 10 16.5t12 -10.5q0 -5 2 -15l1 3q25 28 166 146t168 130.5t45.5 12.5t25.5 -8.5t7 -17t-8.5 -16t-21 -13.5t-78 -43t-119.5 -73q-130 -88 -180 -143q23 -83 46 -131t72.5 -108.5t90.5 -60.5
q17 0 24 9t5 23q-6 28 -18 45.5t-2.5 17.5t18 -8.5t16 -25t7.5 -28.5q-1 -28 -27 -44t-50 -16q-45 0 -82 26.5t-62 72.5q-45 84 -65 194q-112 -131 -154 -189q-103 -167 -197 -196q-27 -9 -47 -9q-74 0 -92 63q-1 4 -1 8.5t1.5 11t6.5 4.5t10 -19q10 -30 38 -37
q22 -4 38.5 -4t28.5 4q103 33 200 210q78 147 144 370q-53 -47 -130 -55q-7 0 -10 3.5t0 8t10 5.5q43 4 89.5 44.5t69.5 93.5q3 13 34.5 13t29.5 -13zM201 -108q0 -19 -44 -73q-38 -50 -62 -67q-4 -3 -7.5 -3t-3.5 6t22 30q34 42 42.5 68.5t2 38t-3.5 22t21 10.5t25.5 -11
t7.5 -21z" />
    <glyph glyph-name="kcommaaccent" unicode="&#x137;" horiz-adv-x="397" 
d="M448 580.5q22 -11.5 22 -37.5q0 -50 -86 -145q-46 -49 -103 -90t-101 -60q-39 -86 -69 -180l65 85q-1 9 -1 19q0 30 13 37q7 3 9 -12l4 -14q77 90 111 106q16 8 29 8t23 -7t10 -15q0 -14 -23 -25q-110 -53 -145 -90q24 -84 47 -132t72.5 -108t90.5 -60q34 0 28 30
q-4 27 -16.5 46.5t-2.5 19.5q9 -1 19 -9q6 -7 14 -24.5t8 -29.5q-1 -28 -27 -44t-50 -16q-47 0 -92 46.5t-75 112.5t-42 135q-18 -25 -40 -60q-45 -69 -54 -75q-36 -18 -44.5 -18t-10.5 2t0 6.5t14.5 38.5l31.5 86t33 87q-23 -25 -54 -69q-5 -7 -13.5 -4t5.5 21
q33 40 83 115q-15 8 -15 15.5t2 11.5q5 12 18 5q6 -2 8 -2q44 116 110 207q36 51 75 74.5t68 23.5t51 -11.5zM440 549q0 18 -15 18t-38 -18q-64 -49 -108 -111.5t-87 -155.5q93 43 169 130q25 29 52 74t27 63zM135 -103q0 -19 -44 -73q-38 -50 -62 -67q-4 -3 -8 -3t-4 6.5
t23 29.5q34 42 42.5 68.5t2 38t-3.5 22t21 10.5t25.5 -11t7.5 -21z" />
    <glyph glyph-name="kgreenlandic" unicode="&#x138;" horiz-adv-x="397" 
d="M217 198q86 99 134 99q13 0 23 -7t10 -15q0 -14 -23 -25q-6 -3 -29 -11q-53 -18 -81 -41.5t-42 -39.5q-2 -15 -2 -38.5t8.5 -53.5t23.5 -42t26 -12t21 6q27 13 68.5 51t70.5 79q7 9 14 6t7 -5t-2 -5q-70 -91 -120.5 -128.5t-73.5 -37.5h-1q-72 4 -72 100q0 20 3 45
q-22 -29 -50.5 -79t-33.5 -52q-36 -18 -44.5 -18t-10.5 2t0 6t15 41q47 128 68 180q-33 -42 -82 -95q-8 -8 -8 3.5t7 21.5q104 133 107.5 143l17.5 49q33 97 39 101t13 4t22 -13.5t15 -22.5t-4 -20t-9.5 -24l-8 -18.5t-12.5 -14t-20 -28t-42 -99.5t-45 -132q34 52 73 104
q9 30 12 37q2 12 10.5 15t9.5 -5q0 -5 -2 -11z" />
    <glyph glyph-name="Lacute" unicode="&#x139;" horiz-adv-x="471" 
d="M38 54l67 -6q22 0 33.5 4.5t17 2.5t-2.5 -7.5t-26.5 -8.5t-22.5 -5q16 -6 35 -17l53 -33q24 56 34 88q-6 -3 -16 -4.5t-10 5.5t12 11l22 6q16 46 35.5 111.5t19.5 66.5q60 192 104 242t81 65t56 15q53 0 84 -42q21 -29 21 -73q0 -83 -56.5 -165t-136.5 -138.5t-166 -86.5
q-30 -71 -57 -117q153 -98 217 -119q74 -25 141 -25q73 0 121 40q25 20 25 42t-8.5 39t1.5 18.5t16 -10.5q15 -33 15 -68v-12q-1 -38 -35 -67q-40 -34 -123 -34q-56 0 -98.5 15t-67 24.5t-61 33l-51.5 33.5q-30 20 -102 74q-52 -90 -92 -90q-10 0 -12 3.5t0.5 6.5t5.5 3
q33 3 74 93q-56 37 -94 50q-34 -14 -47 -14t-17 1q-17 6 -17 21q0 21 26 28h2zM594 494q0 76 -57 76q-51 0 -87 -52q-40 -56 -58 -104.5l-26 -71.5q-20 -56 -31 -102q-33 -92 -48 -127q115 52 198.5 141t104.5 201q4 21 4 39zM684 754l20 -6q11 -7 11 -18q0 -10 -6 -16
q-17 -13 -82 -44t-76 -31.5t-11 2.5t2.5 6t14 11l25.5 17t20.5 14.5t23.5 18.5q38 28 49 44q6 2 9 2z" />
    <glyph glyph-name="lacute" unicode="&#x13a;" horiz-adv-x="211" 
d="M387 510q12 22 12 34q0 21 -17 21q-14 0 -35 -16q-80 -62 -155 -196q-60 -108 -88 -185q69 47 154.5 153t128.5 189zM89 128q-12 -34 -13 -45.5t-1 -31t10 -35.5q17 -27 57 -4q30 16 76 58.5t71 77.5q2 3 6 3q9 0 5 -13q-15 -27 -55.5 -69t-73.5 -66.5t-66 -24.5
q-76 0 -76 74v6q4 70 71 211.5t121 213.5l31 39q11 13 32 32q40 38 82.5 38t57.5 -26q5 -9 5 -26t-15 -48q-103 -179 -325 -364zM469 674q-66 -31 -77 -31.5t-11 2.5t2.5 6t14.5 11q29 18 40.5 28t27.5 22q37 25 50 43q8 2 11.5 2t17.5 -5q12 -7 12 -18q0 -9 -11 -19
t-77 -41z" />
    <glyph glyph-name="Lcommaaccent" unicode="&#x13b;" horiz-adv-x="471" 
d="M38 54l67 -6q22 0 33.5 4.5t17 2.5t-2.5 -7.5t-26.5 -8.5t-22.5 -5q16 -6 35 -17l53 -33q24 56 34 88q-6 -3 -16 -4.5t-10 5.5t12 11l22 6q16 46 35.5 111.5t19.5 66.5q60 192 104 242t81 65t56 15q53 0 84 -42q21 -29 21 -73q0 -83 -56.5 -165t-136.5 -138.5t-166 -86.5
q-30 -71 -57 -117q153 -98 217 -119q74 -25 141 -25q73 0 121 40q25 20 25 42t-8.5 39t1.5 18.5t16 -10.5q15 -33 15 -68v-12q-1 -38 -35 -67q-40 -34 -123 -34q-56 0 -98.5 15t-67 24.5t-61 33l-51.5 33.5q-30 20 -102 74q-52 -90 -92 -90q-10 0 -12 3.5t0.5 6.5t5.5 3
q33 3 74 93q-56 37 -94 50q-34 -14 -47 -14t-17 1q-17 6 -17 21q0 21 26 28h2zM594 494q0 76 -57 76q-51 0 -87 -52q-40 -56 -58 -104.5l-26 -71.5q-20 -56 -31 -102q-33 -92 -48 -127q115 52 198.5 141t104.5 201q4 21 4 39zM274.5 -176q7.5 -11 7.5 -25t-44 -70
q-55 -69 -69 -69q-4 0 -4 9q0 2 29 35.5t38 68.5q6 18 -0.5 30t-2.5 22q2 10 20 10t25.5 -11z" />
    <glyph glyph-name="lcommaaccent" unicode="&#x13c;" horiz-adv-x="211" 
d="M387 510q12 22 12 34q0 21 -17 21q-14 0 -35 -16q-80 -62 -155 -196q-60 -108 -88 -185q69 47 154.5 153t128.5 189zM89 128q-12 -34 -13 -45.5t-1 -31t10 -35.5q17 -27 57 -4q30 16 76 58.5t71 77.5q2 3 6 3q9 0 5 -13q-15 -27 -55.5 -69t-73.5 -66.5t-66 -24.5
q-76 0 -76 74v6q4 70 71 211.5t121 213.5l31 39q11 13 32 32q40 38 82.5 38t57.5 -26q5 -9 5 -26t-15 -48q-103 -179 -325 -364zM81 -97q0 -19 -43 -72q-56 -71 -70 -71q-4 0 -4 9q0 2 28 34.5t36.5 60t1.5 39.5q-17 32 25 32q11 0 18.5 -11t7.5 -21z" />
    <glyph glyph-name="Lcaron" unicode="&#x13d;" horiz-adv-x="471" 
d="M38 54l67 -6q22 0 33.5 4.5t17 2.5t-2.5 -7.5t-26.5 -8.5t-22.5 -5q16 -6 35 -17l53 -33q24 56 34 88q-6 -3 -16 -4.5t-10 5.5t12 11l22 6q16 46 35.5 111.5t19.5 66.5q60 192 104 242t81 65t56 15q53 0 84 -42q21 -29 21 -73q0 -83 -56.5 -165t-136.5 -138.5t-166 -86.5
q-30 -71 -57 -117q153 -98 217 -119q74 -25 141 -25q73 0 121 40q25 20 25 42t-8.5 39t1.5 18.5t16 -10.5q15 -33 15 -68v-12q-1 -38 -35 -67q-40 -34 -123 -34q-56 0 -98.5 15t-67 24.5t-61 33l-51.5 33.5q-30 20 -102 74q-52 -90 -92 -90q-10 0 -12 3.5t0.5 6.5t5.5 3
q33 3 74 93q-56 37 -94 50q-34 -14 -47 -14t-17 1q-17 6 -17 21q0 21 26 28h2zM594 494q0 76 -57 76q-51 0 -87 -52q-40 -56 -58 -104.5l-26 -71.5q-20 -56 -31 -102q-33 -92 -48 -127q115 52 198.5 141t104.5 201q4 21 4 39zM770 530q0 -22 -43 -72q-45 -55 -56 -62.5
t-15 -7.5t-4 9q0 2 28.5 34t40.5 69q7 16 0.5 30t-5.5 23q8 10 23.5 10t23 -11.5t7.5 -21.5z" />
    <glyph glyph-name="lcaron" unicode="&#x13e;" horiz-adv-x="446" 
d="M387 510q12 22 12 34q0 21 -17 21q-14 0 -35 -16q-80 -62 -155 -196q-60 -108 -88 -185q69 47 154.5 153t128.5 189zM89 128q-12 -34 -13 -45.5t-1 -31t10 -35.5q17 -27 57 -4q30 16 76 58.5t71 77.5q2 3 6 3q9 0 5 -13q-15 -27 -55.5 -69t-73.5 -66.5t-66 -24.5
q-76 0 -76 74v6q4 70 71 211.5t121 213.5l31 39q11 13 32 32q40 38 82.5 38t57.5 -26q5 -9 5 -26t-15 -48q-103 -179 -325 -364zM531 525q0 -20 -45 -74.5t-55 -61t-13.5 -6.5t-3.5 9q0 3 29 36t39 67q8 16 1 30t-6 23q8 10 23.5 10t23 -11t7.5 -22z" />
    <glyph glyph-name="Ldot" unicode="&#x13f;" horiz-adv-x="471" 
d="M38 54l67 -6q22 0 33.5 4.5t17 2.5t-2.5 -7.5t-26.5 -8.5t-22.5 -5q16 -6 35 -17l53 -33q24 56 34 88q-6 -3 -16 -4.5t-10 5.5t12 11l22 6q16 46 35.5 111.5t19.5 66.5q60 192 104 242t81 65t56 15q53 0 84 -42q21 -29 21 -73q0 -83 -56.5 -165t-136.5 -138.5t-166 -86.5
q-30 -71 -57 -117q153 -98 217 -119q74 -25 141 -25q73 0 121 40q25 20 25 42t-8.5 39t1.5 18.5t16 -10.5q15 -33 15 -68v-12q-1 -38 -35 -67q-40 -34 -123 -34q-56 0 -98.5 15t-67 24.5t-61 33l-51.5 33.5q-30 20 -102 74q-52 -90 -92 -90q-10 0 -12 3.5t0.5 6.5t5.5 3
q33 3 74 93q-56 37 -94 50q-34 -14 -47 -14t-17 1q-17 6 -17 21q0 21 26 28h2zM594 494q0 76 -57 76q-51 0 -87 -52q-40 -56 -58 -104.5l-26 -71.5q-20 -56 -31 -102q-33 -92 -48 -127q115 52 198.5 141t104.5 201q4 21 4 39zM527 154v-15q0 -8 -10 -23.5t-16 -15.5
q-34 0 -34 17q0 4 16 18t21 17q12 10 17.5 10t5.5 -8z" />
    <glyph glyph-name="ldot" unicode="&#x140;" horiz-adv-x="335" 
d="M387 510q12 22 12 34q0 21 -17 21q-14 0 -35 -16q-80 -62 -155 -196q-60 -108 -88 -185q69 47 154.5 153t128.5 189zM89 128q-12 -34 -13 -45.5t-1 -31t10 -35.5q17 -27 57 -4q30 16 76 58.5t71 77.5q2 3 6 3q9 0 5 -13q-15 -27 -55.5 -69t-73.5 -66.5t-66 -24.5
q-76 0 -76 74v6q4 70 71 211.5t121 213.5l31 39q11 13 32 32q40 38 82.5 38t57.5 -26q5 -9 5 -26t-15 -48q-103 -179 -325 -364zM375 320v-15q0 -8 -10 -23t-16 -15q-34 0 -34 16q0 2 32 34q15 12 23 12q5 0 5 -9z" />
    <glyph glyph-name="Lslash" unicode="&#x141;" horiz-adv-x="471" 
d="M412 62q22 14 22 -7t-19.5 -38t-37.5 -22q-63 -17 -202 -17q-61 0 -95 22t-40 60q-3 18 -3 37q0 55 32 131l8 20l-25 -8q-9 -3 -14 -3q-12 0 -12 13.5t19 25.5q3 1 8 2t46 12q27 50 64 107t58 82q-8 13 -8 23q0 28 58 32q22 -3 24.5 -6t-8.5 -19q-85 -128 -123 -201l31 7
q28 7 41 7t15 -5q2 -7 -9 -12.5t-17.5 -8l-13.5 -5t-20.5 -8t-45.5 -14.5q-50 -107 -50 -172q0 -99 117 -99q64 0 108 16.5t92 47.5z" />
    <glyph glyph-name="lslash" unicode="&#x142;" horiz-adv-x="235" 
d="M76 217q-51 -13 -55 -13q-10 0 -10 12.5t18 24.5q4 2 7 3l58 11q65 147 127 228l31 39q11 13 32 32q40 38 82.5 38t57.5 -26q5 -9 5 -26t-15 -48q-62 -109 -154 -205l25 6q23 6 38.5 6t17 -5t-9.5 -11.5t-22 -10t-28 -10t-60 -14.5q-57 -58 -132 -120q-14 -40 -14 -68
t10 -44q17 -27 57 -4q30 16 76 58.5t71 77.5q2 3 6 3q9 0 5 -13q-15 -27 -55.5 -69t-73.5 -66.5t-66 -24.5q-76 0 -76 74v6q3 52 47 159zM387 510q12 22 12 34q0 21 -17 21q-14 0 -35 -16q-80 -62 -155 -196l-46 -88l78 14q106 122 163 231zM186 239q-56 -11 -59 -12
q-4 -8 -23 -59q32 21 82 71z" />
    <glyph glyph-name="Nacute" unicode="&#x143;" horiz-adv-x="520" 
d="M815 433q-24 0 -64 35q1 -15 1 -31q0 -80 -32 -195t-96.5 -212t-131.5 -97q-56 0 -96.5 44t-61.5 115q-38 135 -38 291q-69 -181 -132 -298q-106 -188 -204 -218q-25 -8 -45 -8t-35 4q-41 14 -51 56q-1 5 -1 9t1 10t6 3.5t10 -18.5q7 -27 35 -34q17 -5 33 -5t31 5
q96 30 190 201q65 125 132 352q-55 -50 -130 -55q-10 -1 -10.5 7t11.5 10q43 4 89 45t69 94q4 13 35 12.5t30 -12.5q-4 -11 -9 -53t-5 -83q0 -176 55 -331q39 -109 99 -109t112 105t71.5 208t19.5 144.5t-4 62t-27 87.5q-1 3 7 10.5t12 8.5q19 0 35.5 -23t33.5 -54
q29 -56 54 -56l12 3q9 0 11 -10q0 -8 -7 -13.5t-15 -6.5zM637 715l19 -6q12 -7 12 -18t-6 -14l-1 -2q-16 -13 -81.5 -44t-76.5 -31.5t-11 2.5t3 6t14 11l24.5 17t20.5 15t24 18q35 25 49 44q6 2 10 2z" />
    <glyph glyph-name="nacute" unicode="&#x144;" horiz-adv-x="409" 
d="M318 284q23 0 23 -24.5t-23 -67.5t-34 -70q-19 -46 -19 -73.5t8 -36.5q15 -16 41 -1.5t72.5 56t74.5 81.5q4 5 9.5 2.5t5.5 -5t-2 -5.5q-15 -27 -54 -69t-75 -67.5t-71 -25.5q-34 1 -48 15.5t-14 36.5t4 42.5t15 47.5q18 43 31.5 67t13.5 31.5t-8 7.5q-16 0 -61 -39
q-31 -29 -91.5 -109.5t-68.5 -85.5q-36 -18 -45 -18t-9 3t2 8.5l19.5 54.5l38 107.5t25 70.5t6 20.5t3.5 14.5t7.5 13.5t14.5 8t23 -2t14 -12.5q0 -7 -11 -30.5t-63 -161.5q36 44 91 101.5t93 87.5q38 27 62 27zM375 474l20 -6q12 -7 12 -18q0 -9 -7 -16q-16 -13 -81.5 -44
t-76.5 -31.5t-11 2.5t2.5 6t14 11l25.5 17t20.5 14.5l22.5 18.5q39 28 50 44q6 2 9 2z" />
    <glyph glyph-name="Ncommaaccent" unicode="&#x145;" horiz-adv-x="520" 
d="M815 433q-24 0 -64 35q1 -15 1 -31q0 -80 -32 -195t-96.5 -212t-131.5 -97q-56 0 -96.5 44t-61.5 115q-38 135 -38 291q-69 -181 -132 -298q-106 -188 -204 -218q-25 -8 -45 -8t-35 4q-41 14 -51 56q-1 5 -1 9t1 10t6 3.5t10 -18.5q7 -27 35 -34q17 -5 33 -5t31 5
q96 30 190 201q65 125 132 352q-55 -50 -130 -55q-10 -1 -10.5 7t11.5 10q43 4 89 45t69 94q4 13 35 12.5t30 -12.5q-4 -11 -9 -53t-5 -83q0 -176 55 -331q39 -109 99 -109t112 105t71.5 208t19.5 144.5t-4 62t-27 87.5q-1 3 7 10.5t12 8.5q19 0 35.5 -23t33.5 -54
q29 -56 54 -56l12 3q9 0 11 -10q0 -8 -7 -13.5t-15 -6.5zM345 -128q0 -19 -44 -73q-38 -50 -62 -67q-4 -3 -8 -3t-4 6.5t23 29.5q34 42 42.5 68.5t2 38t-3.5 22t21 10.5t25.5 -11t7.5 -21z" />
    <glyph glyph-name="ncommaaccent" unicode="&#x146;" horiz-adv-x="409" 
d="M318 284q23 0 23 -24.5t-23 -67.5t-34 -70q-19 -46 -19 -73.5t8 -36.5q15 -16 41 -1.5t72.5 56t74.5 81.5q4 5 9.5 2.5t5.5 -5t-2 -5.5q-15 -27 -54 -69t-75 -67.5t-71 -25.5q-34 1 -48 15.5t-14 36.5t4 42.5t15 47.5q18 43 31.5 67t13.5 31.5t-8 7.5q-16 0 -61 -39
q-31 -29 -91.5 -109.5t-68.5 -85.5q-36 -18 -45 -18t-9 3t2 8.5l19.5 54.5l38 107.5t25 70.5t6 20.5t3.5 14.5t7.5 13.5t14.5 8t23 -2t14 -12.5q0 -7 -11 -30.5t-63 -161.5q36 44 91 101.5t93 87.5q38 27 62 27zM164.5 -87q7.5 -11 7.5 -25t-44 -69q-55 -70 -69 -70
q-4 0 -4 6t22 30q36 44 45 77q6 18 -0.5 29.5t-2.5 22.5q2 10 20 10t25.5 -11z" />
    <glyph glyph-name="Ncaron" unicode="&#x147;" horiz-adv-x="520" 
d="M815 433q-24 0 -64 35q1 -15 1 -31q0 -80 -32 -195t-96.5 -212t-131.5 -97q-56 0 -96.5 44t-61.5 115q-38 135 -38 291q-69 -181 -132 -298q-106 -188 -204 -218q-25 -8 -45 -8t-35 4q-41 14 -51 56q-1 5 -1 9t1 10t6 3.5t10 -18.5q7 -27 35 -34q17 -5 33 -5t31 5
q96 30 190 201q65 125 132 352q-55 -50 -130 -55q-10 -1 -10.5 7t11.5 10q43 4 89 45t69 94q4 13 35 12.5t30 -12.5q-4 -11 -9 -53t-5 -83q0 -176 55 -331q39 -109 99 -109t112 105t71.5 208t19.5 144.5t-4 62t-27 87.5q-1 3 7 10.5t12 8.5q19 0 35.5 -23t33.5 -54
q29 -56 54 -56l12 3q9 0 11 -10q0 -8 -7 -13.5t-15 -6.5zM455 689q-4 7 -4 13.5t4.5 6.5t9.5 -4.5t41 -34.5t43 -37q16 10 45 33t46 34t17 3q0 -9 -6.5 -14.5l-34.5 -30.5q-65 -61 -80 -61q-22 8 -81 92z" />
    <glyph glyph-name="ncaron" unicode="&#x148;" horiz-adv-x="409" 
d="M318 284q23 0 23 -24.5t-23 -67.5t-34 -70q-19 -46 -19 -73.5t8 -36.5q15 -16 41 -1.5t72.5 56t74.5 81.5q4 5 9.5 2.5t5.5 -5t-2 -5.5q-15 -27 -54 -69t-75 -67.5t-71 -25.5q-34 1 -48 15.5t-14 36.5t4 42.5t15 47.5q18 43 31.5 67t13.5 31.5t-8 7.5q-16 0 -61 -39
q-31 -29 -91.5 -109.5t-68.5 -85.5q-36 -18 -45 -18t-9 3t2 8.5l19.5 54.5l38 107.5t25 70.5t6 20.5t3.5 14.5t7.5 13.5t14.5 8t23 -2t14 -12.5q0 -7 -11 -30.5t-63 -161.5q36 44 91 101.5t93 87.5q38 27 62 27zM182 454q-4 7 -4 13.5t4.5 6.5t8.5 -3.5t25 -20.5
q49 -41 60 -52q18 11 47 34t45.5 33.5t16.5 1.5t-7.5 -15t-33.5 -30q-67 -60 -80 -60q-23 8 -82 92z" />
    <glyph glyph-name="napostrophe" unicode="&#x149;" horiz-adv-x="409" 
d="M318 284q23 0 23 -24.5t-23 -67.5t-34 -70q-19 -46 -19 -73.5t8 -36.5q15 -16 41 -1.5t72.5 56t74.5 81.5q4 5 9.5 2.5t5.5 -5t-2 -5.5q-15 -27 -54 -69t-75 -67.5t-71 -25.5q-34 1 -48 15.5t-14 36.5t4 42.5t15 47.5q18 43 31.5 67t13.5 31.5t-8 7.5q-16 0 -61 -39
q-31 -29 -91.5 -109.5t-68.5 -85.5q-36 -18 -45 -18t-9 3t2 8.5l19.5 54.5l38 107.5t25 70.5t6 20.5t3.5 14.5t7.5 13.5t14.5 8t23 -2t14 -12.5q0 -7 -11 -30.5t-63 -161.5q36 44 91 101.5t93 87.5q38 27 62 27zM126 435q0 -20 -44 -72q-54 -70 -68 -70q-5 0 -5 9
q0 1 28.5 35t36.5 60t2 38q-18 33 24 33q11 0 18.5 -11t7.5 -22z" />
    <glyph glyph-name="Eng" unicode="&#x14a;" horiz-adv-x="646" 
d="M512 535q-7 0 -20.5 -4.5t-14.5 -4t-6 3.5q-3 12 17 21t37 9q38 0 61 -31q30 -41 30 -127q0 -88 -27 -189q-56 -203 -155 -359q-127 -190 -232 -190q-58 0 -84 38q-20 28 -20 64q0 47 28.5 85t59.5 56q8 4 12 -3t-3 -12q-21 -19 -37 -54q-23 -47 -23 -78t14.5 -53.5
t54.5 -22.5q62 0 138 102q25 34 33.5 47.5l28.5 44.5q48 80 80 157q-55 -63 -108 -63h-3q-43 0 -74.5 32.5t-48.5 88.5q-31 108 -31 244q0 34 5 101l-39 -74.5l-42 -80t-34 -70.5t-34 -77q-31 -82 -40 -139q-5 -7 -14.5 -8.5t-13.5 8.5q-2 44 88 278t117 268q4 4 11 4
t25 -11.5t18 -25.5q-2 -33 -2 -93.5t3.5 -161t37 -174.5t86 -73.5t91.5 64.5q68 115 77 296q1 16 1 31q0 64 -14 110q-11 26 -34 26z" />
    <glyph glyph-name="eng" unicode="&#x14b;" horiz-adv-x="409" 
d="M420 71q-39 -42 -75 -67.5t-67 -25t-43 8.5q-29 -76 -78 -154q-104 -159 -193 -159q-48 0 -70 32q-17 24 -17 44.5t3.5 39.5t23.5 45.5t46 41.5q7 2 10 -3.5t-9 -15.5t-25 -38q-19 -39 -19 -66q0 -64 58 -64q47 0 98 66q36 45 69 97q51 83 80 166q-1 6 -1 14q0 52 55 160
q10 18 10 25.5t-8 7.5q-16 0 -61 -39q-31 -29 -91.5 -109.5t-68.5 -85.5q-36 -18 -44.5 -18t-9.5 2.5t1.5 8.5t20 55l38 107.5t25 70.5t6 20.5t3.5 14.5t7.5 13.5t14.5 8t23 -2t14 -12.5q0 -7 -11 -30.5t-63 -161.5q36 44 91 101.5t93 87.5q38 27 62 27q23 0 23 -24.5
t-23 -67.5t-34 -70q-19 -46 -19 -73.5t8 -36.5q15 -16 41 -1.5t72.5 56t74.5 81.5q4 5 9.5 2.5t5.5 -5t-2 -5.5q-15 -27 -54 -69z" />
    <glyph glyph-name="Omacron" unicode="&#x14c;" horiz-adv-x="614" 
d="M717 337q0 -149 -103 -266.5t-229 -146.5q-37 -9 -71 -9q-93 0 -154 69t-61 174q0 139 95 230q60 58 147 79q26 5 48 5q50 0 73 -23.5t13 -23.5l-16 8q-21 8 -36.5 8t-26.5 -3q-120 -28 -194 -144q-57 -90 -57 -181q0 -125 91 -162q30 -13 65.5 -13t72.5 9
q67 15 136 83.5t113 161.5t44 174q0 106 -63 158q-53 42 -139 42q-13 0 -28 -1q-111 -7 -205 -75q-69 -48 -116 -119t-52 -141q-1 -16 -9.5 -7.5t-8.5 25.5q0 72 42.5 141.5t113.5 120.5q50 36 114.5 57.5t123.5 22.5q123 0 200 -67t77 -186zM432 684l149 1q53 0 55 -12
q0 -13 -66 -18q-93 -7 -151 -7q-18 0 -18 9q0 14 20 24q6 3 11 3z" />
    <glyph glyph-name="omacron" unicode="&#x14d;" horiz-adv-x="351" 
d="M247 110q18 37 18 57t-4.5 31.5t4 19.5t21.5 6q20 -5 20 -45t-47 -105q1 -27 28 -27t82 58q26 30 32.5 39t11.5 6.5t5 -4.5q0 -10 -36 -52q-57 -70 -101 -70q-29 0 -41 25q-20 -21 -39 -39q-39 -33 -87 -33q-27 0 -45 13q-35 21 -35 75q0 59 40 120q23 36 54 63
q49 43 93 43q11 0 21 -3q30 -10 30 -38q0 -23 -12 -23q-5 2 -5 15q0 18 -20 18q-35 0 -90 -64t-66 -129q-2 -11 -2 -24.5t9 -31t33.5 -17.5t53.5 22t52 56l-3 6q-4 16 4 26t21 6zM182 399l149 1q53 0 55 -12q0 -13 -66 -18q-93 -7 -151 -7q-18 0 -18 9q0 14 20 24z" />
    <glyph glyph-name="Obreve" unicode="&#x14e;" horiz-adv-x="614" 
d="M717 337q0 -149 -103 -266.5t-229 -146.5q-37 -9 -71 -9q-93 0 -154 69t-61 174q0 139 95 230q60 58 147 79q26 5 48 5q50 0 73 -23.5t13 -23.5l-16 8q-21 8 -36.5 8t-26.5 -3q-120 -28 -194 -144q-57 -90 -57 -181q0 -125 91 -162q30 -13 65.5 -13t72.5 9
q67 15 136 83.5t113 161.5t44 174q0 106 -63 158q-53 42 -139 42q-13 0 -28 -1q-111 -7 -205 -75q-69 -48 -116 -119t-52 -141q-1 -16 -9.5 -7.5t-8.5 25.5q0 72 42.5 141.5t113.5 120.5q50 36 114.5 57.5t123.5 22.5q123 0 200 -67t77 -186zM599 650q-38 -18 -68 -18
t-53 10q-49 22 -49 80q0 37 11 42t18.5 0t7.5 -17q0 -53 42 -76q20 -12 43.5 -12t50.5 13q51 25 73 93q1 4 3 4t6.5 -3t4.5 -11q-18 -71 -90 -105z" />
    <glyph glyph-name="obreve" unicode="&#x14f;" horiz-adv-x="351" 
d="M247 110q18 37 18 57t-4.5 31.5t4 19.5t21.5 6q20 -5 20 -45t-47 -105q1 -27 28 -27t82 58q26 30 32.5 39t11.5 6.5t5 -4.5q0 -10 -36 -52q-57 -70 -101 -70q-29 0 -41 25q-20 -21 -39 -39q-39 -33 -87 -33q-27 0 -45 13q-35 21 -35 75q0 59 40 120q23 36 54 63
q49 43 93 43q11 0 21 -3q30 -10 30 -38q0 -23 -12 -23q-5 2 -5 15q0 18 -20 18q-35 0 -90 -64t-66 -129q-2 -11 -2 -24.5t9 -31t33.5 -17.5t53.5 22t52 56l-3 6q-4 16 4 26t21 6zM325 382q-38 -18 -68 -18t-53 11q-49 22 -49 80q0 36 11 41t18.5 0t7.5 -16q0 -53 42 -76
q20 -12 43.5 -12t50.5 13q51 25 73 93q1 3 3 3t6.5 -2t4.5 -11q-17 -72 -90 -106z" />
    <glyph glyph-name="Ohungarumlaut" unicode="&#x150;" horiz-adv-x="614" 
d="M717 337q0 -149 -103 -266.5t-229 -146.5q-37 -9 -71 -9q-93 0 -154 69t-61 174q0 139 95 230q60 58 147 79q26 5 48 5q50 0 73 -23.5t13 -23.5l-16 8q-21 8 -36.5 8t-26.5 -3q-120 -28 -194 -144q-57 -90 -57 -181q0 -125 91 -162q30 -13 65.5 -13t72.5 9
q67 15 136 83.5t113 161.5t44 174q0 106 -63 158q-53 42 -139 42q-13 0 -28 -1q-111 -7 -205 -75q-69 -48 -116 -119t-52 -141q-1 -16 -9.5 -7.5t-8.5 25.5q0 72 42.5 141.5t113.5 120.5q50 36 114.5 57.5t123.5 22.5q123 0 200 -67t77 -186zM581 797.5q8 2.5 22.5 2.5
t14.5 -11t-12.5 -31t-16 -26.5t-23 -36.5t-29 -47.5t-15.5 -17.5q-2 0 -5.5 2.5t2.5 15.5t19.5 52t15.5 44t4.5 16t4.5 17t6 12t12 8.5zM469 797.5q8 2.5 22.5 2.5t14.5 -11t-12.5 -31t-16 -26t-22.5 -36.5t-29 -48t-16.5 -17.5t-6.5 5.5t3 11.5q21 40 32 82.5t12.5 47.5
t6 11.5t12.5 9z" />
    <glyph glyph-name="ohungarumlaut" unicode="&#x151;" horiz-adv-x="351" 
d="M247 110q18 37 18 57t-4.5 31.5t4 19.5t21.5 6q20 -5 20 -45t-47 -105q1 -27 28 -27t82 58q26 30 32.5 39t11.5 6.5t5 -4.5q0 -10 -36 -52q-57 -70 -101 -70q-29 0 -41 25q-20 -21 -39 -39q-39 -33 -87 -33q-27 0 -45 13q-35 21 -35 75q0 59 40 120q23 36 54 63
q49 43 93 43q11 0 21 -3q30 -10 30 -38q0 -23 -12 -23q-5 2 -5 15q0 18 -20 18q-35 0 -90 -64t-66 -129q-2 -11 -2 -24.5t9 -31t33.5 -17.5t53.5 22t52 56l-3 6q-4 16 4 26t21 6zM362 492q13 0 13 -10q0 -7 -9.5 -22.5l-26 -41t-26 -42.5t-14.5 -17q-1 0 -4 1.5t1.5 10.5
t10.5 27q15 44 18 47q2 7 4.5 18.5t4.5 16t8.5 8.5t19.5 4zM245.5 408q-14.5 -24 -21.5 -36.5t-12 -12.5t-5 4t4.5 13t14.5 36q11 34 14.5 49t5.5 19q7 12 23.5 12t16.5 -9q0 -12 -9.5 -26l-13 -19.5z" />
    <glyph glyph-name="OE" unicode="&#x152;" horiz-adv-x="1500" 
 />
    <glyph glyph-name="oe" unicode="&#x153;" horiz-adv-x="524" 
d="M260 195l4 32q0 21 -8.5 27t-20.5 6q-35 0 -90 -64t-66 -129q-2 -11 -2 -24.5t9 -31t35 -17.5q38 0 84 53q9 8 21 28q6 24 13 39q25 57 107 117t130 60q54 0 54 -52q0 -27 -15 -44q-25 -37 -81 -64.5t-95 -30.5q-14 -1 -15 8q-1 4 2.5 5t5.5 1q23 2 59 22q67 36 97 74
q14 18 14 34.5t-16 16.5q-13 0 -35 -11q-47 -22 -99 -76.5t-68 -106.5q-5 -16 -5 -31.5t13 -29.5t40 -14q30 0 69 16q113 46 174 139q6 8 11 3q4 -2 4 -5t-3 -7q-25 -44 -70 -85.5t-103 -64.5q-38 -16 -67 -16q-103 0 -120 65q-48 -60 -113 -60q-27 0 -45 13q-35 21 -35 75
q0 59 40 120q23 36 54 63q49 43 93 43q36 0 55 -29q9 -16 9 -27t-1 -24.5t-10 -20.5q-15 -5 -14 5z" />
    <glyph glyph-name="Racute" unicode="&#x154;" horiz-adv-x="495" 
d="M34 373q-2 13 -2 16q14 75 147 143q105 49 248 49q88 0 174 -24q58 -20 88 -57t30 -75q0 -58 -46 -102.5t-103 -68.5q-127 -55 -290 -61l42 -52.5l44 -54.5l43.5 -50.5t48 -50t49.5 -42t57 -38.5q94 -50 164 -50l34 3q34 6 54 27.5t20 47.5q0 10 -2.5 21.5t6.5 11.5
q10 -1 13.5 -14.5t3.5 -33.5t-10 -46q-11 -36 -61 -55q-32 -12 -60 -12q-84 0 -170 47q-57 32 -102.5 79.5t-76 85.5t-68 94.5t-52.5 75.5l-7 1q-76 -140 -76 -169q0 -15 13 -15t35 27.5t30 26.5q6 -6 -13 -26q-2 -2 -7 -10.5t-8.5 -13.5l-9.5 -13t-11 -13t-11 -10
q-12 -10 -21 -10t-25 3.5t-16 13.5q0 45 82 209q-33 3 -33 24q0 4 1 10q7 17 25.5 17t29.5 -9q8 16 19 36q39 70 39 89q0 5 -1 10q4 28 48.5 73.5t80.5 45.5q12 0 32 -9t24 -25q1 -7 0.5 -8.5t-5.5 0.5t-6 2q-70 0 -200 -227q12 -5 23.5 -5t19.5 1q102 11 199.5 48t151.5 93
q35 34 35 72q0 112 -229 112q-131 0 -250 -40q-62 -22 -105.5 -59t-51.5 -84q-1 -5 -1 -13t6.5 -19.5t15.5 -17.5t25.5 -14t22 -12t2.5 -8.5t-13 -2.5q-31 5 -58 31t-27 56q0 9 2 18zM537 656q-65 -31 -75.5 -31.5t-10.5 3t2 6t13.5 10.5l25.5 17t19 13.5t34 26.5t40 37
q6 2 9 2l20 -6q11 -7 11 -18t-5 -14l-1 -2q-17 -13 -82 -44z" />
    <glyph glyph-name="racute" unicode="&#x155;" horiz-adv-x="307" 
d="M172 -25q-51 0 -51 61.5t88 151.5q7 7 10 11l7 10q14 19 13 24l-3 9q-4 12 -33 17.5t-47 5.5q-90 -127 -104 -145t-19 -15t-5 7t6 12q54 66 93 141q-12 2 -18 8.5t-1 22t30.5 41.5t44.5 35t24 11t11 2q12 0 -8 -36l-39 -62q45 -3 77 -3l35 1q17 0 25 -4.5t4 -15.5
q-7 -19 -35 -51q-60 -70 -90 -149q-7 -19 -7 -33q0 -29 21 -29q7 0 26.5 11t65.5 52.5t74 81.5q4 5 10.5 2t2.5 -10q-15 -27 -54 -69t-76 -68q-36 -28 -78 -28zM415 514l20 -6q12 -7 12 -18q0 -9 -7 -16q-16 -13 -81.5 -44t-76.5 -31.5t-11 2.5t2.5 6t14 11l25.5 17
t20.5 14.5l22.5 18.5q39 28 50 44q6 2 9 2z" />
    <glyph glyph-name="Rcommaaccent" unicode="&#x156;" horiz-adv-x="495" 
d="M34 373q-2 13 -2 16q14 75 147 143q105 49 248 49q88 0 174 -24q58 -20 88 -57t30 -75q0 -58 -46 -102.5t-103 -68.5q-127 -55 -290 -61l42 -52.5l44 -54.5l43.5 -50.5t48 -50t49.5 -42t57 -38.5q94 -50 164 -50l34 3q34 6 54 27.5t20 47.5q0 10 -2.5 21.5t6.5 11.5
q10 -1 13.5 -14.5t3.5 -33.5t-10 -46q-11 -36 -61 -55q-32 -12 -60 -12q-84 0 -170 47q-57 32 -102.5 79.5t-76 85.5t-68 94.5t-52.5 75.5l-7 1q-76 -140 -76 -169q0 -15 13 -15t35 27.5t30 26.5q6 -6 -13 -26q-2 -2 -7 -10.5t-8.5 -13.5l-9.5 -13t-11 -13t-11 -10
q-12 -10 -21 -10t-25 3.5t-16 13.5q0 45 82 209q-33 3 -33 24q0 4 1 10q7 17 25.5 17t29.5 -9q8 16 19 36q39 70 39 89q0 5 -1 10q4 28 48.5 73.5t80.5 45.5q12 0 32 -9t24 -25q1 -7 0.5 -8.5t-5.5 0.5t-6 2q-70 0 -200 -227q12 -5 23.5 -5t19.5 1q102 11 199.5 48t151.5 93
q35 34 35 72q0 112 -229 112q-131 0 -250 -40q-62 -22 -105.5 -59t-51.5 -84q-1 -5 -1 -13t6.5 -19.5t15.5 -17.5t25.5 -14t22 -12t2.5 -8.5t-13 -2.5q-31 5 -58 31t-27 56q0 9 2 18zM299.5 -87q7.5 -11 7.5 -25t-43 -69q-56 -70 -70 -70q-4 0 -4 6t22 30q36 44 45 77
q6 18 -0.5 29.5t-2.5 22.5q2 10 20 10t25.5 -11z" />
    <glyph glyph-name="rcommaaccent" unicode="&#x157;" horiz-adv-x="307" 
d="M172 -25q-51 0 -51 61.5t88 151.5q7 7 10 11l7 10q14 19 13 24l-3 9q-4 12 -33 17.5t-47 5.5q-90 -127 -104 -145t-21.5 -13.5t3.5 17.5q54 66 93 141q-12 2 -18 8.5t-1 22t30.5 41.5t44.5 35t24 11t11 2q12 0 -8 -36l-39 -62q45 -3 77 -3l35 1q17 0 25 -4.5t4 -15.5
q-7 -19 -35 -51q-60 -70 -90 -149q-7 -19 -7 -33q0 -29 21 -29q7 0 26.5 11t65.5 52.5t74 81.5q4 5 9.5 2.5t5.5 -5t-2 -5.5q-15 -27 -54 -69t-76 -68q-36 -28 -78 -28zM94.5 -66q7.5 -11 7.5 -25t-44 -70q-55 -69 -69 -69q-4 0 -4 9q0 2 29 35.5t38 68.5q6 18 -0.5 30
t-2.5 22q2 10 20 10t25.5 -11z" />
    <glyph glyph-name="Rcaron" unicode="&#x158;" horiz-adv-x="495" 
d="M34 373q-2 13 -2 16q14 75 147 143q105 49 248 49q88 0 174 -24q58 -20 88 -57t30 -75q0 -58 -46 -102.5t-103 -68.5q-127 -55 -290 -61l42 -52.5l44 -54.5l43.5 -50.5t48 -50t49.5 -42t57 -38.5q94 -50 164 -50l34 3q34 6 54 27.5t20 47.5q0 10 -2.5 21.5t6.5 11.5
q10 -1 13.5 -14.5t3.5 -33.5t-10 -46q-11 -36 -61 -55q-32 -12 -60 -12q-84 0 -170 47q-57 32 -102.5 79.5t-76 85.5t-68 94.5t-52.5 75.5l-7 1q-76 -140 -76 -169q0 -15 13 -15t35 27.5t30 26.5q6 -6 -13 -26q-2 -2 -7 -10.5t-8.5 -13.5l-9.5 -13t-11 -13t-11 -10
q-12 -10 -21 -10t-25 3.5t-16 13.5q0 45 82 209q-33 3 -33 24q0 4 1 10q7 17 25.5 17t29.5 -9q8 16 19 36q39 70 39 89q0 5 -1 10q4 28 48.5 73.5t80.5 45.5q12 0 32 -9t24 -25q1 -7 0.5 -8.5t-5.5 0.5t-6 2q-70 0 -200 -227q12 -5 23.5 -5t19.5 1q102 11 199.5 48t151.5 93
q35 34 35 72q0 112 -229 112q-131 0 -250 -40q-62 -22 -105.5 -59t-51.5 -84q-1 -5 -1 -13t6.5 -19.5t15.5 -17.5t25.5 -14t22 -12t2.5 -8.5t-13 -2.5q-31 5 -58 31t-27 56q0 9 2 18zM416 712q-4 7 -4 13.5t4.5 6.5t8.5 -4t41.5 -34.5t43.5 -38.5q17 11 46 34t46 34t17 1.5
t-12 -17.5q-32 -32 -67 -60t-43 -28q-25 10 -81 93z" />
    <glyph glyph-name="rcaron" unicode="&#x159;" horiz-adv-x="307" 
d="M172 -25q-51 0 -51 61.5t88 151.5q7 7 10 11l7 10q14 19 13 24l-3 9q-4 12 -33 17.5t-47 5.5q-90 -127 -104 -145t-19 -15t-5 7t6 12q54 66 93 141q-12 2 -18 8.5t-1 22t30.5 41.5t44.5 35t24 11t11 2q12 0 -8 -36l-39 -62q45 -3 77 -3l35 1q17 0 25 -4.5t4 -15.5
q-7 -19 -35 -51q-60 -70 -90 -149q-7 -19 -7 -33q0 -29 21 -29q7 0 26.5 11t65.5 52.5t74 81.5q4 5 10.5 2t2.5 -10q-15 -27 -54 -69t-76 -68q-36 -28 -78 -28zM196 478q-4 7 -4 13.5t4.5 6.5t8.5 -3.5t25 -20.5q49 -41 60 -52q16 10 45 33t46.5 34t17.5 2t-7 -14.5
t-34 -30.5q-65 -59 -81 -61q-25 10 -81 93z" />
    <glyph glyph-name="Sacute" unicode="&#x15a;" horiz-adv-x="532" 
d="M645 528q0 -22 -18 -51q-15 -27 -33.5 -37t-18.5 2q0 1 11 12q33 31 33 51q0 43 -85 43q-36 0 -95 -13.5t-114 -43.5q-64 -35 -64 -61q0 -21 39 -40q21 -10 83.5 -33.5t101 -41t73 -49.5t34.5 -71t-46 -85q-70 -67 -182 -111.5t-192 -44.5q-158 0 -158 89t97 151
q80 55 168 55q21 0 19 -7t-30 -7.5t-72 -19t-82 -53.5q-50 -45 -50 -90q0 -28 27 -50t103 -22t150 24q160 53 200 116q16 23 16 39q0 46 -56 72q-65 30 -182 69q-45 15 -76.5 39.5t-31.5 59t37.5 68t90.5 53.5q114 43 193 43q110 0 110 -55zM587.5 658q-65.5 -31 -76.5 -32
t-11 2.5t2.5 6.5t13.5 11q32 20 41 27l38 29t40 37q3 1 9.5 1t19.5 -5q11 -7 11 -18q0 -9 -6 -15q-16 -13 -81.5 -44z" />
    <glyph glyph-name="sacute" unicode="&#x15b;" horiz-adv-x="285" 
d="M50 -10q-13 -15 -5.5 -24t17 -9t19.5 3q43 13 83.5 51.5t40.5 78.5q0 22 -49 48q-23 12 -26 14q-27 18 -34 36q-14 -24 -45 -69q-7 -8 -13 -3.5t-1 12.5q41 56 54 94q7 55 80 99t133 44q38 0 53.5 -13.5t15.5 -26.5t-7.5 -30t-30.5 -32q-6 -4 -10 2q-2 6 8.5 16.5
t13.5 28.5t-16 22h-6q-39 0 -97.5 -29t-91.5 -75q-13 -17 -13 -34.5t24 -31.5q10 -6 34 -19t34 -19t24 -19t15 -24q5 -30 -28 -66q-47 -52 -140 -73q-21 -5 -42.5 -5t-29.5 16q-3 4 -3 12.5t16 27.5q15 15 48 29q3 1 5 -1t1 -5t-10.5 -7t-20.5 -19zM345 429
q-65 -31 -75.5 -31.5t-10.5 3t2 6t13 9.5q33 23 42 30.5t26 19.5q38 27 50 44q8 2 11.5 2t17.5 -5q12 -7 12 -18q0 -9 -7 -16q-16 -13 -81 -44z" />
    <glyph glyph-name="Scircumflex" unicode="&#x15c;" horiz-adv-x="532" 
d="M645 528q0 -22 -18 -51q-15 -27 -33.5 -37t-18.5 2q0 1 11 12q33 31 33 51q0 43 -85 43q-36 0 -95 -13.5t-114 -43.5q-64 -35 -64 -61q0 -21 39 -40q21 -10 83.5 -33.5t101 -41t73 -49.5t34.5 -71t-46 -85q-70 -67 -182 -111.5t-192 -44.5q-158 0 -158 89t97 151
q80 55 168 55q21 0 19 -7t-30 -7.5t-72 -19t-82 -53.5q-50 -45 -50 -90q0 -28 27 -50t103 -22t150 24q160 53 200 116q16 23 16 39q0 46 -56 72q-65 30 -182 69q-45 15 -76.5 39.5t-31.5 59t37.5 68t90.5 53.5q114 43 193 43q110 0 110 -55zM597 690.5q26 -31.5 36 -47.5
t10 -22.5t-4 -6.5t-10 5.5t-41.5 35.5t-41.5 37q-17 -11 -46 -35q-64 -51 -64 -36q0 9 7.5 15t34.5 30q65 59 81 61q12 -5 38 -36.5z" />
    <glyph glyph-name="scircumflex" unicode="&#x15d;" horiz-adv-x="285" 
d="M50 -10q-13 -15 -5.5 -24t17 -9t19.5 3q43 13 83.5 51.5t40.5 78.5q0 22 -49 48q-23 12 -26 14q-27 18 -34 36q-14 -24 -45 -69q-7 -8 -13 -3.5t-1 12.5q41 56 54 94q7 55 80 99t133 44q38 0 53.5 -13.5t15.5 -26.5t-7.5 -30t-30.5 -32q-6 -4 -10 2q-2 6 8.5 16.5
t13.5 28.5t-16 22h-6q-39 0 -97.5 -29t-91.5 -75q-13 -17 -13 -34.5t24 -31.5q10 -6 34 -19t34 -19t24 -19t15 -24q5 -30 -28 -66q-47 -52 -140 -73q-21 -5 -42.5 -5t-29.5 16q-3 4 -3 12.5t16 27.5q15 15 48 29q3 1 5 -1t1 -5t-10.5 -7t-20.5 -19zM380.5 468
q25.5 -31 36 -47t10.5 -22.5t-4.5 -6.5t-10.5 5q-5 6 -40.5 36t-41.5 36q-18 -11 -47.5 -34.5t-46 -34t-16.5 -1.5t11 18q5 4 31 27q66 60 80 60q13 -5 38.5 -36z" />
    <glyph glyph-name="Scedilla" unicode="&#x15e;" horiz-adv-x="532" 
d="M163 -140l-57 -8q-9 0 -10 4t14 24t41 74q-137 5 -137 90q0 88 97 150q80 55 168 55q21 0 19 -7t-30 -7.5t-72 -19t-82 -53.5q-50 -45 -50 -90q0 -28 27 -50t103 -22t150 24q160 53 200 116q16 23 16 39q0 46 -56 72q-65 30 -182 69q-45 15 -76.5 39.5t-31.5 59t37.5 68
t90.5 53.5q114 43 193 43q110 0 110 -55q0 -22 -18 -51q-15 -27 -33.5 -37t-18.5 2q0 1 11 12q33 31 33 51q0 43 -85 43q-36 0 -95 -13.5t-114 -43.5q-64 -35 -64 -61q0 -21 39 -40q21 -10 83.5 -33.5t101 -41t73 -49.5t34.5 -71t-46 -85q-66 -63 -169 -106t-193 -49
q-5 -8 -28 -39.5t-26 -36.5q21 4 45.5 4t46.5 -13q34 -20 34 -56.5t-35 -68.5q-63 -57 -145 -57q-68 0 -92 40q-5 9 -5 14.5t6.5 3t11.5 -10.5q20 -30 68 -30q68 0 119 51q26 27 26 54t-15 38.5t-32 11.5z" />
    <glyph glyph-name="scedilla" unicode="&#x15f;" horiz-adv-x="285" 
d="M50 -10q-13 -15 -5.5 -24t17 -9t19.5 3q43 13 83.5 51.5t40.5 78.5q0 22 -49 48q-23 12 -26 14q-27 18 -34 36q-14 -24 -45 -69q-7 -8 -13 -3.5t-1 12.5q41 56 54 94q7 55 80 99t133 44q38 0 53.5 -13.5t15.5 -26.5t-7.5 -30t-30.5 -32q-6 -4 -10 2q-2 6 8.5 16.5
t13.5 28.5t-16 22h-6q-39 0 -97.5 -29t-91.5 -75q-13 -17 -13 -34.5t24 -31.5q10 -6 34 -19t34 -19t24 -19t15 -24q5 -30 -28 -66q-47 -52 -140 -73q-21 -5 -42.5 -5t-29.5 16q-3 4 -3 12.5t16 27.5q15 15 48 29q3 1 5 -1t1 -5t-10.5 -7t-20.5 -19zM84 -97.5q6 -9.5 6 -20.5
t-36 -57q-47 -57 -57 -57q-3 0 -3 5t18 25q50 62 36 87q-14 27 21 27q9 0 15 -9.5z" />
    <glyph glyph-name="Scaron" unicode="&#x160;" horiz-adv-x="532" 
d="M645 528q0 -22 -18 -51q-15 -27 -33.5 -37t-18.5 2q0 1 11 12q33 31 33 51q0 43 -85 43q-36 0 -95 -13.5t-114 -43.5q-64 -35 -64 -61q0 -21 39 -40q21 -10 83.5 -33.5t101 -41t73 -49.5t34.5 -71t-46 -85q-70 -67 -182 -111.5t-192 -44.5q-158 0 -158 89t97 151
q80 55 168 55q21 0 19 -7t-30 -7.5t-72 -19t-82 -53.5q-50 -45 -50 -90q0 -28 27 -50t103 -22t150 24q160 53 200 116q16 23 16 39q0 46 -56 72q-65 30 -182 69q-45 15 -76.5 39.5t-31.5 59t37.5 68t90.5 53.5q114 43 193 43q110 0 110 -55zM482 713q-4 7 -4 13.5t4.5 6.5
t8.5 -3.5t25 -20.5q49 -41 60 -52q18 11 47 34t45 33.5t17 2.5q0 -9 -8 -16l-34 -31q-65 -58 -79 -60q-26 10 -82 93z" />
    <glyph glyph-name="scaron" unicode="&#x161;" horiz-adv-x="285" 
d="M50 -10q-13 -15 -5.5 -24t17 -9t19.5 3q43 13 83.5 51.5t40.5 78.5q0 22 -49 48q-23 12 -26 14q-27 18 -34 36q-14 -24 -45 -69q-7 -8 -13 -3.5t-1 12.5q41 56 54 94q7 55 80 99t133 44q38 0 53.5 -13.5t15.5 -26.5t-7.5 -30t-30.5 -32q-6 -4 -10 2q-2 6 8.5 16.5
t13.5 28.5t-16 22h-6q-39 0 -97.5 -29t-91.5 -75q-13 -17 -13 -34.5t24 -31.5q10 -6 34 -19t34 -19t24 -19t15 -24q5 -30 -28 -66q-47 -52 -140 -73q-21 -5 -42.5 -5t-29.5 16q-3 4 -3 12.5t16 27.5q15 15 48 29q3 1 5 -1t1 -5t-10.5 -7t-20.5 -19zM231 485q-4 7 -4 13.5
t4.5 6.5t8.5 -3.5l24.5 -20.5l38 -31.5t22.5 -20.5q16 10 45 33t46.5 34t17.5 2t-8 -15t-34 -29q-67 -61 -80 -61q-22 8 -81 92z" />
    <glyph glyph-name="Tcommaaccent" unicode="&#x162;" horiz-adv-x="251" 
d="M271 58q3 0 3 -6t-14 -20l-10 -15q-27 -41 -39.5 -48t-20 -7t-23 3.5t-16 7.5t-0.5 17t19 62.5t44 97.5l92 174q9 17 9 26.5t-3 14.5q6 29 49.5 74t79.5 45q16 0 39 -12.5t20 -32.5q-7 5 -13 5q-42 0 -105 -82q-105 -136 -178 -312q-8 -21 -8 -28.5v-9.5q4 -10 16.5 -6
t23.5 18q26 34 35 34zM652 489q8 13 24 30q-44 1 -132 8q-109 9 -149 9t-111 -7q-95 -13 -163.5 -52.5t-81.5 -99.5q-2 -6 -2 -14.5t5.5 -20.5t13.5 -19t24.5 -17t22 -14.5t1 -8.5t-13.5 -1q-34 10 -57.5 37.5t-23.5 46t5 31.5q0 11 1 16q15 71 91 110q91 47 224 47
q81 0 212.5 -18t146.5 -18q27 30 41 31q5 1 14 1t16 -6.5t7 -13.5t-6 -14t-24.5 -20.5t-29.5 -24.5q-52 -52 -52 -91q0 -17 7 -27.5t-1 -15t-17 6.5q-10 8 -10 51t18 78zM166.5 -108q7.5 -11 7.5 -25.5t-44 -68.5q-54 -70 -69 -70q-5 0 -5 9q0 2 23 27q61 77 44 106
q-7 12 -3.5 22.5t21.5 10.5t25.5 -11z" />
    <glyph glyph-name="tcommaaccent" unicode="&#x163;" 
d="M200 280q77 7 93.5 7t16.5 -5q0 -6 -23.5 -12.5t-114.5 -16.5l-12 -21q-15 -24 -16 -29q-57 -114 -60 -145q-1 -9 -1 -23t8 -23q14 -16 40 -2t72.5 56t75.5 82q4 5 10 2q15 -7 -52 -79q-64 -69 -107 -85q-25 -9 -42 -9q-40 0 -53 38q-2 7 -2 17q0 35 32 106
q-5 -11 -39 -50q-9 -10 -13 -1.5t2 15.5q49 61 77 103q0 1 22 42q-10 -2 -20.5 -2t-15.5 6.5t-1 15.5q7 16 53 18q1 2 4 2l50 93q4 8 9 16.5l7.5 13l5.5 9.5t5 7l4 4q4 6 23.5 6t26.5 -11q3 -4 3 -13.5t-7 -21t-15 -16.5t-11 -11l-48 -84zM56.5 -66q7.5 -11 7.5 -24.5
t-44 -68.5q-56 -71 -70 -71q-4 0 -4 9q0 3 23 28q62 76 44 106q-7 12 -3 22q3 10 21 10t25.5 -11z" />
    <glyph glyph-name="Tcaron" unicode="&#x164;" horiz-adv-x="251" 
d="M271 58q3 0 3 -6t-14 -20l-10 -15q-27 -41 -39.5 -48t-20 -7t-23 3.5t-16 7.5t-0.5 17t19 62.5t44 97.5l92 174q9 17 9 26.5t-3 14.5q6 29 49.5 74t79.5 45q16 0 39 -12.5t20 -32.5q-7 5 -13 5q-42 0 -105 -82q-105 -136 -178 -312q-8 -21 -8 -28.5v-9.5q4 -10 16.5 -6
t23.5 18q26 34 35 34zM652 489q8 13 24 30q-44 1 -132 8q-109 9 -149 9t-111 -7q-95 -13 -163.5 -52.5t-81.5 -99.5q-2 -6 -2 -14.5t5.5 -20.5t13.5 -19t24.5 -17t22 -14.5t2 -7.5t-7 -3t-7.5 1q-34 10 -57.5 37.5t-23.5 46t5 31.5q0 11 1 16q15 71 91 110q91 47 224 47
q81 0 212.5 -18t146.5 -18q27 30 41 31q5 1 14 1t16 -6.5t7 -13.5t-6 -14t-24.5 -20.5t-29.5 -24.5q-52 -52 -52 -91q0 -17 7 -27.5t-1 -15t-17 6.5q-10 8 -10 51t18 78zM417 699q-4 7 -4 13.5t4.5 6.5t8.5 -3.5l24 -20.5q50 -41 61 -52q18 11 47 34t45 33.5t17 2.5
q0 -9 -7.5 -15.5l-34.5 -30.5q-66 -60 -79 -60q-23 8 -82 92z" />
    <glyph glyph-name="tcaron" unicode="&#x165;" horiz-adv-x="461" 
d="M200 280q77 7 93 7t17 -5.5t-11.5 -8.5t-24 -6.5t-102.5 -13.5l-12 -21q-15 -24 -16 -29q-57 -114 -60 -145q-1 -9 -1 -23t8 -23q14 -16 40 -2t72.5 56t75.5 82q4 5 10 2q15 -7 -52 -79q-64 -69 -107 -85q-25 -9 -42 -9q-40 0 -53 38q-2 7 -2 17q0 35 32 106
q-5 -11 -39 -50q-9 -10 -14 0q-1 2 -1 5.5t4 8.5q49 61 77 103q0 1 22 42q-10 -2 -20.5 -2t-15.5 6.5t-1 15.5q7 16 53 18q1 2 4 2l50 93q4 8 9 16.5l7.5 13l5.5 9.5t5 7l4 4q4 6 23.5 6t26.5 -11q3 -4 3 -13.5t-7 -21t-15 -16.5t-11 -11l-48 -84zM444 492q0 -21 -46 -76
q-56 -67 -68 -67q-4 0 -4 6.5t23 29.5q34 40 46 77q7 16 0.5 29t-5.5 23q7 10 23 10t23.5 -11t7.5 -21z" />
    <glyph glyph-name="Tbar" unicode="&#x166;" horiz-adv-x="251" 
d="M652 489q8 13 24 30q-44 1 -132 8q-109 9 -149 9t-111 -7q-95 -13 -163.5 -52.5t-81.5 -99.5q-2 -6 -2 -14.5t5.5 -20.5t13.5 -19t24.5 -17t22 -14.5t1 -8.5t-13.5 -1q-34 10 -57.5 37.5t-23.5 46t5 31.5q0 11 1 16q15 71 91 110q91 47 224 47q81 0 212.5 -18t146.5 -18
q27 30 41 31q5 1 14 1t16 -6.5t7 -13.5t-6 -14t-24.5 -20.5t-29.5 -24.5q-52 -52 -52 -91q0 -17 7 -27.5t-1 -15t-17 6.5q-10 8 -10 51t18 78zM271 58q3 0 3 -6t-14 -20l-10 -15q-27 -41 -39.5 -48t-20 -7t-23 3.5t-16.5 8t-1 14.5t8 36.5t29 70.5l35.5 72.5t42.5 79.5
t31 57q-48 -2 -60 -2q-24 -2 -23 11q2 14 22 22l10 3h67q5 15 0 27q6 29 49.5 74t79.5 45q16 0 39 -12.5t20 -32.5q-7 5 -13 5q-48 0 -123 -105h30q51 0 55 -12q0 -10 -26.5 -13.5t-27.5 -3.5l-54 -3q-81 -123 -137 -257q-8 -21 -8 -28.5v-9.5q4 -10 16.5 -6t23.5 18
q26 34 35 34z" />
    <glyph glyph-name="tbar" unicode="&#x167;" 
d="M84 58q-1 -9 -1 -23t8 -23q14 -16 40 -2t72.5 56t75.5 82q4 5 10 2q15 -7 -52 -79q-64 -69 -107 -85q-25 -9 -42 -9q-40 0 -53 38q-2 7 -2 17q0 35 32 106q-5 -11 -39 -50q-9 -10 -14 0q-1 2 -1 5.5t4 8.5l60 77h-18q-17 -1 -16 9q2 13 17 20q3 2 6 2h31q2 6 9 18t10 19
q-10 -2 -20.5 -2t-15.5 6.5t-1 15.5q7 16 53 18q1 2 4 2l50 93q4 8 9 16.5l7.5 13l5.5 9.5t5 7l4 4q4 6 23.5 6t26.5 -11q3 -4 3 -13.5t-7 -21t-15 -16.5t-11 -11l-48 -84l13 1q77 7 93.5 7t16.5 -5q0 -6 -23.5 -12.5t-114.5 -16.5l-25 -41h28q39 0 41 -12q0 -7 -9 -8
l-15 -3q-10 -2 -16 -2l-44 -4q-46 -93 -48 -125z" />
    <glyph glyph-name="Utilde" unicode="&#x168;" horiz-adv-x="474" 
d="M114 -32q-71 0 -71 92q0 84 83 254q45 93 53.5 112.5t0.5 18.5q-8 -2 -23 -13q-78 -66 -136 -70q-10 -1 -10 5q2 9 13 11q39 4 116.5 66.5t93.5 92.5q4 12 38 12q26 -2 25 -12q-172 -290 -195 -414q-5 -28 -5 -50q0 -70 50 -70q82 0 242 155q67 436 214 436q52 0 65 -34
q6 -15 6 -31.5t-7 -34.5q-16 -53 -52.5 -108.5t-102 -133t-77.5 -93.5q-14 -71 -18 -179v-11q0 -95 33 -135q14 -16 26.5 -16t22.5 12q5 8 12.5 15.5t12 5t1.5 -12.5q-10 -16 -13 -19q-16 -20 -56 -20h-7q-58 1 -74 98q-4 31 -4 83.5t13 141.5q-160 -154 -270 -154zM636 510
q5 18 5 33t-6.5 21t-12.5 6q-14 0 -37 -25q-91 -101 -134 -322q56 53 111.5 136t73.5 151zM362 625q-2 -2 -8.5 -2t-6.5 5q0 1 9.5 15t22.5 29t30.5 24t28.5 9t18 -3t37 -18q46 -23 65 -23q28 0 41 33q3 7 10 4t7 -5q0 -23 -40 -51q-17 -13 -35 -13l-17 3q-10 3 -28.5 11
t-27.5 11q-41 14 -56 6q-32 -8 -50 -35z" />
    <glyph glyph-name="utilde" unicode="&#x169;" horiz-adv-x="445" 
d="M456 71q-39 -42 -70 -65q-40 -29 -87 -29q-9 0 -23.5 8.5t-19.5 24.5t-5 31q0 52 20 103q-3 -2 -27.5 -42.5t-60 -76.5t-71.5 -36q-17 0 -39 9q-40 18 -40 66q0 59 40.5 121.5t51.5 66.5q15 4 28.5 4t27.5 -5.5t-4 -18.5q-69 -63 -98 -140q-11 -30 -11 -50.5t10.5 -26.5
t20.5 -6q24 0 65.5 33.5t114.5 139.5q10 15 35 58.5t30 51.5q16 0 37.5 -7.5t14.5 -19.5q-48 -80 -67.5 -118t-26.5 -89q-1 -9 -1 -23t8 -23q15 -16 41.5 -1.5t72.5 56t74 81.5q4 5 9.5 2.5t5.5 -5t-2 -5.5q-15 -27 -54 -69zM404 348q-18 -13 -31 -13t-21.5 3t-28.5 11.5
t-27 10.5q-43 15 -56 7q-32 -8 -50 -35q-2 -3 -5.5 -3t-7.5 3q-2 2 -2 3q19 28 32 43t30.5 24t28.5 9t18.5 -3t37.5 -18q44 -23 63 -23q29 0 41 33q4 8 11 4.5t7 -5.5q0 -22 -40 -51z" />
    <glyph glyph-name="Umacron" unicode="&#x16a;" horiz-adv-x="474" 
d="M114 -32q-71 0 -71 92q0 84 83 254q45 93 53.5 112.5t0.5 18.5q-8 -2 -23 -13q-78 -66 -136 -70q-10 -1 -10 5q2 9 13 11q39 4 116.5 66.5t93.5 92.5q4 12 38 12q26 -2 25 -12q-172 -290 -195 -414q-5 -28 -5 -50q0 -70 50 -70q82 0 242 155q67 436 214 436q52 0 65 -34
q6 -15 6 -31.5t-7 -34.5q-16 -53 -52.5 -108.5t-102 -133t-77.5 -93.5q-14 -71 -18 -179v-11q0 -95 33 -135q14 -16 26.5 -16t22.5 12q5 8 12.5 15.5t12 5t1.5 -12.5q-10 -16 -13 -19q-16 -20 -56 -20h-7q-58 1 -74 98q-4 31 -4 83.5t13 141.5q-160 -154 -270 -154zM636 510
q5 18 5 33t-6.5 21t-12.5 6q-14 0 -37 -25q-91 -101 -134 -322q56 53 111.5 136t73.5 151zM401 673l149 1q53 0 55 -12q0 -10 -38 -15l-16 -2q-132 -8 -157 -8t-25 9q0 15 22 24z" />
    <glyph glyph-name="umacron" unicode="&#x16b;" horiz-adv-x="445" 
d="M456 71q-39 -42 -70 -65q-40 -29 -87 -29q-9 0 -23.5 8.5t-19.5 24.5t-5 31q0 52 20 103q-3 -2 -27.5 -42.5t-60 -76.5t-71.5 -36q-17 0 -39 9q-40 18 -40 66q0 59 40.5 121.5t51.5 66.5q15 4 28.5 4t27.5 -5.5t-4 -18.5q-69 -63 -98 -140q-11 -30 -11 -50.5t10.5 -26.5
t20.5 -6q24 0 65.5 33.5t114.5 139.5q10 15 35 58.5t30 51.5q16 0 37.5 -7.5t14.5 -19.5q-48 -80 -67.5 -118t-26.5 -89q-1 -9 -1 -23t8 -23q15 -16 41.5 -1.5t72.5 56t74 81.5q4 5 9.5 2.5t5.5 -5t-2 -5.5q-15 -27 -54 -69zM215 402l149 1q51 0 55 -13q0 -7 -13 -10
q-39 -7 -114 -10.5t-81.5 -4t-8.5 -0.5q-19 0 -19 10q0 14 21 24z" />
    <glyph glyph-name="Ubreve" unicode="&#x16c;" horiz-adv-x="474" 
d="M114 -32q-71 0 -71 92q0 84 83 254q45 93 53.5 112.5t0.5 18.5q-8 -2 -23 -13q-78 -66 -136 -70q-10 -1 -10 5q2 9 13 11q39 4 116.5 66.5t93.5 92.5q4 12 38 12q26 -2 25 -12q-172 -290 -195 -414q-5 -28 -5 -50q0 -70 50 -70q82 0 242 155q67 436 214 436q52 0 65 -34
q6 -15 6 -31.5t-7 -34.5q-16 -53 -52.5 -108.5t-102 -133t-77.5 -93.5q-14 -71 -18 -179v-11q0 -95 33 -135q14 -16 26.5 -16t22.5 12q5 8 12.5 15.5t12 5t1.5 -12.5q-10 -16 -13 -19q-16 -20 -56 -20h-7q-58 1 -74 98q-4 31 -4 83.5t13 141.5q-160 -154 -270 -154zM636 510
q5 18 5 33t-6.5 21t-12.5 6q-14 0 -37 -25q-91 -101 -134 -322q56 53 111.5 136t73.5 151zM305 691q0 45 20 45q5 0 11 -4.5t6 -15.5q0 -53 42 -76q20 -12 43.5 -12t50.5 13q51 25 73 93q1 4 3 4t5 -3q6 -2 6 -11q-17 -71 -90 -105q-38 -19 -68 -19t-53 11q-49 22 -49 80z
" />
    <glyph glyph-name="ubreve" unicode="&#x16d;" horiz-adv-x="445" 
d="M456 71q-39 -42 -70 -65q-40 -29 -87 -29q-9 0 -23.5 8.5t-19.5 24.5t-5 31q0 52 20 103q-3 -2 -27.5 -42.5t-60 -76.5t-71.5 -36q-17 0 -39 9q-40 18 -40 66q0 59 40.5 121.5t51.5 66.5q15 4 28.5 4t27.5 -5.5t-4 -18.5q-69 -63 -98 -140q-11 -30 -11 -50.5t10.5 -26.5
t20.5 -6q24 0 65.5 33.5t114.5 139.5q10 15 35 58.5t30 51.5q16 0 37.5 -7.5t14.5 -19.5q-48 -80 -67.5 -118t-26.5 -89q-1 -9 -1 -23t8 -23q15 -16 41.5 -1.5t72.5 56t74 81.5q4 5 9.5 2.5t5.5 -5t-2 -5.5q-15 -27 -54 -69zM372 346q-38 -18 -68 -18t-53 10q-48 23 -48 80
q0 37 11 42t18.5 0t7.5 -16q0 -53 41 -76q21 -12 44 -12t50 13q52 25 74 93q1 4 2.5 4t6 -3.5t4.5 -10.5q-17 -72 -90 -106z" />
    <glyph glyph-name="Uring" unicode="&#x16e;" horiz-adv-x="474" 
d="M114 -32q-71 0 -71 92q0 84 83 254q45 93 53.5 112.5t0.5 18.5q-8 -2 -23 -13q-78 -66 -136 -70q-10 -1 -10 5q2 9 13 11q39 4 116.5 66.5t93.5 92.5q4 12 38 12q26 -2 25 -12q-172 -290 -195 -414q-5 -28 -5 -50q0 -70 50 -70q82 0 242 155q67 436 214 436q52 0 65 -34
q6 -15 6 -31.5t-7 -34.5q-16 -53 -52.5 -108.5t-102 -133t-77.5 -93.5q-14 -71 -18 -179v-11q0 -95 33 -135q14 -16 26.5 -16t22.5 12q5 8 12.5 15.5t12 5t1.5 -12.5q-10 -16 -13 -19q-16 -20 -56 -20h-7q-58 1 -74 98q-4 31 -4 83.5t13 141.5q-160 -154 -270 -154zM636 510
q5 18 5 33t-6.5 21t-12.5 6q-14 0 -37 -25q-91 -101 -134 -322q56 53 111.5 136t73.5 151zM469 663q0 35 -35 35q-27 0 -48.5 -24.5t-21.5 -44.5q0 -30 36 -30q23 0 40 15.5t24 32.5q5 6 5 16zM491 668q0 -37 -44 -69q-22 -14 -41.5 -14t-36.5 7q-32 12 -32 44v8q7 31 39 51
q18 15 50 15q65 0 65 -42z" />
    <glyph glyph-name="uring" unicode="&#x16f;" horiz-adv-x="445" 
d="M456 71q-39 -42 -70 -65q-40 -29 -87 -29q-9 0 -23.5 8.5t-19.5 24.5t-5 31q0 52 20 103q-3 -2 -27.5 -42.5t-60 -76.5t-71.5 -36q-17 0 -39 9q-40 18 -40 66q0 59 40.5 121.5t51.5 66.5q15 4 28.5 4t27.5 -5.5t-4 -18.5q-69 -63 -98 -140q-11 -30 -11 -50.5t10.5 -26.5
t20.5 -6q24 0 65.5 33.5t114.5 139.5q10 15 35 58.5t30 51.5q16 0 37.5 -7.5t14.5 -19.5q-48 -80 -67.5 -118t-26.5 -89q-1 -9 -1 -23t8 -23q15 -16 41.5 -1.5t72.5 56t74 81.5q4 5 9.5 2.5t5.5 -5t-2 -5.5q-15 -27 -54 -69zM362 418q5 6 5 14q0 37 -35 37q-26 0 -49 -25.5
t-21 -46.5q4 -27 37 -27q22 0 39.5 15.5t23.5 32.5zM390 439q0 -37 -44 -69q-22 -14 -42 -14t-37 7q-32 14 -32 42q0 5 1 10q7 32 39 52q21 15 51 15q64 0 64 -43z" />
    <glyph glyph-name="Uhungarumlaut" unicode="&#x170;" horiz-adv-x="474" 
d="M114 -32q-71 0 -71 92q0 84 83 254q45 93 53.5 112.5t0.5 18.5q-8 -2 -23 -13q-78 -66 -136 -70q-10 -1 -10 5q2 9 13 11q39 4 116.5 66.5t93.5 92.5q4 12 38 12q26 -2 25 -12q-172 -290 -195 -414q-5 -28 -5 -50q0 -70 50 -70q82 0 242 155q67 436 214 436q52 0 65 -34
q6 -15 6 -31.5t-7 -34.5q-16 -53 -52.5 -108.5t-102 -133t-77.5 -93.5q-14 -71 -18 -179v-11q0 -95 33 -135q14 -16 26.5 -16t22.5 12q5 8 12.5 15.5t12 5t1.5 -12.5q-10 -16 -13 -19q-16 -20 -56 -20h-7q-58 1 -74 98q-4 31 -4 83.5t13 141.5q-160 -154 -270 -154zM636 510
q5 18 5 33t-6.5 21t-12.5 6q-14 0 -37 -25q-91 -101 -134 -322q56 53 111.5 136t73.5 151zM514 765.5q8 2.5 22 2.5t14 -10q0 -16 -12 -34t-15.5 -24.5t-23 -37t-29.5 -48t-16 -17.5q-2 0 -5.5 3t2.5 15t19.5 51.5t15.5 44.5t4.5 16.5t4.5 17t6.5 12t12.5 9zM402 765.5
q8 2.5 22.5 2.5t14.5 -11t-13 -31.5t-16.5 -26.5l-22 -36.5l-28.5 -47.5t-16.5 -17t-6.5 5t4 13.5t12 30.5l14.5 41l8 23.5t4.5 16l4.5 17t6 12t12.5 9z" />
    <glyph glyph-name="uhungarumlaut" unicode="&#x171;" horiz-adv-x="445" 
d="M456 71q-39 -42 -70 -65q-40 -29 -87 -29q-9 0 -23.5 8.5t-19.5 24.5t-5 31q0 52 20 103q-3 -2 -27.5 -42.5t-60 -76.5t-71.5 -36q-17 0 -39 9q-40 18 -40 66q0 59 40.5 121.5t51.5 66.5q15 4 28.5 4t27.5 -5.5t-4 -18.5q-69 -63 -98 -140q-11 -30 -11 -50.5t10.5 -26.5
t20.5 -6q24 0 65.5 33.5t114.5 139.5q10 15 35 58.5t30 51.5q16 0 37.5 -7.5t14.5 -19.5q-48 -80 -67.5 -118t-26.5 -89q-1 -9 -1 -23t8 -23q15 -16 41.5 -1.5t72.5 56t74 81.5q4 5 9.5 2.5t5.5 -5t-2 -5.5q-15 -27 -54 -69zM398.5 503q11.5 0 11.5 -10q0 -7 -9.5 -22.5
l-27 -42.5t-26 -42.5t-13.5 -15.5q-1 0 -4 1.5t1.5 10.5t10.5 27q15 45 18 48q2 6 4 15l3 14q3 12 11.5 14.5t20 2.5zM281.5 420.5q-14.5 -23.5 -22 -37t-12.5 -13.5t-5 4t11 27t15.5 42l7.5 31.5t5 16.5q6 12 23 12t17 -9q0 -12 -9.5 -26t-12.5 -19z" />
    <glyph glyph-name="Uogonek" unicode="&#x172;" horiz-adv-x="474" 
d="M87.5 -73.5q-47.5 -30.5 -77.5 -57.5t-56.5 -69.5t-26.5 -70.5t25 -27q14 1 43.5 21t48 35.5l32.5 27.5q33 28 45 39t16 3.5t-7 -19.5l-14 -19q-84 -106 -154 -106q-16 0 -34 9.5t-30.5 27.5t-12.5 37q0 61 80 116q49 34 144 94q-66 2 -66 92q0 84 83 254
q45 93 53.5 112.5t0.5 18.5q-8 -2 -23 -13q-78 -66 -136 -70q-10 -1 -10 5q2 9 13 11q39 4 116.5 66.5t93.5 92.5q4 12 38 12q26 -2 25 -12q-172 -290 -195 -414q-5 -28 -5 -50q0 -70 50 -70q82 0 242 155q67 436 214 436q52 0 65 -34q6 -15 6 -31.5t-7 -34.5
q-16 -53 -52.5 -108.5t-102 -133t-77.5 -93.5q-14 -71 -18 -179v-11q0 -95 33 -135q14 -16 26.5 -16t22.5 12q5 8 12.5 15.5t12 5t1.5 -12.5q-10 -16 -13 -19q-16 -20 -56 -20h-7q-58 1 -74 98q-4 31 -4 83.5t13 141.5q-137 -131 -232 -149q-17 -16 -64.5 -46.5zM636 510
q5 18 5 33t-6.5 21t-12.5 6q-14 0 -37 -25q-91 -101 -134 -322q56 53 111.5 136t73.5 151z" />
    <glyph glyph-name="uogonek" unicode="&#x173;" horiz-adv-x="445" 
d="M307 -22q-56 0 -56 63q0 52 20 103q-3 -2 -27.5 -42.5t-60 -76.5t-71.5 -36q-17 0 -39 9q-40 18 -40 66q0 59 40.5 121.5t51.5 66.5q15 4 28.5 4t27.5 -5.5t-4 -18.5q-69 -63 -98 -140q-11 -30 -11 -50.5t10.5 -26.5t20.5 -6q24 0 65.5 33.5t114.5 139.5q10 15 35 58.5
t30 51.5q16 0 37.5 -7.5t14.5 -19.5q-48 -80 -67.5 -118t-26.5 -89q-1 -9 -1 -23t8 -23q15 -16 41.5 -1.5t72.5 56t74 81.5q4 5 9.5 2.5t5.5 -5t-2 -5.5q-15 -27 -54 -69t-76 -68q-12 -10 -36 -19q-16 -15 -57 -41.5t-66 -50t-46 -57t-21 -48.5q0 -29 17 -29q25 0 99 64
q38 33 39 33q15 15 16 4q1 -6 -6 -14l-17 -21q-17 -20 -32.5 -35.5t-40.5 -30t-51 -14.5t-47 28q-11 16 -11 33q0 49 65 93q28 20 122 80z" />
    <glyph glyph-name="Wcircumflex" unicode="&#x174;" horiz-adv-x="810" 
d="M92 -91q-79 0 -79 56q0 36 28.5 84.5t55.5 90l65 98l54 80.5q107 153 133 205q-23 2 -57 2q-119 0 -198 -47q-49 -29 -49 -72q0 -14 8 -26t16 -17q16 -10 36 -20q12 -9 4 -11q-3 0 -7 1q-23 5 -50 29t-28 55q-4 10 -4 17q0 43 33.5 74.5t86.5 43.5q72 16 128.5 16
t95.5 -9q3 15 -1 24t8 11.5t19 -15.5q2 -11 -1 -26q18 -5 36.5 -12.5t27.5 -22t-6 -13.5q-9 0 -28.5 6.5t-39.5 8.5q-31 -90 -115 -215q-181 -267 -181 -341q0 -33 32 -33q50 0 161 74q171 119 290 287q-1 28 -1 68t6 79q3 21 22.5 39t29.5 18q13 0 17 -23l2 -18v-18
q0 -77 -30 -139v-9q0 -112 49.5 -202t114.5 -90q56 0 99 58q71 97 71 237q0 127 -56 187q-33 35 -79 35q-38 0 -65 -20q-11 -7 -16 1t1 13q53 39 101 39t79 -22q77 -50 77 -197q0 -63 -18 -128q-26 -95 -87 -168t-134 -73h-2q-79 0 -131.5 79t-52.5 177q0 12 1 25
q-49 -62 -123.5 -132.5t-139.5 -115.5q-112 -83 -209 -83zM719.5 678q25.5 -31 35.5 -47t10 -22.5t-4 -6.5t-10 5q-5 6 -41 36t-41 36q-18 -11 -47.5 -34.5t-46 -34t-16.5 -1.5t7.5 15t33.5 30q67 60 81 60q13 -5 38.5 -36z" />
    <glyph glyph-name="wcircumflex" unicode="&#x175;" horiz-adv-x="550" 
d="M140.5 187.5q-38.5 -50.5 -53 -89.5t-14.5 -64t21.5 -25t60.5 31q63 52 142 193q4 7 14.5 7t29 -5.5t18.5 -14.5q0 -3 -2 -6q-42 -68 -53 -154q-4 -29 10 -47q13 -18 53 4q62 31 113.5 97t63.5 119q4 11 4 24q0 56 -32 68q-9 4 -20 2.5t-13 1t-1 5.5q2 9 41 9
q65 0 65 -67t-76 -161q-48 -57 -113 -105q-36 -25 -75 -25q-51 0 -63 38q-7 18 -7 57t10 64q-27 -54 -59 -91t-54.5 -50.5t-45.5 -13.5q-40 0 -56 21.5t-16 46.5q0 33 14.5 71.5t29 61t38 54t30.5 34.5q15 4 28.5 4t23.5 -4t10.5 -10t-14 -18t-53 -62.5zM423 432
q25 -31 36 -47t11 -22.5t-5 -6.5t-10 4q-6 7 -41.5 37t-41.5 36q-17 -11 -46.5 -34.5t-46 -34t-16.5 -2t6.5 14l34.5 30.5q67 61 81 61q13 -5 38 -36z" />
    <glyph glyph-name="Ycircumflex" unicode="&#x176;" horiz-adv-x="310" 
d="M114 -32q-71 0 -71 92q0 84 83 254q45 93 53.5 112.5t0.5 18.5q-8 -2 -23 -13q-78 -66 -136 -70q-10 -1 -10 5q2 9 13 11q39 4 116.5 66.5t93.5 92.5q4 12 38 12q26 -2 25 -12q-172 -289 -195 -414q-5 -28 -5 -50q0 -70 50 -70q41 0 94 42.5t105 108.5q123 160 190 319
q18 42 28 50q17 28 64 34q24 3 44.5 -1t21.5 -4q11 -2 11 -9q0 -1 -1 -3q-3 -8 -11 -7.5t-12 0.5q-32 0 -56 -26t-42 -75t-68 -209t-56 -176q52 13 69.5 13t22.5 -3q7 -6 3 -11t-8 -3t-15.5 2t-45.5 -8.5t-40 -24.5q-100 -253 -242 -352q-63 -44 -114 -44q-19 0 -35 6
q-47 17 -47 69q0 60 63 132q124 142 332 209q7 16 33 113t39 140q-89 -135 -185 -226t-175 -91zM61 -296q0 -12 3 -22q10 -39 50 -39q59 0 123 79q97 117 159 291q-173 -57 -277 -185q-58 -71 -58 -124zM529.5 684q25.5 -31 35.5 -47t10 -22.5t-4 -6.5t-10 5q-5 6 -40.5 36
t-41.5 36q-18 -11 -47.5 -34.5t-46 -34t-16.5 -1.5t6 14t34 31q66 60 82 60q13 -5 38.5 -36z" />
    <glyph glyph-name="ycircumflex" unicode="&#x177;" horiz-adv-x="416" 
d="M13 -381q-8 0 -20 3q-51 13 -51 53.5t52.5 101.5t221.5 173q94 192 119 269q-12 -14 -47 -60.5t-62 -79t-65 -61.5t-70 -29t-49.5 14.5t-19.5 30.5t-2 27q0 37 20 74q30 61 81 105q19 18 33.5 18t26.5 -9q13 -14 8 -24q-38 -22 -87 -85q-26 -34 -36 -86q-1 -7 -1 -17.5
t8.5 -17t17.5 -6.5q31 0 65 33t65 69.5t70.5 87.5l52.5 67.5t28.5 15t31 -9.5t13 -13t-51 -113.5l-70.5 -155.5q24 13 81.5 61.5t97.5 98.5q10 12 13 2q1 -2 1 -6.5t-6 -12.5q-31 -41 -99 -103t-108 -84q-85 -175 -114 -220q-75 -111 -148 -111zM197 -88
q-120 -90 -171.5 -142t-51.5 -89.5t26 -37.5q20 0 46 20.5t50 54.5t36.5 58.5t34.5 72t30 63.5zM371 410.5q26 -31.5 36 -47.5t10 -22.5t-4.5 -6.5t-10.5 5q-6 7 -41 37t-41 36q-18 -11 -47.5 -35t-46 -34.5t-16.5 -1.5t7.5 15t33.5 30q64 59 81 61q13 -5 39 -36.5z" />
    <glyph glyph-name="Ydieresis" unicode="&#x178;" horiz-adv-x="526" 
d="M114 -32q-71 0 -71 92q0 84 83 254q45 93 53.5 112.5t0.5 18.5q-8 -2 -23 -13q-78 -66 -136 -70q-10 -1 -10 5q2 9 13 11q39 4 116.5 66.5t93.5 92.5q4 12 38 12q26 -2 25 -12q-172 -289 -195 -414q-5 -28 -5 -50q0 -70 50 -70q41 0 94 42.5t105 108.5q123 160 190 319
q18 42 28 50q17 28 64 34q24 3 44.5 -1t21.5 -4q11 -2 11 -9q0 -1 -1 -3q-3 -8 -11 -7.5t-12 0.5q-32 0 -56 -26t-42 -75t-68 -209t-56 -176q52 13 69.5 13t22.5 -3q7 -6 3 -11t-8 -3t-15.5 2t-45.5 -8.5t-40 -24.5q-100 -253 -242 -352q-63 -44 -114 -44q-19 0 -35 6
q-47 17 -47 69q0 60 63 132q124 142 332 209q7 16 33 113t39 140q-89 -135 -185 -226t-175 -91zM61 -296q0 -12 3 -22q10 -39 50 -39q59 0 123 79q97 117 159 291q-173 -57 -277 -185q-58 -71 -58 -124zM331 649q0 2 30.5 26t33.5 24t-0.5 -11t-3.5 -17.5t-10 -22t-16 -15.5
q-34 0 -34 16zM556 698l-6 -26q0 -8 -10.5 -23.5t-15.5 -15.5q-34 0 -34 16q0 2 28 24.5t32 24.5t5 2t1 -2z" />
    <glyph glyph-name="Zacute" unicode="&#x179;" horiz-adv-x="549" 
d="M594 499q-125 39 -246 39q-57 0 -109 -10q-41 -11 -63.5 -34.5t-22.5 -35.5t4 -20t4 -13.5t-4.5 -4.5t-15.5 14.5t-11 33t14 40.5q29 43 79 60t123 17q115 0 283 -43q23 23 48.5 33.5t39.5 10.5t20 -18v-5q0 -35 -32.5 -55.5t-58.5 -20.5q-9 0 -17 2q-24 -13 -42.5 -29.5
l-28.5 -25t-26 -25l-24 -25l-26.5 -29t-25.5 -27.5q-32 -35 -52 -60q87 7 111 7h30t12 -1.5t9 -3.5q7 -6 -21 -16q-43 -12 -173 -21l-47 -50q-100 -102 -180 -148q-7 -7 -7 -14.5t12 -15.5q28 -15 100.5 -57t111.5 -61t93 -34t82 -15t42 2q49 7 79 40q14 16 14 37t-17 48
q-7 13 1 14.5t15 -10.5q20 -32 28 -80q1 -6 1 -13q0 -30 -23 -57q-27 -32 -91.5 -32t-132.5 23t-123 59q-174 112 -236 135q-33 -17 -46 -17q-38 0 -38 32q0 19 21 29q10 1 30.5 -3.5t30.5 -5.5q66 23 222 190q-48 -3 -64 -3t-22.5 0.5t-15 8.5t-8.5 20t20 20.5t27 8.5h12
t13 -10t11 -10q15 -1 30 -1t29 1l39 42l41 44q109 117 168 149zM542.5 669q-65.5 -31 -76.5 -31.5t-11 2.5t2.5 6t14.5 10q29 19 40.5 29t27.5 21q37 26 50 44q8 2 11.5 2t17.5 -5q11 -7 11 -19q0 -9 -6 -15q-16 -13 -81.5 -44z" />
    <glyph glyph-name="zacute" unicode="&#x17a;" horiz-adv-x="422" 
d="M302 212q-71 22 -107.5 22t-69.5 -30.5t-60 -68.5q-16 -19 -22 -14t1 16l67 92q34 48 73 47q27 -1 49.5 -7t26.5 -7l77 -18q16 15 34.5 22t28.5 7t15 -11q1 -24 -27.5 -41t-41 -17t-17.5 1q-87 -71 -140 -118t-59 -52l30 -15q69 -40 104 -40q23 0 51 16t80 64.5t80 87.5
q5 7 11.5 4.5t6.5 -4.5q0 -14 -61.5 -77t-91.5 -85q-50 -37 -97 -37t-109 39q-23 14 -39 19q-45 -34 -68 -34q-6 0 -11 2q-7 7 -7 19t12 27q19 26 56 26q18 0 39 -7q28 23 31 27q50 43 155 145zM385.5 393q-65.5 -31 -76.5 -32t-11 2.5t2.5 6.5t13.5 10.5l25 17t20.5 15
t23.5 17.5q35 25 49 44q3 1 9.5 1t19.5 -5q12 -7 12 -18q0 -8 -11 -18t-76.5 -41z" />
    <glyph glyph-name="Zdotaccent" unicode="&#x17b;" horiz-adv-x="549" 
d="M594 499q-125 39 -246 39q-57 0 -109 -10q-41 -11 -63.5 -34.5t-22.5 -35.5t4 -20t4 -13.5t-4.5 -4.5t-15.5 14.5t-11 33t14 40.5q29 43 79 60t123 17q115 0 283 -43q23 23 48.5 33.5t39.5 10.5t20 -18v-5q0 -35 -32.5 -55.5t-58.5 -20.5q-9 0 -17 2q-24 -13 -42.5 -29.5
l-28.5 -25t-26 -25l-24 -25l-26.5 -29t-25.5 -27.5q-32 -35 -52 -60q87 7 111 7h30t12 -1.5t9 -3.5q7 -6 -21 -16q-43 -12 -173 -21l-47 -50q-100 -102 -180 -148q-7 -7 -7 -14.5t12 -15.5q28 -15 100.5 -57t111.5 -61t93 -34t82 -15t42 2q49 7 79 40q14 16 14 37t-17 48
q-7 13 1 14.5t15 -10.5q20 -32 28 -80q1 -6 1 -13q0 -30 -23 -57q-27 -32 -91.5 -32t-132.5 23t-123 59q-174 112 -236 135q-33 -17 -46 -17q-38 0 -38 32q0 19 21 29q10 1 30.5 -3.5t30.5 -5.5q66 23 222 190q-48 -3 -64 -3t-22.5 0.5t-15 8.5t-8.5 20t20 20.5t27 8.5h12
t13 -10t11 -10q15 -1 30 -1t29 1l39 42l41 44q109 117 168 149zM565 738q5 0 5 -8v-27q0 -10 -16 -33t-25 -23q-50 0 -50 25q0 7 29 32q40 34 48 34h1h8z" />
    <glyph glyph-name="zdotaccent" unicode="&#x17c;" horiz-adv-x="422" 
d="M302 212q-71 22 -107.5 22t-69.5 -30.5t-60 -68.5q-16 -19 -22 -14t1 16l67 92q34 48 73 47q27 -1 49.5 -7t26.5 -7l77 -18q16 15 34.5 22t28.5 7t15 -11q1 -24 -27.5 -41t-41 -17t-17.5 1q-87 -71 -140 -118t-59 -52l30 -15q69 -40 104 -40q23 0 51 16t80 64.5t80 87.5
q5 7 11.5 4.5t6.5 -4.5q0 -14 -61.5 -77t-91.5 -85q-50 -37 -97 -37t-109 39q-23 14 -39 19q-45 -34 -68 -34q-6 0 -11 2q-7 7 -7 19t12 27q19 26 56 26q18 0 39 -7q28 23 31 27q50 43 155 145zM361 425q5 0 5 -6v-19q0 -6 -10.5 -22t-16.5 -16q-34 0 -34 17q0 7 20 23
q29 23 36 23z" />
    <glyph glyph-name="Zcaron" unicode="&#x17d;" horiz-adv-x="549" 
d="M594 499q-125 39 -246 39q-57 0 -109 -10q-41 -11 -63.5 -34.5t-22.5 -35.5t4 -20t4 -13.5t-4.5 -4.5t-15.5 14.5t-11 33t14 40.5q29 43 79 60t123 17q115 0 283 -43q23 23 48.5 33.5t39.5 10.5t20 -18v-5q0 -35 -32.5 -55.5t-58.5 -20.5q-9 0 -17 2q-24 -13 -42.5 -29.5
l-28.5 -25t-26 -25l-24 -25l-26.5 -29t-25.5 -27.5q-32 -35 -52 -60q87 7 111 7h30t12 -1.5t9 -3.5q7 -6 -21 -16q-43 -12 -173 -21l-47 -50q-100 -102 -180 -148q-7 -7 -7 -14.5t12 -15.5q28 -15 100.5 -57t111.5 -61t93 -34t82 -15t42 2q49 7 79 40q14 16 14 37t-17 48
q-7 13 1 14.5t15 -10.5q20 -32 28 -80q1 -6 1 -13q0 -30 -23 -57q-27 -32 -91.5 -32t-132.5 23t-123 59q-174 112 -236 135q-33 -17 -46 -17q-38 0 -38 32q0 19 21 29q10 1 30.5 -3.5t30.5 -5.5q66 23 222 190q-48 -3 -64 -3t-22.5 0.5t-15 8.5t-8.5 20t20 20.5t27 8.5h12
t13 -10t11 -10q15 -1 30 -1t29 1l39 42l41 44q109 117 168 149zM460 733q-4 7 -4 13.5t4.5 6.5t9.5 -4.5t41 -34.5t43 -37q16 10 45 33t46 34t17 3q0 -9 -6.5 -15l-33.5 -31q-65 -59 -81 -61q-25 10 -81 93z" />
    <glyph glyph-name="zcaron" unicode="&#x17e;" horiz-adv-x="422" 
d="M302 212q-71 22 -107.5 22t-69.5 -30.5t-60 -68.5q-16 -19 -22 -14t1 16l67 92q34 48 73 47q27 -1 49.5 -7t26.5 -7l77 -18q16 15 34.5 22t28.5 7t15 -11q1 -24 -27.5 -41t-41 -17t-17.5 1q-87 -71 -140 -118t-59 -52l30 -15q69 -40 104 -40q23 0 51 16t80 64.5t80 87.5
q5 7 11.5 4.5t6.5 -4.5q0 -14 -61.5 -77t-91.5 -85q-50 -37 -97 -37t-109 39q-23 14 -39 19q-45 -34 -68 -34q-6 0 -11 2q-7 7 -7 19t12 27q19 26 56 26q18 0 39 -7q28 23 31 27q50 43 155 145zM227 440q-4 7 -4 13.5t4.5 6.5t8.5 -3.5l24.5 -20.5l38 -31.5t22.5 -20.5
q18 11 47 34t45.5 33.5t16.5 1.5t-8.5 -15.5t-33.5 -29.5q-65 -60 -79 -60q-23 8 -82 92z" />
    <glyph glyph-name="longs" unicode="&#x17f;" horiz-adv-x="286" 
d="M109 263q21 0 57 6h10q24 79 49 124.5t55 84t60.5 52t50.5 13.5t38 -6q47 -19 47 -60q0 -18 -11.5 -26t-11.5 8q0 5 1 11t1 14.5t-12.5 19.5t-21 11h-10.5q-39 0 -87.5 -43t-90.5 -134.5t-66.5 -179t-60.5 -180.5t-75.5 -138t-86.5 -45q-19 0 -39 7q-56 19 -56 65
q0 14 15.5 21.5t18.5 -10.5q1 -3 1 -17.5t10 -26t28 -11.5q39 0 74 46t68 115t52.5 120l52.5 144h-4q-95 -13 -103.5 -13t-15 5.5t-6.5 13.5t17 14.5t26.5 6.5t16 -6t9.5 -6z" />
    <glyph glyph-name="florin" unicode="&#x192;" horiz-adv-x="286" 
d="M455 505l2 20q0 15 -8 24t-22 9q-107 -6 -277 -403q130 13 151 13t21 -5.5t-61 -18.5t-124 -20q-75 -182 -136.5 -378t-161.5 -196q-33 0 -62 18.5t-32 49.5q0 11 6.5 19t14 8t11 -10.5t5 -23t10.5 -23t25 -10.5q77 0 150 195q19 51 72.5 179l69.5 168q-40 -2 -51.5 -2
t-20 6.5t-8.5 15.5q0 12 22.5 20.5t34.5 8.5t20 -8t11 -8h3q45 123 92 229q93 202 194 202q32 0 59 -17.5t27 -46.5q0 -12 -8 -21t-18.5 -9t-10.5 15z" />
    </font>
</defs>
</svg>
