<?xml version="1.0" standalone="no"?>
<!DOCTYPE svg PUBLIC "-//W3C//DTD SVG 1.1//EN" "http://www.w3.org/Graphics/SVG/1.1/DTD/svg11.dtd" >
<svg>
<metadata>
Created by FontForge 20090622 at Wed Feb  6 14:39:54 2019
 By deploy user
Typeface &#194;&#169; Franco Fernandez. 2016. All Rights Reserved
</metadata>
<defs>
<font id="Pasajero" horiz-adv-x="1337" >
  <font-face 
    font-family="Pasajero"
    font-weight="400"
    font-stretch="normal"
    units-per-em="2048"
    panose-1="2 0 5 0 0 0 0 0 0 0"
    ascent="1638"
    descent="-410"
    x-height="1495"
    cap-height="1495"
    bbox="-152 -545 2079 2021"
    underline-thickness="150"
    underline-position="-142"
    unicode-range="U+001D-U+F002"
  />
<missing-glyph horiz-adv-x="1024" 
d="M100 0v1434h824v-1434h-824zM150 50h724v1334h-724v-1334zM325 1148q31 28 58 43q53 30 112 30q92 0 148 -47.5t56 -127.5q0 -49 -23 -98.5t-87 -129.5q-63 -80 -99 -132t-36 -99q0 -38 24 -133h-32q-35 97 -35 148q0 76 81.5 218t81.5 217q0 57 -33 90t-91 33
q-38 0 -69 -17q-26 -15 -56 -40v45zM389 334l57 58q11 10 20 10q10 0 22 -11l56 -60q9 -11 9 -20q0 -11 -10 -22l-56 -62q-14 -14 -21 -14q-11 0 -20 10l-61 71q-7 9 -7 18q0 10 11 22z" />
    <glyph glyph-name=".notdef" horiz-adv-x="1024" 
d="M100 0v1434h824v-1434h-824zM150 50h724v1334h-724v-1334zM325 1148q31 28 58 43q53 30 112 30q92 0 148 -47.5t56 -127.5q0 -49 -23 -98.5t-87 -129.5q-63 -80 -99 -132t-36 -99q0 -38 24 -133h-32q-35 97 -35 148q0 76 81.5 218t81.5 217q0 57 -33 90t-91 33
q-38 0 -69 -17q-26 -15 -56 -40v45zM389 334l57 58q11 10 20 10q10 0 22 -11l56 -60q9 -11 9 -20q0 -11 -10 -22l-56 -62q-14 -14 -21 -14q-11 0 -20 10l-61 71q-7 9 -7 18q0 10 11 22z" />
    <glyph glyph-name=".null" horiz-adv-x="0" 
 />
    <glyph glyph-name=".null" horiz-adv-x="0" 
 />
    <glyph glyph-name="nonmarkingreturn" horiz-adv-x="508" 
 />
    <glyph glyph-name="space" unicode=" " horiz-adv-x="508" 
 />
    <glyph glyph-name="space" unicode="&#xa0;" horiz-adv-x="508" 
 />
    <glyph glyph-name="exclam" unicode="!" horiz-adv-x="416" 
d="M207 -25q-41 0 -68.5 28t-27.5 69t27.5 68.5t68.5 27.5t69.5 -27.5t28.5 -68.5t-28.5 -69t-69.5 -28zM131 1495h154l-11 -1073h-133z" />
    <glyph glyph-name="quotedbl" unicode="&#x22;" horiz-adv-x="608" 
d="M166 1495h131l-94 -446h-131zM408 1495h133l-97 -446h-129z" />
    <glyph glyph-name="numbersign" unicode="#" horiz-adv-x="1225" 
d="M315 381h-209l25 139h209l41 232h-207l21 139h211l65 369h141l-65 -369h235l64 369h141l-63 -369h190l-22 -139h-195l-41 -232h195l-27 -139h-193l-65 -381h-143l69 381h-235l-68 -381h-141zM715 520l43 232h-236l-41 -232h234z" />
    <glyph glyph-name="dollar" unicode="$" horiz-adv-x="1049" 
d="M483 -20q-133 8 -248.5 62t-201.5 165l112 94q66 -86 165.5 -138t219.5 -52q72 0 130.5 23.5t99.5 63.5t63.5 94t22.5 116q0 57 -20.5 99t-54.5 74.5t-81 56.5t-98 44l-176 68q-62 24 -119 56t-100 78t-69 106.5t-26 142.5q0 73 29 138.5t79 116t119.5 83t153.5 40.5v183
h105v-181q110 -8 190 -44.5t150 -96.5l-94 -108q-60 57 -130.5 87.5t-164.5 30.5q-60 0 -110 -18t-88 -52t-59.5 -79t-21.5 -98q0 -50 18.5 -87.5t49 -66.5t72.5 -51.5t89 -40.5l170 -68q66 -26 127.5 -60t109.5 -82t76.5 -113.5t28.5 -155.5q0 -84 -31.5 -157t-87 -130
t-131 -93t-163.5 -46v-203h-105v199z" />
    <glyph glyph-name="percent" unicode="%" horiz-adv-x="1878" 
d="M1399 1505h112l-1030 -1515h-112zM420 539q-66 0 -123 22.5t-99 63.5t-67 95t-25 120v366q0 66 25 121t67 95t99 62.5t123 22.5q65 0 122.5 -22.5t99.5 -62.5t66.5 -95t24.5 -121v-366q0 -66 -24.5 -120t-66.5 -95t-99.5 -63.5t-122.5 -22.5zM420 623q98 0 156.5 61
t58.5 152v374q0 90 -58.5 151.5t-156.5 61.5q-101 0 -159 -61.5t-58 -151.5v-374q0 -91 58 -152t159 -61zM1458 -14q-65 0 -122.5 22.5t-99.5 63.5t-66.5 95t-24.5 120v366q0 66 24.5 121t66.5 95t99.5 62.5t122.5 22.5q66 0 123 -22.5t99 -62.5t67 -95t25 -121v-366
q0 -66 -25 -120t-67 -95t-99 -63.5t-123 -22.5zM1458 70q98 0 156.5 61.5t58.5 151.5v374q0 91 -58.5 152t-156.5 61q-100 0 -158.5 -61t-58.5 -152v-374q0 -90 58.5 -151.5t158.5 -61.5z" />
    <glyph glyph-name="ampersand" unicode="&#x26;" horiz-adv-x="1260" 
d="M580 -23q-107 0 -199 38t-160.5 104.5t-107.5 156t-39 193.5q0 70 22.5 137.5t63.5 126t97 101.5t122 61q-35 18 -64.5 48t-52 67t-36 76.5t-13.5 78.5q0 74 28.5 137.5t79 110.5t118 75t143.5 28q75 0 143 -27t118 -74t78.5 -112.5t28.5 -141.5h-157q0 45 -12.5 85
t-39 71t-65.5 48t-92 17q-54 0 -93.5 -18t-66.5 -49t-40 -70t-13 -80t16 -79.5t47 -68.5t73 -47.5t91 -17.5v-133q-88 0 -156.5 -27.5t-115.5 -74.5t-72 -110.5t-25 -135.5q0 -74 26 -139.5t72 -114.5t109.5 -77.5t141.5 -28.5q75 0 137.5 26.5t108.5 72.5t74 107.5
t32 131.5h-144v133h433v-133h-134q-4 -101 -45 -187t-108.5 -149.5t-157.5 -99.5t-194 -36z" />
    <glyph glyph-name="quotesingle" unicode="'" horiz-adv-x="358" 
d="M166 1495h131l-94 -446h-131z" />
    <glyph glyph-name="parenleft" unicode="(" horiz-adv-x="489" 
d="M264 -242q-47 105 -80.5 225.5t-56.5 246.5t-34 250t-11 235q0 112 10 234t32.5 247t57.5 246t82 229l150 -55q-49 -103 -83 -215.5t-55.5 -228t-30.5 -232.5t-9 -225q0 -109 9 -224.5t30.5 -231.5t55.5 -229.5t83 -215.5l-150 -56v0z" />
    <glyph glyph-name="parenright" unicode=")" horiz-adv-x="489" 
d="M78 -186q49 102 83 215.5t55.5 229.5t30.5 231.5t9 224.5q0 108 -9 225t-30.5 232.5t-55.5 228t-83 215.5l149 55q47 -108 82 -229t57.5 -246t33 -247t10.5 -234q0 -111 -10.5 -234t-33 -246.5t-57.5 -244.5t-82 -230z" />
    <glyph glyph-name="asterisk" unicode="*" horiz-adv-x="823" 
d="M346 1071l-182 -104l-68 118l180 105l-180 102l68 121l182 -106v209h135v-209l183 106l65 -121l-180 -102l180 -105l-65 -118l-183 104v-209h-135v209z" />
    <glyph glyph-name="plus" unicode="+" horiz-adv-x="1139" 
d="M504 410h-422v135h422v411h135v-411h418v-135h-418v-410h-135v410z" />
    <glyph glyph-name="comma" unicode="," horiz-adv-x="322" 
d="M127 -27q-47 23 -47 78q0 41 28.5 70t69.5 29t68.5 -26t27.5 -73q0 -35 -13 -69.5t-32 -75.5l-104 -234h-133z" />
    <glyph glyph-name="hyphen" unicode="-" horiz-adv-x="659" 
d="M74 578h512v-136h-512v136z" />
    <glyph glyph-name="hyphen" unicode="&#xad;" horiz-adv-x="659" 
d="M74 578h512v-136h-512v136z" />
    <glyph glyph-name="period" unicode="." horiz-adv-x="389" 
d="M195 -45q-41 0 -69 27.5t-28 68.5t28 70t69 29t68.5 -29t27.5 -70t-27.5 -68.5t-68.5 -27.5z" />
    <glyph glyph-name="slash" unicode="/" horiz-adv-x="854" 
d="M-63 -233l841 1957l135 -55l-839 -1960z" />
    <glyph glyph-name="zero" unicode="0" horiz-adv-x="1157" 
d="M578 -23q-103 0 -194 36t-158.5 100.5t-106.5 151.5t-39 190v583q0 103 39 191t106.5 151.5t158.5 99.5t194 36q104 0 194 -36t157.5 -100.5t106.5 -151.5t39 -192v-581q0 -103 -39 -190t-106.5 -151.5t-157.5 -100.5t-194 -36zM578 111q77 0 140.5 25.5t107.5 71.5
t69 106.5t25 131.5v598q0 70 -25 132.5t-69 107.5t-107.5 71.5t-140.5 26.5q-78 0 -141.5 -26.5t-108.5 -71.5t-68.5 -107.5t-23.5 -132.5v-598q0 -71 23.5 -131.5t68.5 -106.5t108.5 -71.5t141.5 -25.5z" />
    <glyph glyph-name="one" unicode="1" horiz-adv-x="1157" 
d="M494 1362h-201v133h356v-1495h-155v1362z" />
    <glyph glyph-name="two" unicode="2" horiz-adv-x="1157" 
d="M655 731q82 109 138.5 203t56.5 174q0 55 -16.5 104.5t-49 87t-83 60t-119.5 22.5q-140 0 -215.5 -84t-75.5 -213h-158q0 97 33 176.5t91 136t139 87.5t179 31q99 0 179 -30t136 -83t86 -128t30 -167q0 -59 -20.5 -120.5t-53.5 -123t-74 -121t-84 -114.5l-375 -496h637
v-133h-934z" />
    <glyph glyph-name="three" unicode="3" horiz-adv-x="1157" 
d="M586 -20q-97 0 -185 37.5t-154.5 102t-105.5 152.5t-39 187h156q0 -68 22.5 -130.5t65.5 -110.5t103.5 -76.5t136.5 -28.5q78 0 137 27.5t100 74.5t61.5 107.5t20.5 126.5q0 63 -18.5 119.5t-58.5 98.5t-103 66.5t-156 24.5v133q66 0 116 20.5t83 54t49.5 77.5t16.5 92
q0 47 -14.5 92t-44.5 79.5t-74 55t-105 20.5t-106.5 -21.5t-76 -57t-46 -81.5t-15.5 -98h-155q0 82 30.5 154t85 125t128 83t157.5 30t155.5 -29t124 -80t82 -120.5t29.5 -149.5q0 -47 -14 -93.5t-39 -87.5t-60.5 -73.5t-78.5 -51.5q123 -30 194.5 -133.5t71.5 -248.5
q0 -99 -38 -185t-102.5 -148.5t-151.5 -99t-185 -36.5z" />
    <glyph glyph-name="four" unicode="4" horiz-adv-x="1157" 
d="M760 428h-721l879 1116v-985h188v-131h-188v-428h-158v428zM760 1112l-424 -553h424v553z" />
    <glyph glyph-name="five" unicode="5" horiz-adv-x="1157" 
d="M573 -20q-102 0 -193 37.5t-158.5 105t-107.5 159t-40 197.5h155q0 -73 23.5 -139t69 -117t106.5 -80.5t139 -29.5q80 0 145.5 28.5t111.5 77.5t72 115.5t26 142.5t-24 142.5t-67 114.5t-105 76t-142 28q-105 0 -178.5 -29t-147.5 -82h-45l143 768h635v-133h-499
l-80 -426q41 18 94 26.5t92 8.5q107 0 196 -36t152.5 -100.5t98 -154.5t34.5 -201q0 -110 -40 -201.5t-108.5 -158t-160.5 -103t-197 -36.5z" />
    <glyph glyph-name="six" unicode="6" horiz-adv-x="1157" 
d="M578 -20q-103 0 -194 34.5t-160.5 99t-109.5 155.5t-40 204q0 82 26.5 161t71.5 157l420 745l137 -82l-307 -530q2 2 18.5 8t41 13t55 12.5t63.5 5.5q98 0 184 -34t151.5 -97.5t103.5 -153.5t38 -203q0 -110 -39 -201.5t-106.5 -157t-158.5 -101t-195 -35.5zM571 113
q76 0 139.5 26.5t109.5 74.5t73 114.5t27 146.5t-25 145.5t-70 111.5t-108.5 70.5t-138.5 24.5q-78 0 -141.5 -25.5t-110.5 -71.5t-73 -110.5t-26 -144.5t27 -147.5t74 -114.5t109.5 -73.5t133.5 -26.5z" />
    <glyph glyph-name="seven" unicode="7" horiz-adv-x="1157" 
d="M133 45l684 1315h-702v135h948l-793 -1524z" />
    <glyph glyph-name="eight" unicode="8" horiz-adv-x="1157" 
d="M578 -23q-107 0 -198 38t-158.5 105.5t-105.5 158t-38 194.5q0 72 20.5 139.5t59.5 125t91 99.5t118 64q-72 37 -113 111.5t-41 150.5q0 80 28.5 144.5t78 110.5t116 72t144.5 26q77 0 145 -25t117 -71t77.5 -111.5t28.5 -145.5q0 -37 -11 -76.5t-31.5 -74.5t-49.5 -63.5
t-61 -47.5q65 -22 117.5 -65t88 -99.5t55 -123t19.5 -138.5q0 -108 -38 -199.5t-104.5 -158t-157.5 -103.5t-197 -37zM575 111q80 0 144.5 27.5t108.5 75.5t68 114.5t24 144.5q0 74 -23 139.5t-66 114.5t-107.5 76.5t-145.5 27.5q-80 0 -143.5 -27.5t-107.5 -75.5
t-69 -113.5t-25 -139.5q0 -76 25 -142.5t70 -115.5t107.5 -77.5t139.5 -28.5zM578 961q100 0 156.5 54t56.5 150q0 43 -11.5 83t-36 70t-64.5 47t-97 17q-58 0 -98 -17t-65.5 -48t-36.5 -70t-11 -82q0 -94 54 -149t153 -55z" />
    <glyph glyph-name="nine" unicode="9" horiz-adv-x="1157" 
d="M436 49l301 520q-4 -2 -19.5 -8t-40 -13t-55 -12.5t-63.5 -5.5q-98 0 -184 34t-151.5 97.5t-103.5 154.5t-38 204q0 110 39 201.5t106.5 157t158.5 101.5t196 36q100 0 191 -35t161 -99.5t110.5 -155.5t40.5 -204q0 -80 -27.5 -162t-70.5 -158l-414 -735zM582 668
q75 0 139.5 25.5t112 71.5t73 110.5t25.5 144.5t-26.5 147.5t-74 114.5t-110 73.5t-133.5 26.5q-76 0 -139.5 -26.5t-110.5 -74.5t-73.5 -114.5t-26.5 -146.5t25.5 -145.5t70.5 -111.5t108.5 -70.5t139.5 -24.5z" />
    <glyph glyph-name="colon" unicode=":" horiz-adv-x="279" 
d="M143 -25q-41 0 -68.5 29t-27.5 70t27.5 68.5t68.5 27.5t70 -27.5t29 -68.5t-29 -70t-70 -29zM143 772q-41 0 -68.5 28.5t-27.5 67.5q0 41 27.5 70t68.5 29t70 -29t29 -70q0 -39 -29 -67.5t-70 -28.5z" />
    <glyph glyph-name="semicolon" unicode=";" horiz-adv-x="279" 
d="M94 -8q-47 22 -47 78q0 41 27.5 69.5t68.5 28.5t70 -25.5t29 -72.5q0 -35 -12.5 -68t-32.5 -78l-105 -233h-133zM143 772q-41 0 -68.5 28.5t-27.5 67.5q0 41 27.5 70t68.5 29t70 -29t29 -70q0 -39 -29 -67.5t-70 -28.5z" />
    <glyph glyph-name="semicolon" unicode="&#x37e;" horiz-adv-x="279" 
d="M94 -8q-47 22 -47 78q0 41 27.5 69.5t68.5 28.5t70 -25.5t29 -72.5q0 -35 -12.5 -68t-32.5 -78l-105 -233h-133zM143 772q-41 0 -68.5 28.5t-27.5 67.5q0 41 27.5 70t68.5 29t70 -29t29 -70q0 -39 -29 -67.5t-70 -28.5z" />
    <glyph glyph-name="less" unicode="&#x3c;" horiz-adv-x="1145" 
d="M100 395v158l922 371l51 -127l-801 -322l801 -319l-51 -127z" />
    <glyph glyph-name="equal" unicode="=" horiz-adv-x="1128" 
d="M102 451h924v-136h-924v136zM102 799h924v-135h-924v135z" />
    <glyph glyph-name="greater" unicode="&#x3e;" horiz-adv-x="1145" 
d="M86 156l801 319l-801 322l53 127l920 -371v-158l-920 -366z" />
    <glyph glyph-name="question" unicode="?" horiz-adv-x="879" 
d="M395 -20q-41 0 -69.5 26.5t-28.5 67.5t28.5 69.5t69.5 28.5t69 -28.5t28 -69.5t-28 -67.5t-69 -26.5zM315 543q0 71 26 127.5t64.5 104.5t84 90t84 85t64.5 90t26 105q0 43 -10.5 86t-35 76.5t-66.5 54t-106 20.5q-65 0 -110 -21.5t-72.5 -56t-40 -78.5t-12.5 -91h-156
q0 79 29 149t80 121t122.5 81t157.5 30q82 0 151 -28t119 -78t77.5 -117.5t27.5 -147.5q0 -76 -25.5 -134.5t-64.5 -107.5t-84 -90t-84 -83t-64.5 -87t-25.5 -100v-129h-156v129z" />
    <glyph glyph-name="at" unicode="@" horiz-adv-x="1774" 
d="M825 -23q-75 0 -145 19.5t-124 59.5t-87 100.5t-33 142.5q0 76 31 137.5t84 104.5t126 65.5t157 22.5q104 0 170.5 -19.5t103.5 -36.5q0 68 -7 117t-28.5 82t-60.5 48.5t-103 15.5q-78 0 -144.5 -20.5t-135.5 -57.5l-64 116q74 41 159 67t187 26q131 0 203 -41
t104.5 -105.5t39 -141.5t6.5 -147v-303q0 -59 18 -89.5t72 -30.5q43 0 76.5 29.5t57 80.5t36 117.5t12.5 140.5q0 135 -39 251t-118 202t-200.5 134t-287.5 48q-141 0 -260 -53t-206 -143.5t-135 -209t-48 -249.5q0 -135 43 -253t123.5 -205t200.5 -137t274 -50v-134
q-174 0 -320.5 58.5t-252 163t-165 247t-59.5 310.5q0 164 64.5 307t174 250.5t256 169t312.5 61.5q188 0 336.5 -59.5t251 -161.5t157 -243.5t54.5 -303.5q0 -96 -23.5 -187t-69 -161t-107.5 -112t-142 -42q-90 0 -140.5 33t-79.5 86q-65 -49 -138.5 -83t-166.5 -34z
M829 111q37 0 76 10t77 27.5t70.5 41t55.5 50.5v196q-35 19 -102.5 39.5t-171.5 20.5q-111 0 -176.5 -51.5t-65.5 -145.5q0 -92 66.5 -140t170.5 -48z" />
    <glyph glyph-name="A" unicode="A" 
d="M672 1565l667 -1565h-170l-497 1188l-502 -1188h-170z" />
    <glyph glyph-name="B" unicode="B" horiz-adv-x="1133" 
d="M102 1495h500q31 0 82 -3t82 -9q76 -17 129 -53.5t87 -88t50.5 -112t16.5 -123.5q0 -49 -14.5 -100.5t-44 -96.5t-75 -80.5t-104.5 -50.5q61 -12 114.5 -45t92.5 -79t61.5 -104t22.5 -124q0 -74 -21.5 -141.5t-61.5 -123t-97.5 -94t-126.5 -55.5q-33 -8 -84.5 -10
t-85.5 -2h-523v1495zM625 133h33.5t40 1t40 3t31.5 6q86 25 131 102t45 181q0 92 -57.5 167t-157.5 99q-24 6 -62 9.5t-65 3.5h-346v-572h367zM604 838q29 0 71 5t68 15q68 29 109 93.5t41 150.5q0 80 -35 149.5t-125 98.5q-22 8 -64 10t-67 2h-344v-524h346z" />
    <glyph glyph-name="C" unicode="C" horiz-adv-x="1401" 
d="M821 -23q-168 0 -310 60.5t-244.5 165t-161 245t-58.5 297.5q0 158 59.5 298.5t164 245t245.5 166t305 61.5q162 0 297 -57.5t240 -155.5l-94 -107q-86 78 -196 132t-249 54q-137 0 -250.5 -52t-194.5 -139t-126 -203t-45 -243q0 -129 46 -243.5t128 -201.5t195.5 -138
t248.5 -51q140 0 248.5 51t194.5 125l88 -105q-107 -98 -240 -151.5t-291 -53.5z" />
    <glyph glyph-name="D" unicode="D" horiz-adv-x="1358" 
d="M102 1495h422q41 0 99.5 -4t111.5 -14q123 -23 230.5 -82.5t187.5 -153.5t126 -218t46 -273q0 -140 -42 -258.5t-115.5 -213t-175 -160t-218.5 -95.5q-53 -15 -113.5 -19t-132.5 -4h-426v1495zM520 133q64 0 119 4t102 17q95 24 173.5 79.5t135 132t88 173t31.5 206.5
q0 121 -32.5 221.5t-92 177.5t-142.5 128t-183 74q-43 10 -98.5 13t-100.5 3h-262v-1229h262z" />
    <glyph glyph-name="E" unicode="E" horiz-adv-x="1083" 
d="M101 133h921v-133h-920zM102 834h883v-134h-883v134zM102 1495h920v-133h-920v133z" />
    <glyph glyph-name="F" unicode="F" horiz-adv-x="1036" 
d="M103 831h831v-133h-831v133zM102 1495h920v-133h-921z" />
    <glyph glyph-name="G" unicode="G" horiz-adv-x="1575" 
d="M823 -20q-161 0 -303.5 58t-248 161.5t-166 243t-60.5 302.5q0 160 60.5 300.5t166 245t245.5 165t300 60.5q205 0 369 -86.5t272 -243.5l-117 -82q-88 129 -214 203.5t-308 74.5q-133 0 -246.5 -51t-195.5 -138t-128 -203t-46 -245t45 -243.5t127 -200.5t194.5 -137
t247.5 -51q187 0 312.5 53t177.5 127v317h-394v133h549v-491q-30 -51 -88.5 -100.5t-139.5 -87t-184.5 -61t-226.5 -23.5z" />
    <glyph glyph-name="H" unicode="H" horiz-adv-x="1319" 
d="M1061 1495h156v-1495h-156v1495zM258 0h-156v1495h156v-1495z" />
    <glyph glyph-name="I" unicode="I" horiz-adv-x="360" 
d="M102 1495h156v-1495h-156v1495z" />
    <glyph glyph-name="J" unicode="J" horiz-adv-x="831" 
d="M260 -23q-74 0 -148.5 20.5t-140.5 61.5l72 125q51 -32 109.5 -50.5t113.5 -18.5q113 0 199 54t102 155q4 22 4 54v54v1063h158v-1061q0 -41 -2 -80t-8 -67q-14 -72 -53 -128.5t-99.5 -97.5t-137.5 -62.5t-169 -21.5z" />
    <glyph glyph-name="K" unicode="K" horiz-adv-x="1167" 
d="M300 850l645 645h205l-735 -733l784 -762h-221l-678 662v188zM258 0h-156v1495h156v-1495z" />
    <glyph glyph-name="L" unicode="L" horiz-adv-x="950" 
d="M102 1495h156v-1362h672v-133h-828v1495z" />
    <glyph glyph-name="M" unicode="M" horiz-adv-x="1675" 
d="M168 1548l672 -1259l665 1259l168 -1548h-155l-113 1038l-567 -1075l-572 1077l-110 -1040h-156z" />
    <glyph glyph-name="N" unicode="N" horiz-adv-x="1462" 
d="M102 1544l1102 -1200v1151h156v-1548l-1102 1202v-1149h-156v1544z" />
    <glyph glyph-name="O" unicode="O" horiz-adv-x="1665" 
d="M776 1380q-103 -9 -191 -50q-114 -52 -195 -139t-127 -203t-46 -243q0 -129 46 -243.5t127 -200.5t194 -137q89 -40 192 -49v-133q-129 9 -244 56q-141 58 -245.5 161.5t-165 243t-60.5 302.5q0 160 61.5 300.5t166 245t245.5 165.5q115 49 242 58v-134zM855 113
q126 4 230 49q113 49 194 135t125 200.5t44 245.5q0 136 -44 252.5t-124 202.5t-193 135q-105 45 -232 49v134q152 -4 284 -58q141 -59 244.5 -162.5t162 -244t58.5 -303.5q0 -166 -59.5 -306.5t-163 -244t-243.5 -160.5q-132 -53 -283 -57v133z" />
    <glyph glyph-name="P" unicode="P" horiz-adv-x="1120" 
d="M102 1495h473q74 0 142.5 -12.5t120.5 -38.5q100 -53 169.5 -155.5t69.5 -250.5q0 -86 -22.5 -158.5t-60.5 -129t-87 -96.5t-104 -60q-47 -16 -102.5 -21.5t-133.5 -5.5h-309v-567h-156v1495zM569 700q60 0 96.5 2.5t77.5 16.5q37 12 69 40.5t56.5 69.5t39 93.5
t14.5 111.5q0 111 -43 181.5t-107 105.5q-72 41 -197 41h-317v-662h311z" />
    <glyph glyph-name="Q" unicode="Q" horiz-adv-x="1669" 
d="M786 1380q-108 -7 -201 -50q-114 -52 -195 -139t-127 -203t-46 -243q0 -129 46 -243.5t127 -200.5t194 -137q93 -42 202 -50v-133q-135 8 -254 57q-141 58 -245.5 161.5t-165 243t-60.5 302.5q0 160 61.5 300.5t166 245t245.5 165.5q120 51 252 59v-135zM870 114
q117 6 215 48q113 49 194 135t125 200.5t44 245.5q0 136 -44 252.5t-124 202.5t-193 135q-99 43 -217 48v134q144 -6 269 -57q141 -59 244.5 -162.5t162 -244t58.5 -303.5q0 -162 -55.5 -298.5t-153.5 -238.5l241 -231l-106 -111l-256 240q-92 -62 -204 -95
q-96 -29 -200 -33v133z" />
    <glyph glyph-name="R" unicode="R" horiz-adv-x="1171" 
d="M258 0h-156v1495h533q72 0 139.5 -11t124.5 -40q107 -53 173.5 -158.5t66.5 -247.5q0 -102 -32 -185t-82 -142.5t-113.5 -93t-127.5 -39.5l187 -289.5l184 -288.5h-186l-179.5 282.5l-179.5 284.5v133q68 0 108 2.5t87 16.5q39 12 71.5 42t56 71.5t37 94t13.5 107.5
q0 105 -40 176.5t-109 110.5q-41 22 -91.5 31.5t-107.5 9.5h-377v-1362z" />
    <glyph glyph-name="S" unicode="S" horiz-adv-x="1049" 
d="M526 -20q-145 0 -272 55t-221 172l112 94q66 -86 165.5 -138t219.5 -52q72 0 130.5 23.5t99.5 63.5t63.5 94t22.5 116q0 57 -20.5 99t-54.5 74.5t-81 56.5t-98 44l-176 68q-62 24 -119 56t-100 78t-69 106.5t-26 142.5q0 81 34 151t92.5 121t138 81t172.5 30
q133 0 222 -38t167 -106l-94 -108q-60 57 -130.5 87.5t-164.5 30.5q-60 0 -110 -18t-88 -52t-59.5 -79t-21.5 -98q0 -50 18.5 -87.5t49 -66.5t72.5 -51.5t89 -40.5l170 -68q66 -26 127.5 -60t109.5 -82t76.5 -113.5t28.5 -155.5q0 -91 -36.5 -169.5t-101 -137t-151.5 -91
t-186 -32.5z" />
    <glyph glyph-name="T" unicode="T" horiz-adv-x="952" 
d="M399 1362h-399v133h952v-133h-397v-1362h-156v1362z" />
    <glyph glyph-name="U" unicode="U" horiz-adv-x="1317" 
d="M623 -19q-73 3 -140 22q-84 22 -153.5 62.5t-120.5 99t-76 130.5q-18 53 -24.5 116.5t-6.5 129.5v954h156v-963q0 -45 3 -91t15 -85q17 -53 53 -97t86 -76.5t113 -50.5q45 -14 95 -18v-133zM702 115q47 4 91 17q63 18 113 50.5t86 76.5t50 97q11 41 14 87t3 89v963h155
v-952q0 -66 -5 -128.5t-23 -115.5q-25 -72 -76 -131t-120.5 -101t-153.5 -64q-64 -18 -134 -22v134z" />
    <glyph glyph-name="V" unicode="V" horiz-adv-x="1339" 
d="M1171 1495h168l-542 -1271l-84 181zM672 -70l-672 1565h170l586 -1368z" />
    <glyph glyph-name="W" unicode="W" horiz-adv-x="2079" 
d="M0 1495h162l383 -1135l495 1209l498 -1207l377 1133h164l-527 -1554l-512 1241l-516 -1243z" />
    <glyph glyph-name="X" unicode="X" horiz-adv-x="1110" 
d="M459 758l-449 737h178l373 -600l361 600h176l-447 -743l459 -752h-184l-373 610l-367 -610h-184z" />
    <glyph glyph-name="Y" unicode="Y" horiz-adv-x="1210" 
d="M1028 1495h180l-524 -844v-651h-156v651zM0 1495h184l404 -648l-95 -143z" />
    <glyph glyph-name="Z" unicode="Z" horiz-adv-x="1182" 
d="M901 1362h-762v133h1030l-882 -1362h841v-133h-1114z" />
    <glyph glyph-name="bracketleft" unicode="[" horiz-adv-x="573" 
d="M102 1683h471v-135h-323v-1779h323v-138h-471v2052z" />
    <glyph glyph-name="backslash" unicode="\" horiz-adv-x="846" 
d="M-63 1694l137 55l839 -1958l-135 -57z" />
    <glyph glyph-name="bracketright" unicode="]" horiz-adv-x="573" 
d="M0 -231h324v1779h-324v135h471v-2052h-471v138z" />
    <glyph glyph-name="asciicircum" unicode="^" horiz-adv-x="1098" 
d="M102 575l369 920h156l368 -920l-125 -53l-319 801l-322 -801z" />
    <glyph glyph-name="underscore" unicode="_" horiz-adv-x="971" 
d="M0 -248h971v-135h-971v135z" />
    <glyph glyph-name="grave" unicode="`" horiz-adv-x="707" 
d="M123 1286l76 146l391 -230l-53 -100z" />
    <glyph glyph-name="a" unicode="a" 
d="M672 1565l667 -1565h-170l-170 403h-657l-172 -403h-170zM942 535l-272 653l-271 -653h543z" />
    <glyph glyph-name="b" unicode="b" horiz-adv-x="1133" 
d="M102 1495h500q31 0 82 -3t82 -9q76 -17 129 -53.5t87 -88t50.5 -112t16.5 -123.5q0 -49 -14.5 -100.5t-44 -96.5t-75 -80.5t-104.5 -50.5q61 -12 114.5 -45t92.5 -79t61.5 -104t22.5 -124q0 -74 -21.5 -141.5t-61.5 -123t-97.5 -94t-126.5 -55.5q-33 -8 -84.5 -10
t-85.5 -2h-523v1495zM625 133h33.5t40 1t40 3t31.5 6q86 25 131 102t45 181q0 92 -57.5 167t-157.5 99q-24 6 -62 9.5t-65 3.5h-346v-572h367zM604 838q29 0 71 5t68 15q68 29 109 93.5t41 150.5q0 80 -35 149.5t-125 98.5q-22 8 -64 10t-67 2h-344v-524h346z" />
    <glyph glyph-name="c" unicode="c" horiz-adv-x="1401" 
d="M821 -23q-168 0 -310 60.5t-244.5 165t-161 245t-58.5 297.5q0 158 59.5 298.5t164 245t245.5 166t305 61.5q162 0 297 -57.5t240 -155.5l-94 -107q-86 78 -196 132t-249 54q-137 0 -250.5 -52t-194.5 -139t-126 -203t-45 -243q0 -129 46 -243.5t128 -201.5t195.5 -138
t248.5 -51q140 0 248.5 51t194.5 125l88 -105q-107 -98 -240 -151.5t-291 -53.5z" />
    <glyph glyph-name="d" unicode="d" horiz-adv-x="1358" 
d="M102 1495h422q41 0 99.5 -4t111.5 -14q123 -23 230.5 -82.5t187.5 -153.5t126 -218t46 -273q0 -140 -42 -258.5t-115.5 -213t-175 -160t-218.5 -95.5q-53 -15 -113.5 -19t-132.5 -4h-426v1495zM520 133q64 0 119 4t102 17q95 24 173.5 79.5t135 132t88 173t31.5 206.5
q0 121 -32.5 221.5t-92 177.5t-142.5 128t-183 74q-43 10 -98.5 13t-100.5 3h-262v-1229h262z" />
    <glyph glyph-name="e" unicode="e" horiz-adv-x="1083" 
d="M102 1495h920v-133h-764v-528h727v-134h-727v-567h764v-133h-920v1495z" />
    <glyph glyph-name="f" unicode="f" horiz-adv-x="1036" 
d="M102 1495h920v-133h-764v-531h676v-133h-676v-698h-156v1495z" />
    <glyph glyph-name="g" unicode="g" horiz-adv-x="1575" 
d="M823 -20q-161 0 -303.5 58t-248 161.5t-166 243t-60.5 302.5q0 160 60.5 300.5t166 245t245.5 165t300 60.5q205 0 369 -86.5t272 -243.5l-117 -82q-88 129 -214 203.5t-308 74.5q-133 0 -246.5 -51t-195.5 -138t-128 -203t-46 -245t45 -243.5t127 -200.5t194.5 -137
t247.5 -51q187 0 312.5 53t177.5 127v317h-394v133h549v-491q-30 -51 -88.5 -100.5t-139.5 -87t-184.5 -61t-226.5 -23.5z" />
    <glyph glyph-name="h" unicode="h" horiz-adv-x="1319" 
d="M102 1495h156v-639h803v639h156v-1495h-156v723h-803v-723h-156v1495z" />
    <glyph glyph-name="i" unicode="i" horiz-adv-x="360" 
d="M102 1495h156v-1495h-156v1495z" />
    <glyph glyph-name="j" unicode="j" horiz-adv-x="831" 
d="M260 -23q-74 0 -148.5 20.5t-140.5 61.5l72 125q51 -32 109.5 -50.5t113.5 -18.5q113 0 199 54t102 155q4 22 4 54v54v1063h158v-1061q0 -41 -2 -80t-8 -67q-14 -72 -53 -128.5t-99.5 -97.5t-137.5 -62.5t-169 -21.5z" />
    <glyph glyph-name="k" unicode="k" horiz-adv-x="1167" 
d="M102 1495h156v-655l655 655h205l-735 -733l784 -762h-221l-688 672v-672h-156v1495z" />
    <glyph glyph-name="l" unicode="l" horiz-adv-x="950" 
d="M102 1495h156v-1362h672v-133h-828v1495z" />
    <glyph glyph-name="m" unicode="m" horiz-adv-x="1675" 
d="M168 1548l672 -1259l665 1259l168 -1548h-155l-113 1038l-567 -1075l-572 1077l-110 -1040h-156z" />
    <glyph glyph-name="n" unicode="n" horiz-adv-x="1462" 
d="M102 1544l1102 -1200v1151h156v-1548l-1102 1202v-1149h-156v1544z" />
    <glyph glyph-name="o" unicode="o" horiz-adv-x="1665" 
d="M834 -20q-162 0 -302.5 58t-245 161.5t-165 243t-60.5 302.5q0 160 61.5 300.5t166 245t245 165t297.5 60.5q166 0 307.5 -58.5t245 -162t162 -244t58.5 -303.5q0 -166 -59.5 -306.5t-163 -244t-244 -160.5t-303.5 -57zM831 113q140 0 253.5 49t194.5 135t125 200.5
t44 245.5q0 136 -44 252.5t-124 202.5t-193.5 135t-252.5 49q-136 0 -249.5 -52t-194.5 -139t-127 -203t-46 -243q0 -129 46 -243.5t127 -200.5t193.5 -137t247.5 -51z" />
    <glyph glyph-name="p" unicode="p" horiz-adv-x="1120" 
d="M102 1495h473q74 0 142.5 -12.5t120.5 -38.5q100 -53 169.5 -155.5t69.5 -250.5q0 -86 -22.5 -158.5t-60.5 -129t-87 -96.5t-104 -60q-47 -16 -102.5 -21.5t-133.5 -5.5h-309v-567h-156v1495zM569 700q60 0 96.5 2.5t77.5 16.5q37 12 69 40.5t56.5 69.5t39 93.5
t14.5 111.5q0 111 -43 181.5t-107 105.5q-72 41 -197 41h-317v-662h311z" />
    <glyph glyph-name="q" unicode="q" horiz-adv-x="1669" 
d="M834 -20q-162 0 -302.5 58t-245 161.5t-165 243t-60.5 302.5q0 160 61.5 300.5t166 245t245 165t297.5 60.5q166 0 307.5 -58.5t245 -162t162 -244t58.5 -303.5q0 -162 -55.5 -298.5t-153.5 -238.5l241 -231l-106 -111l-256 240q-92 -62 -204 -95.5t-236 -33.5zM831 113
q140 0 253.5 49t194.5 135t125 200.5t44 245.5q0 136 -44 252.5t-124 202.5t-193.5 135t-252.5 49q-136 0 -249.5 -52t-194.5 -139t-127 -203t-46 -243q0 -129 46 -243.5t127 -200.5t193.5 -137t247.5 -51z" />
    <glyph glyph-name="r" unicode="r" horiz-adv-x="1171" 
d="M102 1495h533q72 0 139.5 -11t124.5 -40q107 -53 173.5 -158.5t66.5 -247.5q0 -102 -32 -185t-82 -142.5t-113.5 -93t-127.5 -39.5l187 -289.5l184 -288.5h-186l-179.5 282.5l-179.5 284.5h-352v-567h-156v1495zM631 700q47 0 87 2.5t87 16.5q39 12 71.5 42t56 71.5
t37 94t13.5 107.5q0 105 -40 176.5t-109 110.5q-41 22 -91.5 31.5t-107.5 9.5h-377v-662h373z" />
    <glyph glyph-name="s" unicode="s" horiz-adv-x="1049" 
d="M526 -20q-145 0 -272 55t-221 172l112 94q66 -86 165.5 -138t219.5 -52q72 0 130.5 23.5t99.5 63.5t63.5 94t22.5 116q0 57 -20.5 99t-54.5 74.5t-81 56.5t-98 44l-176 68q-62 24 -119 56t-100 78t-69 106.5t-26 142.5q0 81 34 151t92.5 121t138 81t172.5 30
q133 0 222 -38t167 -106l-94 -108q-60 57 -130.5 87.5t-164.5 30.5q-60 0 -110 -18t-88 -52t-59.5 -79t-21.5 -98q0 -50 18.5 -87.5t49 -66.5t72.5 -51.5t89 -40.5l170 -68q66 -26 127.5 -60t109.5 -82t76.5 -113.5t28.5 -155.5q0 -91 -36.5 -169.5t-101 -137t-151.5 -91
t-186 -32.5z" />
    <glyph glyph-name="t" unicode="t" horiz-adv-x="952" 
d="M399 1362h-399v133h952v-133h-397v-1362h-156v1362z" />
    <glyph glyph-name="u" unicode="u" horiz-adv-x="1317" 
d="M659 -20q-92 0 -176 22.5t-153.5 63t-120.5 99t-76 130.5q-18 53 -24.5 116.5t-6.5 129.5v954h156v-963q0 -45 3 -91t15 -85q17 -53 53 -97t86 -76.5t112.5 -51t131.5 -18.5q70 0 133.5 18.5t113.5 51t86 76.5t50 97q11 41 14 87t3 89v963h155v-952q0 -66 -5 -128.5
t-23 -115.5q-25 -72 -76 -131t-120.5 -101t-153.5 -64.5t-177 -22.5z" />
    <glyph glyph-name="v" unicode="v" horiz-adv-x="1339" 
d="M0 1495h170l504 -1182l497 1182h168l-667 -1565z" />
    <glyph glyph-name="w" unicode="w" horiz-adv-x="2079" 
d="M0 1495h162l383 -1135l495 1209l498 -1207l377 1133h164l-527 -1554l-512 1241l-516 -1243z" />
    <glyph glyph-name="x" unicode="x" horiz-adv-x="1110" 
d="M459 758l-449 737h178l373 -600l361 600h176l-447 -743l459 -752h-184l-373 610l-367 -610h-184z" />
    <glyph glyph-name="y" unicode="y" horiz-adv-x="1210" 
d="M528 651l-528 844h184l424 -682l420 682h180l-524 -844v-651h-156v651z" />
    <glyph glyph-name="z" unicode="z" horiz-adv-x="1182" 
d="M901 1362h-762v133h1030l-882 -1362h841v-133h-1114z" />
    <glyph glyph-name="braceleft" unicode="{" horiz-adv-x="569" 
d="M569 -256q-108 6 -186 49t-127 115t-71.5 165t-22.5 201q0 70 -2 129.5t-17.5 109.5t-47.5 94t-89 81q57 45 89 91t47.5 96.5t17.5 105.5t2 119q0 117 23.5 215t73.5 169.5t127 113.5t183 51v-111q-129 0 -196.5 -113.5t-67.5 -324.5q0 -135 -21.5 -238.5t-95.5 -169.5
q76 -69 97.5 -169.5t21.5 -248.5q0 -196 66.5 -307.5t195.5 -111.5v-111v0z" />
    <glyph glyph-name="bar" unicode="|" horiz-adv-x="352" 
d="M102 1579h146v-1851h-146v1851z" />
    <glyph glyph-name="braceright" unicode="}" horiz-adv-x="569" 
d="M0 -145q129 0 195.5 111.5t66.5 307.5q0 148 22.5 248.5t98.5 169.5q-74 66 -96.5 169.5t-22.5 238.5q0 211 -66.5 324.5t-197.5 113.5v111q106 -9 183 -51t127 -113.5t74 -169.5t24 -215q0 -64 2 -119t17 -105.5t46 -96.5t90 -91q-59 -37 -90 -81t-46 -94t-17 -109.5
t-2 -129.5q0 -108 -23 -201t-72 -165t-126.5 -115t-186.5 -49v111z" />
    <glyph glyph-name="asciitilde" unicode="~" horiz-adv-x="1210" 
d="M82 461q24 43 54 85t67 75.5t82 54t102 20.5q64 0 119 -31.5t105.5 -70.5t96.5 -70.5t91 -31.5q30 0 61 21.5t58.5 53t51 67.5l42.5 64l114 -80q-24 -45 -57 -93t-73 -88t-89 -65.5t-106 -25.5q-58 0 -118 32t-115.5 70.5l-102.5 70.5t-76 32q-53 0 -95 -41t-93 -123z
" />
    <glyph glyph-name="exclamdown" unicode="&#xa1;" horiz-adv-x="416" 
d="M207 1325q-41 0 -68.5 28.5t-27.5 69.5t27.5 69t68.5 28t69.5 -28t28.5 -69t-28.5 -69.5t-69.5 -28.5zM141 1073h133l11 -1073h-154z" />
    <glyph glyph-name="cent" unicode="&#xa2;" horiz-adv-x="977" 
d="M512 -16q-100 8 -183 50t-142.5 106.5t-92.5 149.5t-33 181q0 94 33 179t93.5 150.5t143.5 108.5t181 54v206h111v-206q104 -11 180 -52t131 -94l-90 -102q-53 51 -117.5 85t-159.5 34q-84 0 -149.5 -30t-109.5 -79t-67.5 -114.5t-23.5 -139.5t22.5 -139.5t67.5 -114.5
t109.5 -77.5t150.5 -28.5q107 0 175.5 41t117.5 88l90 -101q-63 -59 -140 -102t-187 -53v-211h-111v211z" />
    <glyph glyph-name="sterling" unicode="&#xa3;" horiz-adv-x="1149" 
d="M248 621h-160v133h160v379q0 84 33.5 154.5t92 120.5t136.5 79t168 29q129 0 220 -39t171 -105l-96 -112q-31 28 -60.5 50.5t-64.5 39t-76 24.5t-94 8q-57 0 -107.5 -18t-87.5 -52t-58.5 -79t-21.5 -98v-381h396v-133h-396v-488h652v-133h-807v621z" />
    <glyph glyph-name="currency" unicode="&#xa4;" horiz-adv-x="1243" 
d="M96 12l142 144q-54 63 -81.5 140t-27.5 167q0 86 27.5 164t81.5 141l-142 141q37 41 78 78l70 -70.5l69 -72.5q129 106 303 106q89 0 165.5 -27.5t142.5 -78.5l145 143l78 -78l-74 -72.5l-74 -74.5q52 -62 79.5 -137.5t27.5 -161.5q0 -88 -27.5 -164t-79.5 -139l148 -148
l-76 -75l-147 145q-64 -51 -143 -79t-165 -28t-162.5 27t-140.5 76q-34 -37 -70 -71l-73 -70zM616 98q76 0 142.5 29t116 78t78 115.5t28.5 142.5t-28.5 142.5t-78 115.5t-116 77.5t-142.5 28.5q-75 0 -141.5 -28.5t-116 -77.5t-78 -115.5t-28.5 -142.5t28.5 -142.5
t78 -115.5t116 -78t141.5 -29z" />
    <glyph glyph-name="yen" unicode="&#xa5;" horiz-adv-x="1210" 
d="M526 229h-405v125h405v164h-405v125h405l-526 852h182l426 -684l420 684h180l-526 -852h403v-125h-403v-164h403v-125h-403v-229h-156v229z" />
    <glyph glyph-name="brokenbar" unicode="&#xa6;" horiz-adv-x="367" 
d="M113 508h141v-780h-141v780zM113 1575h141v-778h-141v778z" />
    <glyph glyph-name="section" unicode="&#xa7;" horiz-adv-x="1053" 
d="M524 -545q-143 0 -271 55.5t-222 174.5l112 94q66 -86 165.5 -139.5t219.5 -53.5q74 0 132.5 23.5t99.5 63.5t62.5 94.5t21.5 115.5q0 58 -20.5 100t-54.5 74.5t-81 56t-98 44.5l-176 67q-62 25 -118 57.5t-99 79t-69 106.5t-26 140q0 78 32 146.5t85 119.5
q-47 48 -74.5 110.5t-27.5 148.5q0 81 32.5 151t91 121t138.5 81t172 30q133 0 223 -38t168 -106l-96 -108q-60 57 -130.5 87.5t-164.5 30.5q-59 0 -109.5 -18t-88.5 -52t-59.5 -79t-21.5 -98q0 -50 18.5 -87.5t49.5 -66.5t73 -51.5t89 -40.5l170 -68q65 -26 126.5 -60
t109.5 -82t77 -113.5t29 -155.5q0 -78 -28 -146.5t-75 -124.5q41 -47 64.5 -108.5t23.5 -145.5q0 -90 -36.5 -167.5t-101 -136t-151.5 -92.5t-186 -34zM801 229q26 37 41.5 82t15.5 97q0 57 -20.5 99t-54 74.5t-81 56.5t-98.5 44l-151 57l-59 24t-54 25q-39 -34 -60.5 -79
t-21.5 -99q0 -49 17.5 -87t48 -67.5t72.5 -51t91 -39.5l170 -66q37 -14 73 -32.5z" />
    <glyph glyph-name="dieresis" unicode="&#xa8;" horiz-adv-x="743" 
d="M215 1167q-41 0 -68.5 28t-27.5 69t27.5 68.5t68.5 27.5t68.5 -27.5t27.5 -68.5t-27.5 -69t-68.5 -28zM530 1167q-41 0 -68.5 28t-27.5 69t27.5 68.5t68.5 27.5t69 -27.5t28 -68.5t-28 -69t-69 -28z" />
    <glyph glyph-name="copyright" unicode="&#xa9;" horiz-adv-x="1696" 
d="M848 -23q-160 0 -300 60.5t-246.5 164t-168 243t-61.5 296.5q0 160 61.5 300.5t167 244t246.5 163.5t299 60q160 0 301 -60t246.5 -163.5t168 -243t62.5 -299.5q0 -159 -62.5 -298.5t-168 -243t-246.5 -164t-299 -60.5zM848 88q135 0 257 51t212 140.5t143 209t53 254.5
q0 136 -53 255.5t-144 208.5t-212 140.5t-258 51.5q-135 0 -256 -51.5t-211 -140.5t-143.5 -208.5t-53.5 -257.5q0 -135 53.5 -253.5t143.5 -208t212 -140.5t257 -51zM850 207q-117 0 -217.5 42t-172 114.5t-112.5 170t-41 207.5q0 113 42 211.5t116 171t172 114.5t213 42
q106 0 200.5 -38t172.5 -105l-66 -78q-63 55 -143 88t-166 33q-90 0 -168 -36t-136.5 -96.5t-91 -139.5t-32.5 -167q0 -86 32.5 -164.5t90 -138t136.5 -94.5t171 -35q88 0 167 33t140 86l70 -80q-78 -69 -175.5 -105t-201.5 -36z" />
    <glyph glyph-name="ordfeminine" unicode="&#xaa;" horiz-adv-x="831" 
d="M389 780q-57 0 -109.5 14.5t-92.5 44t-64.5 74.5t-24.5 107q0 55 22.5 100t62.5 77t94.5 49.5t115.5 17.5q76 0 125 -14.5t78 -24.5q0 35 -2 61.5t-8 48.5q-11 39 -46.5 58.5t-88.5 19.5q-60 0 -108 -15.5t-101 -43.5l-47 90q53 31 117.5 50t140.5 19q110 0 173.5 -48
t75.5 -107q9 -41 10 -80t1 -86v-395h-103l-8 63q-41 -33 -94 -56.5t-119 -23.5zM389 881q27 0 56.5 8t57 21.5t52.5 30.5t41 36v141q-29 17 -77 31t-126 14q-82 0 -129 -38t-47 -105q0 -68 48 -103.5t124 -35.5z" />
    <glyph glyph-name="guillemotleft" unicode="&#xab;" horiz-adv-x="924" 
d="M33 477l348 498l121 -84l-291 -414l297 -424l-119 -86zM397 477l348 498l119 -84l-291 -414l299 -424l-118 -86z" />
    <glyph glyph-name="logicalnot" unicode="&#xac;" horiz-adv-x="743" 
d="M518 510h-438v145h582v-387h-144v242z" />
    <glyph glyph-name="registered" unicode="&#xae;" horiz-adv-x="1696" 
d="M848 -23q-160 0 -300 60.5t-246.5 164t-168 243t-61.5 296.5q0 160 61.5 299.5t167 244t246.5 164.5t299 60q160 0 301 -60t246.5 -164.5t168 -244t62.5 -297.5q0 -159 -62.5 -298.5t-168 -243t-246.5 -164t-299 -60.5zM848 86q135 0 255 50t211 139.5t144 209t53 258.5
q0 136 -52 254.5t-142 207.5t-211 141.5t-260 52.5t-260 -52.5t-210 -141.5t-141.5 -208.5t-52.5 -255.5q0 -135 52.5 -254.5t142.5 -209t211 -140.5t260 -51zM530 1268h347q67 0 128.5 -19.5t108.5 -57.5t75 -97.5t28 -139.5q0 -110 -55.5 -187t-137.5 -108q-8 -4 -21.5 -7
t-25.5 -7l258 -405h-125l-250 395h-225v-383h-105v1016zM862 725q45 0 90 11.5t80 37t56.5 69.5t21.5 109q0 121 -65.5 172.5t-167.5 51.5h-242v-451h227z" />
    <glyph glyph-name="macron" unicode="&#xaf;" horiz-adv-x="885" 
d="M190 1255h504v-131h-504v131z" />
    <glyph glyph-name="degree" unicode="&#xb0;" horiz-adv-x="649" 
d="M324 1034q-50 0 -94 18.5t-76.5 50.5t-51 75t-18.5 92q0 51 18.5 95t51 77t76.5 51t94 18q49 0 92 -18t75.5 -51t51 -77t18.5 -95q0 -49 -18.5 -92t-51 -75t-75.5 -50.5t-92 -18.5zM324 1141q55 0 93 36.5t38 92.5q0 59 -38 96t-93 37q-58 0 -94.5 -37t-36.5 -96
q0 -56 36.5 -92.5t94.5 -36.5z" />
    <glyph glyph-name="plusminus" unicode="&#xb1;" horiz-adv-x="1212" 
d="M78 82h1057v-135h-1057v135zM539 623h-459v135h459v461h137v-461h457v-135h-457v-461h-137v461z" />
    <glyph glyph-name="uni00B2" unicode="&#xb2;" horiz-adv-x="625" 
d="M360 1055q52 67 86.5 126.5t34.5 110.5q0 70 -41 122t-127 52q-88 0 -136 -53t-48 -135h-98q0 123 77.5 196.5t200.5 73.5q127 0 200 -69.5t73 -186.5q0 -78 -47.5 -153.5t-100.5 -147.5l-235 -313h401v-84h-590z" />
    <glyph glyph-name="uni00B3" unicode="&#xb3;" horiz-adv-x="666" 
d="M334 580q-62 0 -117 23.5t-97 65.5t-66.5 97t-24.5 117h98q0 -43 14.5 -82t41 -70t65.5 -49t86 -18q49 0 86 17t62.5 47t39 69t13.5 80q0 81 -48.5 137.5t-164.5 56.5v84q86 0 126.5 47t40.5 109q0 59 -36.5 106t-112.5 47q-78 0 -116 -49t-38 -112h-98q0 51 19.5 96
t53.5 78.5t81 52t100 18.5q51 0 96 -18.5t79 -50t52.5 -75.5t18.5 -93q0 -60 -34 -115t-89 -78q78 -20 123 -84.5t45 -156.5q0 -62 -23.5 -116t-64.5 -94t-95.5 -63.5t-115.5 -23.5z" />
    <glyph glyph-name="acute" unicode="&#xb4;" horiz-adv-x="672" 
d="M102 1202l392 232l75 -146l-413 -186z" />
    <glyph glyph-name="mu" unicode="&#xb5;" horiz-adv-x="1083" 
d="M512 -20q-94 0 -167 26.5t-124 75.5l41 -606h-145v1470h155v-469q0 -41 1 -87t8 -81q14 -90 67 -143t164 -53q39 0 80 9t81 26.5t75.5 40t60.5 49.5v708h158v-946h-140l-14 84q-63 -45 -139 -74.5t-162 -29.5z" />
    <glyph glyph-name="paragraph" unicode="&#xb6;" horiz-adv-x="1155" 
d="M473 549q-82 2 -154.5 39t-126 100.5t-85 148.5t-31.5 183q0 96 29.5 183t86 151.5t136.5 102.5t180 38h532v-141h-118v-1651h-156v1651h-135v-1651h-158v846z" />
    <glyph glyph-name="periodcentered" unicode="&#xb7;" horiz-adv-x="360" 
d="M180 453q-41 0 -69.5 27.5t-28.5 68.5t28.5 69.5t69.5 28.5t68.5 -28.5t27.5 -69.5t-27.5 -68.5t-68.5 -27.5z" />
    <glyph glyph-name="periodcentered" unicode="&#x2219;" horiz-adv-x="360" 
d="M180 453q-41 0 -69.5 27.5t-28.5 68.5t28.5 69.5t69.5 28.5t68.5 -28.5t27.5 -69.5t-27.5 -68.5t-68.5 -27.5z" />
    <glyph glyph-name="cedilla" unicode="&#xb8;" horiz-adv-x="565" 
d="M276 -487q-75 0 -135.5 31.5t-97.5 68.5l90 84q25 -25 57.5 -46.5t79.5 -21.5q19 0 40.5 4.5t40 14.5t29.5 26.5t11 42.5q0 54 -38 70t-87 16q-37 0 -76.5 -9t-62.5 -17l41 223h115l-21 -106q10 4 28.5 5t28.5 1q39 0 76 -10.5t65.5 -32t46 -55t17.5 -83.5
q0 -49 -19.5 -87t-53 -64.5t-78.5 -40.5t-97 -14z" />
    <glyph glyph-name="uni00B9" unicode="&#xb9;" horiz-adv-x="387" 
d="M168 1452h-127v84h225v-942h-98v858z" />
    <glyph glyph-name="ordmasculine" unicode="&#xba;" horiz-adv-x="973" 
d="M487 784q-77 0 -145 28t-117 77t-77.5 115.5t-28.5 144.5q0 76 28.5 142.5t78.5 116.5t117 79t144 29q82 0 151 -29t118 -79t75.5 -116.5t26.5 -142.5q0 -80 -27.5 -146.5t-76.5 -114.5t-118 -76t-149 -28zM487 885q123 0 187.5 73.5t64.5 190.5q0 55 -17 103t-49 84
t-79 57.5t-107 21.5q-57 0 -103 -21.5t-79 -57.5t-50 -84t-17 -103q0 -113 66.5 -188.5t182.5 -75.5z" />
    <glyph glyph-name="guillemotright" unicode="&#xbb;" horiz-adv-x="924" 
d="M47 53l299 424l-291 414l121 84l346 -498l-356 -510zM412 53l299 424l-293 414l123 84l346 -498l-357 -510z" />
    <glyph glyph-name="onequarter" unicode="&#xbc;" horiz-adv-x="1432" 
d="M1118 1505h113l-1030 -1515h-113zM186 1411h-127v84h226v-942h-99v858zM1092 270h-453l553 703v-621h119v-82h-119v-270h-100v270zM1092 700l-267 -348h267v348z" />
    <glyph glyph-name="onehalf" unicode="&#xbd;" horiz-adv-x="1536" 
d="M1071 1505h113l-1030 -1515h-113zM195 1411h-127v84h225v-942h-98v858zM1161 461q51 67 86 126.5t35 110.5q0 70 -41 122t-127 52q-88 0 -136 -53t-48 -135h-99q0 123 78 196.5t201 73.5q127 0 199.5 -69.5t72.5 -186.5q0 -77 -47 -153t-100 -148l-236 -313h402v-84h-590
z" />
    <glyph glyph-name="threequarters" unicode="&#xbe;" horiz-adv-x="1624" 
d="M1372 1505h113l-1030 -1515h-113zM381 539q-62 0 -117 23.5t-97 65.5t-66.5 97t-24.5 117h98q0 -43 14.5 -82t41 -70t65.5 -49t86 -18q49 0 86 17t62.5 47t39 69t13.5 80q0 82 -48.5 138t-164.5 56v84q86 0 127 47t41 109q0 59 -37 106t-113 47q-78 0 -116 -49t-38 -112
h-98q0 51 19.5 96t53.5 78.5t81 52t100 18.5q51 0 96 -18.5t79 -50t52.5 -75.5t18.5 -93q0 -60 -34 -115t-89 -78q78 -20 123 -84.5t45 -156.5q0 -62 -23.5 -116t-64.5 -94t-95.5 -63.5t-115.5 -23.5zM1286 270h-452l552 703v-621h119v-82h-119v-270h-100v270zM1286 700
l-266 -348h266v348z" />
    <glyph glyph-name="questiondown" unicode="&#xbf;" horiz-adv-x="879" 
d="M430 -20q-82 0 -150.5 27.5t-118.5 75.5t-78 115.5t-28 147.5q0 76 25.5 135.5t64.5 107.5t84 90t84 83t64.5 86t25.5 100v129h156v-129q0 -71 -25.5 -127.5t-64.5 -103.5t-84 -89t-84 -84t-64.5 -90t-25.5 -108q0 -43 10 -85t35 -74.5t67 -53t105 -20.5q68 0 113 20.5
t72.5 54t39 78.5t11.5 92h155q0 -79 -28.5 -149t-80 -121t-123 -79.5t-157.5 -28.5zM479 1321q-39 0 -67.5 27.5t-28.5 68.5t28.5 70t67.5 29q41 0 70 -29t29 -70t-29 -68.5t-70 -27.5z" />
    <glyph glyph-name="Agrave" unicode="&#xc0;" 
d="M672 1565l667 -1565h-170l-170 403h-657l-172 -403h-170zM942 535l-272 653l-271 -653h543zM438 1757l78 148l391 -232l-53 -100z" />
    <glyph glyph-name="Aacute" unicode="&#xc1;" 
d="M672 1565l667 -1565h-170l-170 403h-657l-172 -403h-170zM942 535l-272 653l-271 -653h543zM453 1675l391 232l76 -146l-414 -186z" />
    <glyph glyph-name="Acircumflex" unicode="&#xc2;" 
d="M672 1565l667 -1565h-170l-170 403h-657l-172 -403h-170zM942 535l-272 653l-271 -653h543zM338 1679l332 228l331 -228l-98 -106l-233 168l-234 -168z" />
    <glyph glyph-name="Atilde" unicode="&#xc3;" 
d="M672 1565l667 -1565h-170l-170 403h-657l-172 -403h-170zM942 535l-272 653l-271 -653h543zM336 1663q24 29 51 58.5t57.5 54t62.5 40t64 15.5q37 0 66 -18.5t53.5 -40t47 -39t46.5 -17.5q35 0 67 36t69 87l102 -96q-23 -29 -50.5 -58.5t-57 -53t-62.5 -39t-66 -15.5
q-34 0 -64 17.5t-55.5 39l-48 40t-45.5 18.5q-34 0 -67 -39t-68 -86z" />
    <glyph glyph-name="Adieresis" unicode="&#xc4;" 
d="M672 1565l667 -1565h-170l-170 403h-657l-172 -403h-170zM942 535l-272 653l-271 -653h543zM514 1591q-41 0 -67.5 29t-26.5 70t26.5 68.5t67.5 27.5t68.5 -27.5t27.5 -68.5t-27.5 -70t-68.5 -29zM831 1591q-40 0 -69 29t-29 70t29 68.5t69 27.5q39 0 67 -27.5t28 -68.5
t-28 -70t-67 -29z" />
    <glyph glyph-name="Aring" unicode="&#xc5;" 
d="M672 1565l667 -1565h-170l-170 403h-657l-172 -403h-170zM942 535l-272 653l-271 -653h543zM672 1575q-47 0 -87 17.5t-70 47t-47 69.5t-17 87t17 88t47 72t70 48t87 17q45 0 86 -17t71.5 -48t48 -72t17.5 -88t-17.5 -87t-48 -69.5t-71.5 -47t-86 -17.5zM672 1686
q47 0 79.5 32.5t32.5 77.5q0 47 -32.5 81t-79.5 34t-80 -34t-33 -81q0 -45 33 -77.5t80 -32.5z" />
    <glyph glyph-name="AE" unicode="&#xc6;" horiz-adv-x="2105" 
d="M10 0l490.5 747.5l492.5 747.5h1043v-133h-762v-528h725v-134h-725v-569h762v-131h-920v434h-639l-282 -434h-185zM1116 569v793h-31l-518 -793h549z" />
    <glyph glyph-name="Ccedilla" unicode="&#xc7;" horiz-adv-x="1401" 
d="M821 -23q-168 0 -310 60.5t-244.5 165t-161 245t-58.5 297.5q0 158 59.5 298.5t164 245t245.5 166t305 61.5q162 0 297 -57.5t240 -155.5l-94 -107q-86 78 -196 132t-249 54q-137 0 -250.5 -52t-194.5 -139t-126 -203t-45 -243q0 -129 46 -243.5t128 -201.5t195.5 -138
t248.5 -51q140 0 248.5 51t194.5 125l88 -105q-107 -98 -240 -151.5t-291 -53.5zM877 -487q-76 0 -136.5 31.5t-97.5 68.5l90 84q25 -25 57.5 -46.5t79.5 -21.5q19 0 40.5 4.5t40 14.5t29.5 26.5t11 42.5q0 54 -38 70t-87 16q-37 0 -76.5 -9t-62.5 -17l41 223h115l-21 -106
q10 4 28.5 5t29.5 1q38 0 75 -10.5t66 -32t46 -55t17 -83.5q0 -49 -19.5 -87t-53 -64.5t-78.5 -40.5t-96 -14z" />
    <glyph glyph-name="Egrave" unicode="&#xc8;" horiz-adv-x="1083" 
d="M102 1495h920v-133h-764v-528h727v-134h-727v-567h764v-133h-920v1495zM362 1757l78 148l391 -232l-53 -100z" />
    <glyph glyph-name="Eacute" unicode="&#xc9;" horiz-adv-x="1083" 
d="M102 1495h920v-133h-764v-528h727v-134h-727v-567h764v-133h-920v1495zM375 1675l391 232l76 -146l-414 -186z" />
    <glyph glyph-name="Ecircumflex" unicode="&#xca;" horiz-adv-x="1083" 
d="M102 1495h920v-133h-764v-528h727v-134h-727v-567h764v-133h-920v1495zM248 1679l332 228l331 -228l-98 -106l-233 168l-234 -168z" />
    <glyph glyph-name="Edieresis" unicode="&#xcb;" horiz-adv-x="1083" 
d="M102 1495h920v-133h-764v-528h727v-134h-727v-567h764v-133h-920v1495zM418 1591q-41 0 -67.5 29t-26.5 70t26.5 68.5t67.5 27.5t68.5 -27.5t27.5 -68.5t-27.5 -70t-68.5 -29zM735 1591q-41 0 -69.5 29t-28.5 70t28.5 68.5t69.5 27.5q39 0 66.5 -27.5t27.5 -68.5
t-27.5 -70t-66.5 -29z" />
    <glyph glyph-name="Igrave" unicode="&#xcc;" horiz-adv-x="360" 
d="M102 1495h156v-1495h-156v1495zM-123 1757l78 148l391 -232l-53 -100z" />
    <glyph glyph-name="Iacute" unicode="&#xcd;" horiz-adv-x="360" 
d="M102 1495h156v-1495h-156v1495zM41 1675l391 232l76 -146l-414 -186z" />
    <glyph glyph-name="Icircumflex" unicode="&#xce;" horiz-adv-x="360" 
d="M102 1495h156v-1495h-156v1495zM-152 1679l332 228l332 -228l-98 -106l-234 168l-233 -168z" />
    <glyph glyph-name="Idieresis" unicode="&#xcf;" horiz-adv-x="360" 
d="M102 1495h156v-1495h-156v1495zM25 1591q-41 0 -68 29t-27 70t27 68.5t68 27.5t68.5 -27.5t27.5 -68.5t-27.5 -70t-68.5 -29zM342 1591q-41 0 -69.5 29t-28.5 70t28.5 68.5t69.5 27.5q39 0 66.5 -27.5t27.5 -68.5t-27.5 -70t-66.5 -29z" />
    <glyph glyph-name="Eth" unicode="&#xd0;" horiz-adv-x="1430" 
d="M145 674h-145v137h145v684l424 2q62 0 123.5 -5t114.5 -15q125 -25 228.5 -85.5t177 -153.5t114.5 -217t41 -273q0 -140 -41 -257.5t-113.5 -210t-174 -158t-222.5 -95.5q-53 -15 -116.5 -21t-129.5 -6h-426v674zM563 133q60 0 117 5t104 20q93 26 170.5 79.5t135 130
t89 172t31.5 203.5q0 121 -30.5 222.5t-88 180.5t-138.5 130t-181 72q-43 8 -96 12t-111 4l-264 -2v-551h504v-137h-504v-541h262z" />
    <glyph glyph-name="Ntilde" unicode="&#xd1;" horiz-adv-x="1462" 
d="M102 1544l1102 -1200v1151h156v-1548l-1102 1202v-1149h-156v1544zM395 1663l51.5 58.5t57.5 54t62.5 40t64.5 15.5q37 0 65.5 -18.5t53 -40t47 -39t47.5 -17.5q35 0 66.5 36t68.5 87l102 -96q-22 -29 -49.5 -58.5t-57.5 -53t-62.5 -39t-65.5 -15.5q-35 0 -64.5 17.5
t-55.5 39l-48.5 40t-44.5 18.5q-35 0 -68 -39t-67 -86z" />
    <glyph glyph-name="Ograve" unicode="&#xd2;" horiz-adv-x="1665" 
d="M834 -20q-162 0 -302.5 58t-245 161.5t-165 243t-60.5 302.5q0 160 61.5 300.5t166 245t245 165t297.5 60.5q166 0 307.5 -58.5t245 -162t162 -244t58.5 -303.5q0 -166 -59.5 -306.5t-163 -244t-244 -160.5t-303.5 -57zM831 113q140 0 253.5 49t194.5 135t125 200.5
t44 245.5q0 136 -44 252.5t-124 202.5t-193.5 135t-252.5 49q-136 0 -249.5 -52t-194.5 -139t-127 -203t-46 -243q0 -129 46 -243.5t127 -200.5t193.5 -137t247.5 -51zM616 1757l78 148l391 -232l-53 -100z" />
    <glyph glyph-name="Oacute" unicode="&#xd3;" horiz-adv-x="1665" 
d="M834 -20q-162 0 -302.5 58t-245 161.5t-165 243t-60.5 302.5q0 160 61.5 300.5t166 245t245 165t297.5 60.5q166 0 307.5 -58.5t245 -162t162 -244t58.5 -303.5q0 -166 -59.5 -306.5t-163 -244t-244 -160.5t-303.5 -57zM831 113q140 0 253.5 49t194.5 135t125 200.5
t44 245.5q0 136 -44 252.5t-124 202.5t-193.5 135t-252.5 49q-136 0 -249.5 -52t-194.5 -139t-127 -203t-46 -243q0 -129 46 -243.5t127 -200.5t193.5 -137t247.5 -51zM600 1675l391 232l76 -146l-414 -186z" />
    <glyph glyph-name="Ocircumflex" unicode="&#xd4;" horiz-adv-x="1665" 
d="M834 -20q-162 0 -302.5 58t-245 161.5t-165 243t-60.5 302.5q0 160 61.5 300.5t166 245t245 165t297.5 60.5q166 0 307.5 -58.5t245 -162t162 -244t58.5 -303.5q0 -166 -59.5 -306.5t-163 -244t-244 -160.5t-303.5 -57zM831 113q140 0 253.5 49t194.5 135t125 200.5
t44 245.5q0 136 -44 252.5t-124 202.5t-193.5 135t-252.5 49q-136 0 -249.5 -52t-194.5 -139t-127 -203t-46 -243q0 -129 46 -243.5t127 -200.5t193.5 -137t247.5 -51zM500 1679l331 228l332 -228l-98 -106l-234 168l-233 -168z" />
    <glyph glyph-name="Otilde" unicode="&#xd5;" horiz-adv-x="1665" 
d="M834 -20q-162 0 -302.5 58t-245 161.5t-165 243t-60.5 302.5q0 160 61.5 300.5t166 245t245 165t297.5 60.5q166 0 307.5 -58.5t245 -162t162 -244t58.5 -303.5q0 -166 -59.5 -306.5t-163 -244t-244 -160.5t-303.5 -57zM831 113q140 0 253.5 49t194.5 135t125 200.5
t44 245.5q0 136 -44 252.5t-124 202.5t-193.5 135t-252.5 49q-136 0 -249.5 -52t-194.5 -139t-127 -203t-46 -243q0 -129 46 -243.5t127 -200.5t193.5 -137t247.5 -51zM504 1663q24 29 51 58.5t57.5 54t62.5 40t64 15.5q37 0 66 -18.5t53.5 -40t47 -39t46.5 -17.5
q35 0 67 36t68 87l103 -96q-23 -29 -50.5 -58.5t-57 -53t-62.5 -39t-66 -15.5q-34 0 -64 17.5t-55.5 39l-48 40t-45.5 18.5q-34 0 -67 -39t-68 -86z" />
    <glyph glyph-name="Odieresis" unicode="&#xd6;" horiz-adv-x="1665" 
d="M834 -20q-162 0 -302.5 58t-245 161.5t-165 243t-60.5 302.5q0 160 61.5 300.5t166 245t245 165t297.5 60.5q166 0 307.5 -58.5t245 -162t162 -244t58.5 -303.5q0 -166 -59.5 -306.5t-163 -244t-244 -160.5t-303.5 -57zM831 113q140 0 253.5 49t194.5 135t125 200.5
t44 245.5q0 136 -44 252.5t-124 202.5t-193.5 135t-252.5 49q-136 0 -249.5 -52t-194.5 -139t-127 -203t-46 -243q0 -129 46 -243.5t127 -200.5t193.5 -137t247.5 -51zM684 1591q-41 0 -67.5 29t-26.5 70t26.5 68.5t67.5 27.5t68.5 -27.5t27.5 -68.5t-27.5 -70t-68.5 -29z
M1001 1591q-40 0 -69 29t-29 70t29 68.5t69 27.5q39 0 67 -27.5t28 -68.5t-28 -70t-67 -29z" />
    <glyph glyph-name="multiply" unicode="&#xd7;" horiz-adv-x="1135" 
d="M176 164l297 299l-291 289l97 96l288 -291l295 295l96 -94l-294 -295l288 -291l-94 -96l-291 291l-295 -299z" />
    <glyph glyph-name="Oslash" unicode="&#xd8;" horiz-adv-x="1665" 
d="M61 45l189 191q-90 100 -139.5 230t-49.5 279q0 160 61.5 300.5t166 245t245 165t297.5 60.5q152 0 282 -49.5t230 -137.5l185 182l78 -77l-185 -183q86 -100 134.5 -228t48.5 -275q0 -166 -59.5 -307.5t-163 -244t-244 -161t-303.5 -58.5q-148 0 -275 48.5t-229 134.5
l-195 -193zM1247 1231q-78 72 -182 111.5t-231 39.5q-136 0 -249.5 -52t-194.5 -139t-127 -203t-46 -243q0 -114 36 -217.5t101 -187.5zM430 262q78 -72 180.5 -111.5t220.5 -39.5q140 0 253.5 49t194.5 135t125 201.5t44 246.5q0 119 -34 221.5t-95 184.5z" />
    <glyph glyph-name="Ugrave" unicode="&#xd9;" horiz-adv-x="1317" 
d="M659 -20q-92 0 -176 22.5t-153.5 63t-120.5 99t-76 130.5q-18 53 -24.5 116.5t-6.5 129.5v954h156v-963q0 -45 3 -91t15 -85q17 -53 53 -97t86 -76.5t112.5 -51t131.5 -18.5q70 0 133.5 18.5t113.5 51t86 76.5t50 97q11 41 14 87t3 89v963h155v-952q0 -66 -5 -128.5
t-23 -115.5q-25 -72 -76 -131t-120.5 -101t-153.5 -64.5t-177 -22.5zM440 1757l78 148l391 -232l-53 -100z" />
    <glyph glyph-name="Uacute" unicode="&#xda;" horiz-adv-x="1317" 
d="M659 -20q-92 0 -176 22.5t-153.5 63t-120.5 99t-76 130.5q-18 53 -24.5 116.5t-6.5 129.5v954h156v-963q0 -45 3 -91t15 -85q17 -53 53 -97t86 -76.5t112.5 -51t131.5 -18.5q70 0 133.5 18.5t113.5 51t86 76.5t50 97q11 41 14 87t3 89v963h155v-952q0 -66 -5 -128.5
t-23 -115.5q-25 -72 -76 -131t-120.5 -101t-153.5 -64.5t-177 -22.5zM438 1675l391 232l76 -146l-413 -186z" />
    <glyph glyph-name="Ucircumflex" unicode="&#xdb;" horiz-adv-x="1317" 
d="M659 -20q-92 0 -176 22.5t-153.5 63t-120.5 99t-76 130.5q-18 53 -24.5 116.5t-6.5 129.5v954h156v-963q0 -45 3 -91t15 -85q17 -53 53 -97t86 -76.5t112.5 -51t131.5 -18.5q70 0 133.5 18.5t113.5 51t86 76.5t50 97q11 41 14 87t3 89v963h155v-952q0 -66 -5 -128.5
t-23 -115.5q-25 -72 -76 -131t-120.5 -101t-153.5 -64.5t-177 -22.5zM326 1679l331 228l332 -228l-98 -106l-234 168l-233 -168z" />
    <glyph glyph-name="Udieresis" unicode="&#xdc;" horiz-adv-x="1317" 
d="M659 -20q-92 0 -176 22.5t-153.5 63t-120.5 99t-76 130.5q-18 53 -24.5 116.5t-6.5 129.5v954h156v-963q0 -45 3 -91t15 -85q17 -53 53 -97t86 -76.5t112.5 -51t131.5 -18.5q70 0 133.5 18.5t113.5 51t86 76.5t50 97q11 41 14 87t3 89v963h155v-952q0 -66 -5 -128.5
t-23 -115.5q-25 -72 -76 -131t-120.5 -101t-153.5 -64.5t-177 -22.5zM502 1591q-41 0 -67.5 29t-26.5 70t26.5 68.5t67.5 27.5t68.5 -27.5t27.5 -68.5t-27.5 -70t-68.5 -29zM819 1591q-41 0 -69.5 29t-28.5 70t28.5 68.5t69.5 27.5q39 0 66.5 -27.5t27.5 -68.5t-27.5 -70
t-66.5 -29z" />
    <glyph glyph-name="Yacute" unicode="&#xdd;" horiz-adv-x="1210" 
d="M528 651l-528 844h184l424 -682l420 682h180l-524 -844v-651h-156v651zM373 1675l391 232l76 -146l-414 -186z" />
    <glyph glyph-name="Thorn" unicode="&#xde;" horiz-adv-x="1141" 
d="M100 1495h156v-260h319q66 0 138.5 -12.5t124.5 -38.5q100 -51 169.5 -154.5t69.5 -251.5q0 -86 -22.5 -156.5t-60.5 -126t-87 -95.5t-104 -62q-47 -21 -111.5 -27t-124.5 -6h-309v-305h-158v1495zM569 442q45 0 86 2t88 17q37 12 70 39.5t56.5 68.5t38 93.5t14.5 111.5
q0 111 -43 179.5t-107 103.5q-35 20 -86 31.5t-111 11.5h-317v-658h311z" />
    <glyph glyph-name="germandbls" unicode="&#xdf;" horiz-adv-x="1057" 
d="M102 813h-82v133h82v209q0 74 25 139.5t72 114.5t115.5 78t156.5 29t159.5 -29t123 -78t79 -114.5t27.5 -139.5q0 -39 -10 -79t-30.5 -75.5t-48.5 -64.5t-60 -47q67 -21 119.5 -63t89 -97t56 -120.5t19.5 -133.5q0 -104 -42 -195.5t-113.5 -159t-166.5 -105.5t-202 -38
v134q80 0 147.5 28.5t116.5 78.5t77 115.5t28 139.5q0 70 -21.5 132.5t-65.5 108.5t-114 72.5t-168 26.5v133q131 0 182.5 60.5t51.5 148.5q0 43 -10.5 83t-36 72.5t-70.5 52t-115 19.5q-67 0 -109 -21.5t-66 -56t-31 -77.5t-7 -86v-1141h-158v813z" />
    <glyph glyph-name="agrave" unicode="&#xe0;" 
d="M672 1565l667 -1565h-170l-170 403h-657l-172 -403h-170zM942 535l-272 653l-271 -653h543zM438 1757l78 148l391 -232l-53 -100z" />
    <glyph glyph-name="aacute" unicode="&#xe1;" 
d="M672 1565l667 -1565h-170l-170 403h-657l-172 -403h-170zM942 535l-272 653l-271 -653h543zM453 1675l391 232l76 -146l-414 -186z" />
    <glyph glyph-name="acircumflex" unicode="&#xe2;" 
d="M672 1565l667 -1565h-170l-170 403h-657l-172 -403h-170zM942 535l-272 653l-271 -653h543zM338 1679l332 228l331 -228l-98 -106l-233 168l-234 -168z" />
    <glyph glyph-name="atilde" unicode="&#xe3;" 
d="M672 1565l667 -1565h-170l-170 403h-657l-172 -403h-170zM942 535l-272 653l-271 -653h543zM336 1663q24 29 51 58.5t57.5 54t62.5 40t64 15.5q37 0 66 -18.5t53.5 -40t47 -39t46.5 -17.5q35 0 67 36t69 87l102 -96q-23 -29 -50.5 -58.5t-57 -53t-62.5 -39t-66 -15.5
q-34 0 -64 17.5t-55.5 39l-48 40t-45.5 18.5q-34 0 -67 -39t-68 -86z" />
    <glyph glyph-name="adieresis" unicode="&#xe4;" 
d="M672 1565l667 -1565h-170l-170 403h-657l-172 -403h-170zM942 535l-272 653l-271 -653h543zM514 1591q-41 0 -67.5 29t-26.5 70t26.5 68.5t67.5 27.5t68.5 -27.5t27.5 -68.5t-27.5 -70t-68.5 -29zM831 1591q-40 0 -69 29t-29 70t29 68.5t69 27.5q39 0 67 -27.5t28 -68.5
t-28 -70t-67 -29z" />
    <glyph glyph-name="aring" unicode="&#xe5;" 
d="M672 1565l667 -1565h-170l-170 403h-657l-172 -403h-170zM942 535l-272 653l-271 -653h543zM672 1575q-47 0 -87 17.5t-70 47t-47 69.5t-17 87t17 88t47 72t70 48t87 17q45 0 86 -17t71.5 -48t48 -72t17.5 -88t-17.5 -87t-48 -69.5t-71.5 -47t-86 -17.5zM672 1686
q47 0 79.5 32.5t32.5 77.5q0 47 -32.5 81t-79.5 34t-80 -34t-33 -81q0 -45 33 -77.5t80 -32.5z" />
    <glyph glyph-name="ae" unicode="&#xe6;" horiz-adv-x="2105" 
d="M10 0l490.5 747.5l492.5 747.5h1043v-133h-762v-528h725v-134h-725v-569h762v-131h-920v434h-639l-282 -434h-185zM1116 569v793h-31l-518 -793h549z" />
    <glyph glyph-name="ccedilla" unicode="&#xe7;" horiz-adv-x="1401" 
d="M821 -23q-168 0 -310 60.5t-244.5 165t-161 245t-58.5 297.5q0 158 59.5 298.5t164 245t245.5 166t305 61.5q162 0 297 -57.5t240 -155.5l-94 -107q-86 78 -196 132t-249 54q-137 0 -250.5 -52t-194.5 -139t-126 -203t-45 -243q0 -129 46 -243.5t128 -201.5t195.5 -138
t248.5 -51q140 0 248.5 51t194.5 125l88 -105q-107 -98 -240 -151.5t-291 -53.5zM877 -487q-76 0 -136.5 31.5t-97.5 68.5l90 84q25 -25 57.5 -46.5t79.5 -21.5q19 0 40.5 4.5t40 14.5t29.5 26.5t11 42.5q0 54 -38 70t-87 16q-37 0 -76.5 -9t-62.5 -17l41 223h115l-21 -106
q10 4 28.5 5t29.5 1q38 0 75 -10.5t66 -32t46 -55t17 -83.5q0 -49 -19.5 -87t-53 -64.5t-78.5 -40.5t-96 -14z" />
    <glyph glyph-name="egrave" unicode="&#xe8;" horiz-adv-x="1083" 
d="M102 1495h920v-133h-764v-528h727v-134h-727v-567h764v-133h-920v1495zM362 1757l78 148l391 -232l-53 -100z" />
    <glyph glyph-name="eacute" unicode="&#xe9;" horiz-adv-x="1083" 
d="M102 1495h920v-133h-764v-528h727v-134h-727v-567h764v-133h-920v1495zM375 1675l391 232l76 -146l-414 -186z" />
    <glyph glyph-name="ecircumflex" unicode="&#xea;" horiz-adv-x="1083" 
d="M102 1495h920v-133h-764v-528h727v-134h-727v-567h764v-133h-920v1495zM248 1679l332 228l331 -228l-98 -106l-233 168l-234 -168z" />
    <glyph glyph-name="edieresis" unicode="&#xeb;" horiz-adv-x="1083" 
d="M102 1495h920v-133h-764v-528h727v-134h-727v-567h764v-133h-920v1495zM418 1591q-41 0 -67.5 29t-26.5 70t26.5 68.5t67.5 27.5t68.5 -27.5t27.5 -68.5t-27.5 -70t-68.5 -29zM735 1591q-41 0 -69.5 29t-28.5 70t28.5 68.5t69.5 27.5q39 0 66.5 -27.5t27.5 -68.5
t-27.5 -70t-66.5 -29z" />
    <glyph glyph-name="igrave" unicode="&#xec;" horiz-adv-x="360" 
d="M102 1495h156v-1495h-156v1495zM-123 1757l78 148l391 -232l-53 -100z" />
    <glyph glyph-name="iacute" unicode="&#xed;" horiz-adv-x="360" 
d="M102 1495h156v-1495h-156v1495zM41 1675l391 232l76 -146l-414 -186z" />
    <glyph glyph-name="icircumflex" unicode="&#xee;" horiz-adv-x="360" 
d="M102 1495h156v-1495h-156v1495zM-152 1679l332 228l332 -228l-98 -106l-234 168l-233 -168z" />
    <glyph glyph-name="idieresis" unicode="&#xef;" horiz-adv-x="360" 
d="M102 1495h156v-1495h-156v1495zM25 1591q-41 0 -68 29t-27 70t27 68.5t68 27.5t68.5 -27.5t27.5 -68.5t-27.5 -70t-68.5 -29zM342 1591q-41 0 -69.5 29t-28.5 70t28.5 68.5t69.5 27.5q39 0 66.5 -27.5t27.5 -68.5t-27.5 -70t-66.5 -29z" />
    <glyph glyph-name="eth" unicode="&#xf0;" horiz-adv-x="1430" 
d="M145 674h-145v137h145v684l424 2q62 0 123.5 -5t114.5 -15q125 -25 228.5 -85.5t177 -153.5t114.5 -217t41 -273q0 -140 -41 -257.5t-113.5 -210t-174 -158t-222.5 -95.5q-53 -15 -116.5 -21t-129.5 -6h-426v674zM563 133q60 0 117 5t104 20q93 26 170.5 79.5t135 130
t89 172t31.5 203.5q0 121 -30.5 222.5t-88 180.5t-138.5 130t-181 72q-43 8 -96 12t-111 4l-264 -2v-551h504v-137h-504v-541h262z" />
    <glyph glyph-name="ntilde" unicode="&#xf1;" horiz-adv-x="1462" 
d="M102 1544l1102 -1200v1151h156v-1548l-1102 1202v-1149h-156v1544zM395 1663l51.5 58.5t57.5 54t62.5 40t64.5 15.5q37 0 65.5 -18.5t53 -40t47 -39t47.5 -17.5q35 0 66.5 36t68.5 87l102 -96q-22 -29 -49.5 -58.5t-57.5 -53t-62.5 -39t-65.5 -15.5q-35 0 -64.5 17.5
t-55.5 39l-48.5 40t-44.5 18.5q-35 0 -68 -39t-67 -86z" />
    <glyph glyph-name="ograve" unicode="&#xf2;" horiz-adv-x="1665" 
d="M834 -20q-162 0 -302.5 58t-245 161.5t-165 243t-60.5 302.5q0 160 61.5 300.5t166 245t245 165t297.5 60.5q166 0 307.5 -58.5t245 -162t162 -244t58.5 -303.5q0 -166 -59.5 -306.5t-163 -244t-244 -160.5t-303.5 -57zM831 113q140 0 253.5 49t194.5 135t125 200.5
t44 245.5q0 136 -44 252.5t-124 202.5t-193.5 135t-252.5 49q-136 0 -249.5 -52t-194.5 -139t-127 -203t-46 -243q0 -129 46 -243.5t127 -200.5t193.5 -137t247.5 -51zM616 1757l78 148l391 -232l-53 -100z" />
    <glyph glyph-name="oacute" unicode="&#xf3;" horiz-adv-x="1665" 
d="M834 -20q-162 0 -302.5 58t-245 161.5t-165 243t-60.5 302.5q0 160 61.5 300.5t166 245t245 165t297.5 60.5q166 0 307.5 -58.5t245 -162t162 -244t58.5 -303.5q0 -166 -59.5 -306.5t-163 -244t-244 -160.5t-303.5 -57zM831 113q140 0 253.5 49t194.5 135t125 200.5
t44 245.5q0 136 -44 252.5t-124 202.5t-193.5 135t-252.5 49q-136 0 -249.5 -52t-194.5 -139t-127 -203t-46 -243q0 -129 46 -243.5t127 -200.5t193.5 -137t247.5 -51zM600 1675l391 232l76 -146l-414 -186z" />
    <glyph glyph-name="ocircumflex" unicode="&#xf4;" horiz-adv-x="1665" 
d="M834 -20q-162 0 -302.5 58t-245 161.5t-165 243t-60.5 302.5q0 160 61.5 300.5t166 245t245 165t297.5 60.5q166 0 307.5 -58.5t245 -162t162 -244t58.5 -303.5q0 -166 -59.5 -306.5t-163 -244t-244 -160.5t-303.5 -57zM831 113q140 0 253.5 49t194.5 135t125 200.5
t44 245.5q0 136 -44 252.5t-124 202.5t-193.5 135t-252.5 49q-136 0 -249.5 -52t-194.5 -139t-127 -203t-46 -243q0 -129 46 -243.5t127 -200.5t193.5 -137t247.5 -51zM500 1679l331 228l332 -228l-98 -106l-234 168l-233 -168z" />
    <glyph glyph-name="otilde" unicode="&#xf5;" horiz-adv-x="1665" 
d="M834 -20q-162 0 -302.5 58t-245 161.5t-165 243t-60.5 302.5q0 160 61.5 300.5t166 245t245 165t297.5 60.5q166 0 307.5 -58.5t245 -162t162 -244t58.5 -303.5q0 -166 -59.5 -306.5t-163 -244t-244 -160.5t-303.5 -57zM831 113q140 0 253.5 49t194.5 135t125 200.5
t44 245.5q0 136 -44 252.5t-124 202.5t-193.5 135t-252.5 49q-136 0 -249.5 -52t-194.5 -139t-127 -203t-46 -243q0 -129 46 -243.5t127 -200.5t193.5 -137t247.5 -51zM504 1663q24 29 51 58.5t57.5 54t62.5 40t64 15.5q37 0 66 -18.5t53.5 -40t47 -39t46.5 -17.5
q35 0 67 36t68 87l103 -96q-23 -29 -50.5 -58.5t-57 -53t-62.5 -39t-66 -15.5q-34 0 -64 17.5t-55.5 39l-48 40t-45.5 18.5q-34 0 -67 -39t-68 -86z" />
    <glyph glyph-name="odieresis" unicode="&#xf6;" horiz-adv-x="1665" 
d="M834 -20q-162 0 -302.5 58t-245 161.5t-165 243t-60.5 302.5q0 160 61.5 300.5t166 245t245 165t297.5 60.5q166 0 307.5 -58.5t245 -162t162 -244t58.5 -303.5q0 -166 -59.5 -306.5t-163 -244t-244 -160.5t-303.5 -57zM831 113q140 0 253.5 49t194.5 135t125 200.5
t44 245.5q0 136 -44 252.5t-124 202.5t-193.5 135t-252.5 49q-136 0 -249.5 -52t-194.5 -139t-127 -203t-46 -243q0 -129 46 -243.5t127 -200.5t193.5 -137t247.5 -51zM684 1591q-41 0 -67.5 29t-26.5 70t26.5 68.5t67.5 27.5t68.5 -27.5t27.5 -68.5t-27.5 -70t-68.5 -29z
M1001 1591q-40 0 -69 29t-29 70t29 68.5t69 27.5q39 0 67 -27.5t28 -68.5t-28 -70t-67 -29z" />
    <glyph glyph-name="divide" unicode="&#xf7;" horiz-adv-x="1135" 
d="M176 164l297 299l-291 289l97 96l288 -291l295 295l96 -94l-294 -295l288 -291l-94 -96l-291 291l-295 -299z" />
    <glyph glyph-name="oslash" unicode="&#xf8;" horiz-adv-x="1665" 
d="M61 45l189 191q-90 100 -139.5 230t-49.5 279q0 160 61.5 300.5t166 245t245 165t297.5 60.5q152 0 282 -49.5t230 -137.5l185 182l78 -77l-185 -183q86 -100 134.5 -228t48.5 -275q0 -166 -59.5 -307.5t-163 -244t-244 -161t-303.5 -58.5q-148 0 -275 48.5t-229 134.5
l-195 -193zM1247 1231q-78 72 -182 111.5t-231 39.5q-136 0 -249.5 -52t-194.5 -139t-127 -203t-46 -243q0 -114 36 -217.5t101 -187.5zM430 262q78 -72 180.5 -111.5t220.5 -39.5q140 0 253.5 49t194.5 135t125 201.5t44 246.5q0 119 -34 221.5t-95 184.5z" />
    <glyph glyph-name="ugrave" unicode="&#xf9;" horiz-adv-x="1317" 
d="M659 -20q-92 0 -176 22.5t-153.5 63t-120.5 99t-76 130.5q-18 53 -24.5 116.5t-6.5 129.5v954h156v-963q0 -45 3 -91t15 -85q17 -53 53 -97t86 -76.5t112.5 -51t131.5 -18.5q70 0 133.5 18.5t113.5 51t86 76.5t50 97q11 41 14 87t3 89v963h155v-952q0 -66 -5 -128.5
t-23 -115.5q-25 -72 -76 -131t-120.5 -101t-153.5 -64.5t-177 -22.5zM440 1757l78 148l391 -232l-53 -100z" />
    <glyph glyph-name="uacute" unicode="&#xfa;" horiz-adv-x="1317" 
d="M659 -20q-92 0 -176 22.5t-153.5 63t-120.5 99t-76 130.5q-18 53 -24.5 116.5t-6.5 129.5v954h156v-963q0 -45 3 -91t15 -85q17 -53 53 -97t86 -76.5t112.5 -51t131.5 -18.5q70 0 133.5 18.5t113.5 51t86 76.5t50 97q11 41 14 87t3 89v963h155v-952q0 -66 -5 -128.5
t-23 -115.5q-25 -72 -76 -131t-120.5 -101t-153.5 -64.5t-177 -22.5zM438 1675l391 232l76 -146l-413 -186z" />
    <glyph glyph-name="ucircumflex" unicode="&#xfb;" horiz-adv-x="1317" 
d="M659 -20q-92 0 -176 22.5t-153.5 63t-120.5 99t-76 130.5q-18 53 -24.5 116.5t-6.5 129.5v954h156v-963q0 -45 3 -91t15 -85q17 -53 53 -97t86 -76.5t112.5 -51t131.5 -18.5q70 0 133.5 18.5t113.5 51t86 76.5t50 97q11 41 14 87t3 89v963h155v-952q0 -66 -5 -128.5
t-23 -115.5q-25 -72 -76 -131t-120.5 -101t-153.5 -64.5t-177 -22.5zM326 1679l331 228l332 -228l-98 -106l-234 168l-233 -168z" />
    <glyph glyph-name="udieresis" unicode="&#xfc;" horiz-adv-x="1317" 
d="M659 -20q-92 0 -176 22.5t-153.5 63t-120.5 99t-76 130.5q-18 53 -24.5 116.5t-6.5 129.5v954h156v-963q0 -45 3 -91t15 -85q17 -53 53 -97t86 -76.5t112.5 -51t131.5 -18.5q70 0 133.5 18.5t113.5 51t86 76.5t50 97q11 41 14 87t3 89v963h155v-952q0 -66 -5 -128.5
t-23 -115.5q-25 -72 -76 -131t-120.5 -101t-153.5 -64.5t-177 -22.5zM502 1591q-41 0 -67.5 29t-26.5 70t26.5 68.5t67.5 27.5t68.5 -27.5t27.5 -68.5t-27.5 -70t-68.5 -29zM819 1591q-41 0 -69.5 29t-28.5 70t28.5 68.5t69.5 27.5q39 0 66.5 -27.5t27.5 -68.5t-27.5 -70
t-66.5 -29z" />
    <glyph glyph-name="yacute" unicode="&#xfd;" horiz-adv-x="1210" 
d="M528 651l-528 844h184l424 -682l420 682h180l-524 -844v-651h-156v651zM373 1675l391 232l76 -146l-414 -186z" />
    <glyph glyph-name="thorn" unicode="&#xfe;" horiz-adv-x="1141" 
d="M100 1495h156v-260h319q66 0 138.5 -12.5t124.5 -38.5q100 -51 169.5 -154.5t69.5 -251.5q0 -86 -22.5 -156.5t-60.5 -126t-87 -95.5t-104 -62q-47 -21 -111.5 -27t-124.5 -6h-309v-305h-158v1495zM569 442q45 0 86 2t88 17q37 12 70 39.5t56.5 68.5t38 93.5t14.5 111.5
q0 111 -43 179.5t-107 103.5q-35 20 -86 31.5t-111 11.5h-317v-658h311z" />
    <glyph glyph-name="ydieresis" unicode="&#xff;" horiz-adv-x="1057" 
d="M102 813h-82v133h82v209q0 74 25 139.5t72 114.5t115.5 78t156.5 29t159.5 -29t123 -78t79 -114.5t27.5 -139.5q0 -39 -10 -79t-30.5 -75.5t-48.5 -64.5t-60 -47q67 -21 119.5 -63t89 -97t56 -120.5t19.5 -133.5q0 -104 -42 -195.5t-113.5 -159t-166.5 -105.5t-202 -38
v134q80 0 147.5 28.5t116.5 78.5t77 115.5t28 139.5q0 70 -21.5 132.5t-65.5 108.5t-114 72.5t-168 26.5v133q131 0 182.5 60.5t51.5 148.5q0 43 -10.5 83t-36 72.5t-70.5 52t-115 19.5q-67 0 -109 -21.5t-66 -56t-31 -77.5t-7 -86v-1141h-158v813z" />
    <glyph glyph-name="dotlessi" unicode="&#x131;" horiz-adv-x="514" 
 />
    <glyph glyph-name="circumflex" unicode="&#x2c6;" horiz-adv-x="1024" 
 />
    <glyph glyph-name="caron" unicode="&#x2c7;" horiz-adv-x="1024" 
 />
    <glyph glyph-name="uni02C9" unicode="&#x2c9;" horiz-adv-x="1024" 
 />
    <glyph glyph-name="breve" unicode="&#x2d8;" horiz-adv-x="1024" 
 />
    <glyph glyph-name="dotaccent" unicode="&#x2d9;" horiz-adv-x="1024" 
 />
    <glyph glyph-name="ring" unicode="&#x2da;" horiz-adv-x="1024" 
 />
    <glyph glyph-name="ogonek" unicode="&#x2db;" horiz-adv-x="1024" 
 />
    <glyph glyph-name="tilde" unicode="&#x2dc;" horiz-adv-x="1024" 
 />
    <glyph glyph-name="hungarumlaut" unicode="&#x2dd;" horiz-adv-x="1024" 
 />
    <glyph glyph-name="endash" unicode="&#x2013;" horiz-adv-x="1108" 
 />
    <glyph glyph-name="emdash" unicode="&#x2014;" horiz-adv-x="2048" 
 />
    <glyph glyph-name="quoteleft" unicode="&#x2018;" horiz-adv-x="557" 
 />
    <glyph glyph-name="quoteright" unicode="&#x2019;" horiz-adv-x="557" 
 />
    <glyph glyph-name="quotesinglbase" unicode="&#x201a;" horiz-adv-x="557" 
 />
    <glyph glyph-name="quotedblleft" unicode="&#x201c;" horiz-adv-x="910" 
 />
    <glyph glyph-name="quotedblright" unicode="&#x201d;" horiz-adv-x="910" 
 />
    <glyph glyph-name="quotedblbase" unicode="&#x201e;" horiz-adv-x="910" 
 />
    <glyph glyph-name="dagger" unicode="&#x2020;" horiz-adv-x="1014" 
 />
    <glyph glyph-name="daggerdbl" unicode="&#x2021;" horiz-adv-x="1014" 
 />
    <glyph glyph-name="bullet" unicode="&#x2022;" horiz-adv-x="1024" 
 />
    <glyph glyph-name="ellipsis" unicode="&#x2026;" horiz-adv-x="2048" 
 />
    <glyph glyph-name="guilsinglleft" unicode="&#x2039;" horiz-adv-x="631" 
 />
    <glyph glyph-name="guilsinglright" unicode="&#x203a;" horiz-adv-x="631" 
 />
    <glyph glyph-name="fraction" unicode="&#x2044;" horiz-adv-x="342" 
 />
    <glyph glyph-name="fraction" unicode="&#x2215;" horiz-adv-x="342" 
 />
    <glyph glyph-name="franc" unicode="&#x20a3;" horiz-adv-x="1014" 
 />
    <glyph glyph-name="lira" unicode="&#x20a4;" horiz-adv-x="1014" 
 />
    <glyph glyph-name="peseta" unicode="&#x20a7;" horiz-adv-x="2028" 
 />
    <glyph glyph-name="Euro" unicode="&#x20ac;" horiz-adv-x="1014" 
 />
    <glyph glyph-name="uni2116" unicode="&#x2116;" horiz-adv-x="2271" 
 />
    <glyph glyph-name="trademark" unicode="&#x2122;" horiz-adv-x="1497" 
 />
    <glyph glyph-name="partialdiff" unicode="&#x2202;" horiz-adv-x="1014" 
 />
    <glyph glyph-name="Delta" unicode="&#x2206;" horiz-adv-x="1081" 
 />
    <glyph glyph-name="product" unicode="&#x220f;" horiz-adv-x="1515" 
 />
    <glyph glyph-name="summation" unicode="&#x2211;" horiz-adv-x="1206" 
 />
    <glyph glyph-name="minus" unicode="&#x2212;" horiz-adv-x="1014" 
 />
    <glyph glyph-name="radical" unicode="&#x221a;" horiz-adv-x="1014" 
 />
    <glyph glyph-name="infinity" unicode="&#x221e;" horiz-adv-x="1014" 
 />
    <glyph glyph-name="integral" unicode="&#x222b;" horiz-adv-x="665" 
 />
    <glyph glyph-name="approxequal" unicode="&#x2248;" horiz-adv-x="1014" 
 />
    <glyph glyph-name="lessequal" unicode="&#x2264;" horiz-adv-x="1014" 
 />
    <glyph glyph-name="greaterequal" unicode="&#x2265;" horiz-adv-x="1014" 
 />
    <glyph glyph-name="uniF001" unicode="&#xf001;" horiz-adv-x="1073" 
 />
    <glyph glyph-name="uniF001" unicode="&#xfb01;" horiz-adv-x="1073" 
 />
    <glyph glyph-name="uniF002" unicode="&#xf002;" horiz-adv-x="1081" 
 />
    <glyph glyph-name="uniF002" unicode="&#xfb02;" horiz-adv-x="1081" 
 />
  </font>
</defs>
</svg>
